<?xml version="1.0" standalone="no"?>
<!DOCTYPE svg PUBLIC "-//W3C//DTD SVG 1.1//EN" "http://www.w3.org/Graphics/SVG/1.1/DTD/svg11.dtd" >
<svg xmlns="http://www.w3.org/2000/svg">
<metadata></metadata>
<defs>
<font id="tradegothicw01-bold2regular" horiz-adv-x="1251" >
<font-face units-per-em="2048" ascent="1579" descent="-469" />
<missing-glyph horiz-adv-x="624" />
<glyph horiz-adv-x="2048" />
<glyph horiz-adv-x="2048" />
<glyph unicode="&#xd;" horiz-adv-x="569" />
<glyph unicode=" "  horiz-adv-x="624" />
<glyph unicode="&#x09;" horiz-adv-x="624" />
<glyph unicode="&#xa0;" horiz-adv-x="624" />
<glyph unicode="!" horiz-adv-x="681" d="M188 1479h304l-54 -979h-196zM199 0v291h282v-291h-282z" />
<glyph unicode="&#x22;" horiz-adv-x="681" d="M49 922v557h230v-557h-230zM403 922v557h230v-557h-230z" />
<glyph unicode="#" d="M125 432v184h190l35 246h-164v185h189l57 432h193l-56 -432h197l57 432h193l-55 -432h163v-185h-188l-35 -246h164v-184h-191l-57 -432h-192l55 432h-197l-57 -432h-193l56 432h-164zM510 616h197l34 246h-196z" />
<glyph unicode="$" d="M86 244l176 151q57 -86 122 -128t155 -62v444q-86 18 -166 53t-140.5 86.5t-96.5 119t-36 153.5q0 102 36 180t96.5 130t140.5 79t166 29v147h151v-147q119 -4 218.5 -53.5t201.5 -149.5l-160 -158q-61 59 -119.5 101.5t-140.5 54.5v-410q109 -33 193 -73.5t142 -96 t88 -128t30 -169.5q0 -102 -36 -174.5t-97.5 -121t-144.5 -73t-175 -28.5v-246h-151v246q-135 14 -251 71.5t-202 172.5zM330 1079q0 -72 49 -107.5t160 -66.5v369q-94 -6 -151.5 -50t-57.5 -145zM690 205q39 0 79 8t72.5 29.5t52 57.5t19.5 91q0 90 -61 138.5t-162 74.5 v-399z" />
<glyph unicode="%" horiz-adv-x="1820" d="M70 1110q0 76 28.5 142.5t77.5 116.5t116.5 80t145.5 30t145.5 -30t117 -80t78 -116.5t28.5 -142.5t-28.5 -142.5t-78 -116.5t-117 -80t-145.5 -30t-145.5 30t-116.5 80t-77.5 116.5t-28.5 142.5zM270 1110q0 -33 13.5 -63.5t36 -53t53 -37t65.5 -14.5t66 14.5t53.5 37 t35.5 53t13 63.5t-13 63.5t-35.5 53t-53.5 37t-66 14.5t-65.5 -14.5t-53 -37t-36 -53t-13.5 -63.5zM403 -20l850 1519h174l-849 -1519h-175zM1014 369q0 76 28.5 142.5t77.5 116.5t116.5 79.5t145.5 29.5t145.5 -29.5t117 -79.5t78 -117t28.5 -142q0 -76 -28.5 -142.5 t-78 -117t-117 -80t-145.5 -29.5t-145.5 29.5t-116.5 80t-77.5 117t-28.5 142.5zM1214 369q0 -33 13.5 -64t36 -53.5t53.5 -36.5t65 -14q35 0 66 14t53.5 36.5t35.5 53.5t13 64t-13 63.5t-35.5 53t-53.5 37t-66 14.5t-65.5 -14.5t-53 -37t-36 -53.5t-13.5 -63z" />
<glyph unicode="&#x26;" horiz-adv-x="1366" d="M82 410q0 68 18.5 124t51 103t77.5 86t99 76q-61 88 -93 168t-32 188q0 78 27.5 141.5t77.5 108.5t119 69.5t151 24.5q74 0 137 -25.5t111 -69.5t76 -104.5t28 -130.5q0 -72 -25.5 -130t-65.5 -107t-91.5 -92t-102.5 -84q59 -82 125 -157t135 -136q45 66 79 135.5 t60 142.5l226 -61q-35 -94 -78 -185.5t-102 -177.5q47 -43 100 -70.5t108 -29.5v-237q-53 0 -94 5t-81 21.5t-85 47t-108 81.5q-76 -78 -170 -116.5t-205 -38.5q-104 0 -190 25.5t-149.5 78.5t-98.5 134t-35 192zM348 422q0 -41 17.5 -78t48 -65.5t69.5 -45t82 -16.5 q53 0 104.5 20.5t92.5 61.5q-90 70 -163 148.5t-132 168.5q-53 -43 -86 -82.5t-33 -111.5zM440 1174q0 -66 21.5 -126.5t56.5 -113.5q33 25 63.5 52.5t55.5 58t40 64.5t15 71q0 61 -31.5 106t-95.5 45q-43 0 -84 -40.5t-41 -116.5z" />
<glyph unicode="'" horiz-adv-x="454" d="M113 922v557h229v-557h-229z" />
<glyph unicode="(" horiz-adv-x="681" d="M102 664q0 131 18.5 238.5t54.5 205.5t88 193.5t118 197.5h248q-150 -193 -223.5 -397.5t-73.5 -437.5t73.5 -438.5t223.5 -397.5h-248q-66 102 -118 196.5t-88 192.5t-54.5 206.5t-18.5 240.5z" />
<glyph unicode=")" horiz-adv-x="681" d="M53 -172q150 193 223.5 397.5t73.5 438.5q0 233 -73.5 438t-223.5 397h248q66 -102 118 -197.5t88 -193.5t54.5 -205.5t18.5 -238.5t-18.5 -240t-54.5 -207t-88 -192.5t-118 -196.5h-248z" />
<glyph unicode="*" horiz-adv-x="1024" d="M135 1128l53 183l273 -140l8 11l-63 297h202l-53 -299l10 -11l262 152l62 -184l-299 -47l219 -218l-152 -118l-137 272l-14 -2l-131 -268l-154 108l217 215l-4 13z" />
<glyph unicode="+" horiz-adv-x="1228" d="M82 422v221h422v422h221v-422h422v-221h-422v-422h-221v422h-422z" />
<glyph unicode="," horiz-adv-x="624" d="M170 0v291h283v-291l-131 -307h-134l105 307h-123z" />
<glyph unicode="-" horiz-adv-x="681" d="M90 422v221h502v-221h-502z" />
<glyph unicode="." horiz-adv-x="624" d="M170 0v291h283v-291h-283z" />
<glyph unicode="/" horiz-adv-x="569" d="M-57 -20l460 1519h224l-461 -1519h-223z" />
<glyph unicode="0" d="M86 739q0 160 28.5 298.5t93 240.5t167 161.5t250.5 59.5q147 0 249.5 -59.5t167 -161.5t93 -240.5t28.5 -298.5t-28.5 -298t-93 -240.5t-167 -161.5t-249.5 -59t-250 59t-167.5 161.5t-93 240.5t-28.5 298zM352 739q0 -152 19.5 -255t55.5 -165.5t86 -90t112 -27.5 q61 0 111 27.5t86 90t55.5 166t19.5 254.5q0 152 -19.5 255.5t-55.5 166t-86 90t-111 27.5t-111.5 -27.5t-86.5 -90t-55.5 -166t-19.5 -255.5z" />
<glyph unicode="1" d="M266 1225v172q102 4 186.5 28.5t135.5 73.5h207v-1294h227v-205h-723v205h229v1020h-262z" />
<glyph unicode="2" d="M115 0v244q10 57 69.5 122.5t140.5 135t172 142.5t167.5 145.5t128 144.5t51.5 139q0 98 -58.5 151.5t-160.5 53.5q-111 0 -176.5 -65.5t-90.5 -168.5l-237 52q12 86 55 159.5t110.5 128t155.5 85t187 30.5q98 0 185 -27.5t152.5 -82t104.5 -133t39 -183.5 q0 -135 -57.5 -236.5t-154.5 -194.5t-224 -190.5t-264 -222.5h700v-229h-995z" />
<glyph unicode="3" d="M63 266l213 121q53 -92 129 -139t183 -47q49 0 95 14t82 43t57.5 71t21.5 95q0 90 -45 140t-111.5 75t-144.5 30t-146 5v221q82 0 154 7t126 29.5t86 63.5t32 107q0 80 -60.5 128t-152.5 48q-94 0 -161 -44t-122 -104l-176 160q109 115 222.5 162t227.5 47 q100 0 189.5 -24.5t156 -72.5t104.5 -119t38 -165q0 -111 -58.5 -191.5t-164.5 -127.5q133 -41 202.5 -138.5t69.5 -236.5q0 -117 -45 -201t-119 -138t-168 -79.5t-192 -25.5q-78 0 -155 18t-146.5 54t-126 89.5t-95.5 124.5z" />
<glyph unicode="4" d="M49 340v260l631 879h289v-934h209v-205h-209v-340h-254v340h-666zM254 545h461v659h-4z" />
<glyph unicode="5" d="M111 256l221 115q35 -78 110.5 -122t151.5 -46q141 -4 207.5 81t66.5 224q0 57 -17 106.5t-50 86t-80 57t-105 20.5q-78 0 -135 -35.5t-88 -91.5l-213 41l56 787h798v-230h-598l-20 -336q18 18 40.5 34t55.5 28t77 18t103 6q100 0 181 -43t139.5 -112.5t90.5 -157.5 t32 -178q0 -121 -35 -219.5t-103.5 -167t-171 -105t-235.5 -36.5q-176 0 -297 75.5t-182 200.5z" />
<glyph unicode="6" d="M100 651q0 193 43 349.5t124 267t199 171t269 60.5q109 0 195 -28.5t172 -81.5l-117 -213q-47 41 -108.5 71.5t-141.5 30.5q-76 0 -142.5 -35t-115.5 -96.5t-78.5 -143t-31.5 -176.5q72 63 150.5 91t180.5 28q98 0 181.5 -34.5t143.5 -98t95 -152t35 -194.5 q0 -117 -40 -207t-110.5 -152.5t-166 -95t-205.5 -32.5q-117 0 -214.5 41.5t-168 124.5t-109.5 209t-39 296zM367 557q0 -94 24.5 -161.5t64.5 -110.5t91 -63.5t104 -20.5q106 0 172 69.5t64 186.5q2 123 -63.5 195.5t-190.5 72.5q-178 0 -266 -168z" />
<glyph unicode="7" d="M119 1249v230h1014v-154l-609 -1325h-293l598 1249h-710z" />
<glyph unicode="8" d="M76 381q0 154 81 250t216 155q-55 29 -99.5 62t-76 74t-49 92t-17.5 116q0 84 35 153t99.5 117t155.5 73.5t204 25.5t204 -25.5t155.5 -73.5t99 -117t34.5 -153q0 -66 -17.5 -116.5t-49 -91.5t-75.5 -74t-99 -62q135 -59 216 -155t81 -250q0 -90 -42 -165t-116 -127 t-174.5 -80.5t-216.5 -28.5q-117 0 -217.5 28.5t-174 80.5t-115.5 127t-42 165zM342 399q0 -98 71 -156.5t212 -58.5t211.5 58.5t70.5 156.5q0 49 -38 97.5t-88 86.5t-100 61.5t-75 23.5t-68.5 -20.5t-87.5 -57.5t-76 -86t-32 -105zM397 1126q0 -51 24.5 -92t60.5 -70.5 t75 -46t68 -16.5t67.5 20.5t74.5 52.5t60.5 71.5t24.5 80.5q0 74 -51 121t-178 47q-123 0 -174.5 -47t-51.5 -121z" />
<glyph unicode="9" d="M74 1012q0 117 40 207t110.5 152.5t165.5 95t206 32.5q117 0 214 -42t168 -125t109.5 -210t38.5 -295q0 -195 -43 -351.5t-123.5 -267t-199.5 -169.5t-268 -59q-109 0 -195 28.5t-172 81.5l117 213q47 -41 108.5 -71.5t141.5 -30.5q76 0 142 34.5t115.5 96t79 143.5 t31.5 176q-72 -63 -150.5 -91t-181.5 -28q-98 0 -181 35t-143.5 98.5t-95 151.5t-34.5 195zM340 1022q-2 -123 63.5 -195.5t190.5 -72.5q178 0 266 168q0 94 -24.5 161.5t-64.5 110.5t-91 63.5t-105 20.5q-106 0 -171.5 -69.5t-63.5 -186.5z" />
<glyph unicode=":" horiz-adv-x="624" d="M170 0v291h283v-291h-283zM170 614v291h283v-291h-283z" />
<glyph unicode=";" horiz-adv-x="624" d="M170 0v291h283v-291l-131 -307h-134l105 307h-123zM170 614v291h283v-291h-283z" />
<glyph unicode="&#x3c;" horiz-adv-x="1228" d="M82 438v189l1065 454v-227l-762 -322l762 -321v-227z" />
<glyph unicode="=" horiz-adv-x="1228" d="M82 197v221h1065v-221h-1065zM82 647v221h1065v-221h-1065z" />
<glyph unicode="&#x3e;" horiz-adv-x="1228" d="M82 -16v227l762 321l-762 322v227l1065 -454v-189z" />
<glyph unicode="?" horiz-adv-x="909" d="M20 1180q39 154 147.5 236.5t274.5 82.5q76 0 142.5 -21.5t118 -62.5t81 -102.5t29.5 -141.5q0 -102 -46 -174.5t-101 -138.5t-101.5 -132.5t-46.5 -152.5v-75h-225v112q0 88 41 164t90 146t90 134t41 130q0 47 -39 78.5t-90 31.5q-37 0 -65.5 -16t-50 -42t-36 -57.5 t-18.5 -64.5zM268 0v291h283v-291h-283z" />
<glyph unicode="@" horiz-adv-x="1638" d="M92 737q0 162 60.5 301.5t163 241.5t240.5 160.5t296 58.5q131 0 256 -44t222 -124t155.5 -194.5t58.5 -255.5q0 -113 -28.5 -200t-74.5 -152.5t-103.5 -110.5t-114 -73t-105.5 -40t-80 -12q-43 0 -74.5 25.5t-33.5 78.5l-4 2q-37 -43 -91.5 -74.5t-107.5 -31.5 q-66 0 -124 28.5t-102 78t-71 115t-27 136.5q0 92 29 179.5t83 155t130 108.5t170 41q74 0 135.5 -31t104.5 -96l22 102h180l-100 -500q-4 -16 -8 -35.5t-4 -37.5q0 -45 29 -45q35 0 70.5 21.5t64 62t47 103t18.5 144.5q0 123 -40 217.5t-110.5 158t-168 96t-209.5 32.5 q-125 0 -226.5 -45t-173 -124t-110.5 -186.5t-39 -234.5q0 -135 43 -242.5t120 -184.5t184.5 -117.5t234.5 -40.5q117 0 217 38.5t176 104.5h184q-104 -154 -255.5 -234.5t-338.5 -80.5q-158 0 -298 56t-244.5 157.5t-166 240.5t-61.5 303zM627 682q0 -74 40.5 -123 t112.5 -49q49 0 89 21.5t69 55.5t44 78t15 91q0 74 -43 121t-114 47q-47 0 -86 -19.5t-67 -52.5t-44 -77t-16 -93z" />
<glyph unicode="A" d="M27 0l426 1481h352l420 -1481h-281l-82 319h-467l-88 -319h-280zM457 553h344l-166 643h-4z" />
<glyph unicode="B" horiz-adv-x="1366" d="M160 0v1479h549q111 0 200.5 -19.5t154 -62.5t102.5 -113t44 -168q0 -117 -51 -203t-174 -133q72 -29 121 -62.5t80 -77.5t44 -105.5t13 -145.5q0 -86 -30.5 -157.5t-97 -123t-168 -80t-242.5 -28.5h-545zM442 229h283q123 0 179.5 54.5t56.5 160.5t-56.5 160.5 t-179.5 54.5h-283v-430zM442 889h283q102 0 152.5 51t50.5 129t-50.5 129t-152.5 51h-283v-360z" />
<glyph unicode="C" d="M61 739q0 365 155 562.5t439 197.5q213 0 338 -95t178 -294l-256 -61q-31 94 -97 153.5t-171 59.5q-141 0 -222 -130.5t-81 -392.5v-19q0 -503 311 -503q47 0 87 10.5t74 35t65.5 66.5t62.5 107l262 -69q-66 -193 -206 -290t-345 -97q-285 0 -439.5 197.5t-154.5 561.5z " />
<glyph unicode="D" horiz-adv-x="1366" d="M160 0v1479h489q147 0 268 -42t209 -132.5t137.5 -229.5t49.5 -336t-49.5 -336t-137.5 -229t-208.5 -132t-268.5 -42h-489zM442 238h189q121 0 198.5 40.5t121.5 110.5t61.5 161t17.5 189t-17.5 189.5t-61.5 161t-121.5 110.5t-198.5 41h-189v-1003z" />
<glyph unicode="E" d="M172 0v1479h979v-238h-696v-352h506v-238h-506v-413h719v-238h-1002z" />
<glyph unicode="F" horiz-adv-x="1138" d="M160 0v1479h942v-238h-660v-352h494v-238h-494v-651h-282z" />
<glyph unicode="G" horiz-adv-x="1366" d="M61 717q0 141 30 281.5t101.5 251t189.5 180t296 69.5q111 0 199 -28.5t154.5 -79t111.5 -119t71 -150.5l-262 -69q-51 111 -118.5 160t-178.5 49q-78 0 -136 -38t-97 -107.5t-58.5 -169t-19.5 -222.5q0 -233 83 -370.5t230 -137.5q139 0 222.5 82t87.5 211h-281v238h553 v-748h-205v152q-90 -98 -179 -135t-206 -37q-152 0 -262.5 56t-182 155.5t-107.5 233.5t-36 292z" />
<glyph unicode="H" horiz-adv-x="1478" d="M172 0v1479h283v-590h569v590h283v-1479h-283v635h-569v-635h-283z" />
<glyph unicode="I" horiz-adv-x="681" d="M199 0v1479h282v-1479h-282z" />
<glyph unicode="J" horiz-adv-x="909" d="M-10 178l194 146q37 -61 72 -84t82 -23q51 0 84 39t33 137v1086h282v-1080q0 -209 -100 -314t-299 -105q-117 0 -202 52t-146 146z" />
<glyph unicode="K" horiz-adv-x="1366" d="M160 0v1479h282v-658l494 658h326l-420 -555l487 -924h-313l-367 702l-207 -258v-444h-282z" />
<glyph unicode="L" horiz-adv-x="1138" d="M160 0v1479h282v-1241h643v-238h-925z" />
<glyph unicode="M" horiz-adv-x="1705" d="M166 0v1479h397l285 -1033h4l287 1033h401v-1479h-246v1163h-4l-332 -1163h-215l-327 1163h-4v-1163h-246z" />
<glyph unicode="N" horiz-adv-x="1478" d="M166 0v1479h295l581 -1008h5v1008h266v-1479h-273l-604 1053h-4v-1053h-266z" />
<glyph unicode="O" horiz-adv-x="1366" d="M61 739q0 365 158 562.5t463 197.5t463 -197.5t158 -562.5t-158 -562t-463 -197t-463 197.5t-158 561.5zM344 739v-24q0 -244 79 -368q83 -130 259 -130q174 0 256 130t82 392t-82 392.5t-256 130.5t-256 -130.5t-82 -392.5z" />
<glyph unicode="P" d="M139 0v1479h541q119 0 216 -26t164.5 -80t104.5 -137t37 -198t-37 -198.5t-104.5 -137t-164.5 -79t-216 -25.5h-258v-598h-283zM422 827h225q80 0 132 14.5t84 42t44.5 66.5t12.5 88t-12.5 88t-44.5 67t-84 42t-132 14h-225v-422z" />
<glyph unicode="Q" horiz-adv-x="1366" d="M61 739q0 365 158 562.5t463 197.5t463 -197.5t158 -562.5q0 -346 -148 -544q80 -66 186 -68v-238q-72 0 -116.5 7.5t-80.5 26t-70 50t-79 80.5q-127 -73 -308 -73h-5q-305 0 -463 197.5t-158 561.5zM344 739v-24q0 -244 79 -368q83 -130 259 -130q104 0 176 49 q-33 47 -74 82t-102 47v252q111 -10 179.5 -58t123.5 -130q18 55 26.5 124.5t8.5 155.5q0 262 -82 392.5t-256 130.5t-256 -130.5t-82 -392.5z" />
<glyph unicode="R" horiz-adv-x="1366" d="M160 0v1479h590q125 0 215 -34t146 -93.5t84 -139t28 -172.5v-8q0 -132 -67 -232q-69 -102 -204 -141l326 -659h-313l-279 602h-244v-602h-282zM442 831h209q166 0 227.5 52.5t61.5 156.5t-61.5 156.5t-178.5 52.5h-258v-418z" />
<glyph unicode="S" d="M74 330l233 102q51 -104 124 -167.5t198 -63.5q53 0 98 10t79 33.5t53.5 61.5t19.5 91q0 72 -56.5 120t-141.5 87t-183.5 76t-183.5 89t-141 127t-56 189q0 98 39 176t104.5 130.5t151.5 80t182 27.5q178 0 317.5 -86t204.5 -248l-258 -80q-33 86 -98.5 139.5 t-165.5 53.5q-92 0 -151.5 -39t-59.5 -125q0 -63 56.5 -105t141.5 -78t183 -73t183 -91t141.5 -134t56.5 -199q0 -229 -135.5 -341.5t-382.5 -112.5q-90 0 -176 24.5t-160 69.5t-130.5 110.5t-86.5 145.5z" />
<glyph unicode="T" horiz-adv-x="1138" d="M41 1243v238h1057v-238h-387v-1243h-283v1243h-387z" />
<glyph unicode="U" horiz-adv-x="1478" d="M172 553v926h283v-938q0 -180 70.5 -252t213.5 -72t214 71.5t71 252.5v938h283v-926q0 -162 -46.5 -271.5t-125 -177t-181 -96t-215.5 -28.5t-215 28.5t-181 96t-125 177t-46 271.5z" />
<glyph unicode="V" horiz-adv-x="1138" d="M20 1479h279l262 -1090h4l275 1090h278l-391 -1479h-315z" />
<glyph unicode="W" horiz-adv-x="1705" d="M41 1479h264l187 -998h4l211 998h290l195 -998h4l203 998h264l-307 -1479h-287l-215 1053h-4l-213 -1053h-287z" />
<glyph unicode="X" horiz-adv-x="1138" d="M16 0l400 758l-375 721h307l221 -457l222 457h307l-375 -721l399 -758h-307l-246 502l-245 -502h-308z" />
<glyph unicode="Y" horiz-adv-x="1138" d="M20 1479h295l254 -586l254 586h295l-407 -889v-590h-283v590z" />
<glyph unicode="Z" horiz-adv-x="1138" d="M33 0v240l690 1001h-643v238h999v-226l-714 -1015h720v-238h-1052z" />
<glyph unicode="[" horiz-adv-x="681" d="M106 -152v1631h478v-123h-256v-1385h260v-123h-482z" />
<glyph unicode="\" horiz-adv-x="569" d="M-57 1499h223l461 -1519h-224z" />
<glyph unicode="]" horiz-adv-x="681" d="M94 -29h260v1385h-256v123h477v-1631h-481v123z" />
<glyph unicode="^" horiz-adv-x="1228" d="M143 711l369 768h205l368 -768h-225l-246 538l-247 -538h-224z" />
<glyph unicode="_" horiz-adv-x="1024" d="M0 -154h1024v-102h-1024v102z" />
<glyph unicode="`" horiz-adv-x="569" d="M-57 1499h315l193 -299h-209z" />
<glyph unicode="a" horiz-adv-x="1024" d="M37 262q0 182 149.5 281.5t460.5 136.5v90q0 61 -44 94t-111 33q-90 0 -143.5 -40t-90.5 -91l-164 125q25 43 68 79t97 62q53 27 113 41q52 12 105 12h15q106 -2 184 -24.5t128 -72.5t73.5 -132t23.5 -201v-501q0 -41 4 -80t17 -74h-248l-17 92q-78 -53 -154.5 -82.5 t-176.5 -29.5q-72 0 -126.5 23.5t-90 63t-54 90t-18.5 105.5zM291 293q0 -59 34.5 -92t88.5 -33q31 0 63.5 11t63 27.5t58.5 37t48 37.5v229q-63 -12 -126.5 -26.5t-115 -38t-83 -60.5t-31.5 -92z" />
<glyph unicode="b" horiz-adv-x="1138" d="M131 0v1479h254v-512h4q18 25 49 47t67 37.5t72.5 24.5t69.5 9q102 0 182 -45t134.5 -118.5t82 -168t27.5 -192.5q0 -125 -26.5 -231.5t-80 -184t-133 -121.5t-186.5 -44q-86 0 -153.5 34.5t-135.5 100.5l-28 -115h-199zM385 279q20 -16 37.5 -33t39 -30t50.5 -22.5 t70 -9.5q115 0 176 89t61 259t-61.5 259.5t-175.5 89.5q-61 0 -109.5 -28t-87.5 -62v-512z" />
<glyph unicode="c" horiz-adv-x="1024" d="M49 532q0 127 32 229.5t91 174.5t145 110.5t195 38.5q152 0 263.5 -74.5t156.5 -209.5l-211 -82q-31 68 -74 115t-135 47q-106 0 -157.5 -84t-51.5 -265q0 -180 52.5 -264t164.5 -84q84 0 135.5 49.5t89.5 120.5l193 -108q-78 -143 -178 -206q-96 -60 -235 -60h-13 q-109 0 -195 38.5t-145 110.5t-91 174.5t-32 228.5z" />
<glyph unicode="d" horiz-adv-x="1138" d="M66 561q0 98 27.5 192.5t81.5 168t134 118.5t183 45q33 0 69.5 -9t72.5 -24.5t66.5 -38t49.5 -46.5h4v512h254v-1479h-215l-13 115q-68 -66 -135 -100.5t-153 -34.5q-106 0 -186.5 44t-133.5 121.5t-79.5 184t-26.5 231.5zM319 532q0 -170 61.5 -259t176.5 -89 q41 0 69.5 9.5t50 22.5t39 29.5t38.5 33.5v512q-39 35 -87.5 62.5t-109.5 27.5q-115 0 -176.5 -89.5t-61.5 -259.5z" />
<glyph unicode="e" horiz-adv-x="1024" d="M49 532q0 127 32 229.5t91 174.5t145 110.5t195 38.5q104 0 185 -39.5t136.5 -107.5t84 -157t28.5 -185v-104h-643q4 -166 67.5 -237t153.5 -71q88 0 139.5 36t98.5 91l184 -114q-74 -115 -183.5 -166t-262.5 -51q-104 0 -187.5 38.5t-141.5 110.5t-90 174.5t-32 228.5z M303 664h410q-4 111 -58.5 172t-146.5 61t-146.5 -61.5t-58.5 -171.5z" />
<glyph unicode="f" horiz-adv-x="681" d="M25 860v205h145v131q0 86 17.5 144.5t54.5 93t94 50t135 15.5h168v-205h-70q-80 0 -111.5 -26.5t-31.5 -87.5v-115h215v-205h-215v-860h-254v860h-147z" />
<glyph unicode="g" horiz-adv-x="1024" d="M25 -135q0 49 17 86t45 61.5t61.5 36.5t68.5 12v5q-18 12 -45 24t-52.5 30.5t-43 46.5t-17.5 71q0 39 19.5 71.5t46.5 58t54.5 42t45.5 22.5q-66 53 -111.5 118.5t-45.5 164.5q0 70 26.5 136.5t79.5 118.5t131 83.5t182 31.5q68 0 140.5 -25.5t122.5 -68.5q37 49 97 74 q50 21 122 21q15 0 30 -1v-172q-45 0 -90 -3t-73 -21q25 -35 41 -81t16 -108q0 -76 -25.5 -138t-76 -108t-125 -72t-174.5 -26q-84 0 -141.5 -10t-57.5 -55q0 -43 52 -57.5t130 -19.5t168 -10t168 -32t130 -83t52 -163q0 -57 -29.5 -113.5t-90 -101.5t-153.5 -72.5 t-220 -27.5q-215 0 -345 63.5t-130 190.5zM258 -102q0 -61 61.5 -90t221.5 -29q61 0 103 13t67.5 31.5t37 39t11.5 35.5q0 18 -15.5 39.5t-53.5 40t-99.5 30.5t-153.5 12q-53 0 -87 -13t-55.5 -31.5t-29.5 -40t-8 -37.5zM301 721q0 -74 51 -125t133 -51q72 0 123 51t51 125 t-51 125t-123 51q-82 0 -133 -51t-51 -125z" />
<glyph unicode="h" horiz-adv-x="1138" d="M131 0v1479h254v-529q59 49 136 92t171 43q160 0 238 -96t78 -260v-729h-254v692q0 109 -33 149t-98 40q-84 0 -144.5 -38t-93.5 -75v-768h-254z" />
<glyph unicode="i" horiz-adv-x="569" d="M158 0v1065h254v-1065h-254zM158 1262v237h254v-237h-254z" />
<glyph unicode="j" horiz-adv-x="569" d="M6 -166q20 -2 37.5 -4t46.5 -2q45 0 69.5 26.5t24.5 104.5v1106h254v-1147q0 -164 -70.5 -235.5t-228.5 -71.5q-72 0 -133 16v207zM184 1262v237h254v-237h-254z" />
<glyph unicode="k" horiz-adv-x="1024" d="M131 0v1479h254v-826h8l314 412h290l-313 -397l336 -668h-270l-236 477l-129 -149v-328h-254z" />
<glyph unicode="l" horiz-adv-x="569" d="M158 0v1479h254v-1479h-254z" />
<glyph unicode="m" horiz-adv-x="1705" d="M131 0v1065h231v-115q72 66 141.5 100.5t178.5 34.5q84 0 155.5 -38.5t106.5 -116.5q33 33 70 61.5t81 49t97 32.5t119 12q41 0 87 -14t85 -50t64.5 -98.5t25.5 -156.5v-766h-254v743q0 66 -28.5 100t-98.5 38q-49 0 -108.5 -37t-104.5 -78v-766h-254v743q0 66 -28.5 100 t-98.5 38q-49 0 -108.5 -37t-104.5 -78v-766h-254z" />
<glyph unicode="n" horiz-adv-x="1138" d="M131 0v1065h234v-115q72 49 152.5 92t174.5 43q160 0 238 -96t78 -260v-729h-254v692q0 109 -33 149t-98 40q-84 0 -144.5 -38t-93.5 -75v-768h-254z" />
<glyph unicode="o" horiz-adv-x="1024" d="M49 532q0 127 32 229.5t91 174.5t145 110.5t195 38.5t195 -38.5t145 -110.5t91 -174.5t32 -229.5t-32 -229t-91 -174t-145 -110.5t-195 -38.5t-195 38.5t-145 110.5t-91 174t-32 229zM303 532q0 -180 51.5 -264t157.5 -84t157.5 84t51.5 264t-51.5 264.5t-157.5 84.5 t-157.5 -84t-51.5 -265z" />
<glyph unicode="p" horiz-adv-x="1138" d="M131 -389v1454h244v-98q55 53 120.5 85.5t151.5 32.5q106 0 186 -44t133.5 -121.5t80 -184t26.5 -231.5q0 -98 -27.5 -192.5t-82 -168t-134 -118.5t-182.5 -45q-33 0 -69.5 9t-72.5 24.5t-66.5 38t-49.5 46.5h-4v-487h-254zM385 274q39 -35 87 -62.5t110 -27.5 q115 0 176 89t61 259t-61.5 259.5t-175.5 89.5q-41 0 -70 -9.5t-50.5 -22.5t-38.5 -30.5t-38 -32.5v-512z" />
<glyph unicode="q" horiz-adv-x="1138" d="M66 504q0 125 26.5 231.5t79.5 184t133 121.5t187 44q86 0 153.5 -34.5t134.5 -100.5l29 115h199v-1454h-254v487h-4q-18 -25 -49 -47t-67 -37.5t-73 -24.5t-69 -9q-102 0 -182.5 45t-134.5 118.5t-81.5 168t-27.5 192.5zM319 532q0 -170 61.5 -259t176.5 -89 q61 0 109.5 28t87.5 62v512q-20 14 -38 32t-39.5 31t-50 22.5t-69.5 9.5q-115 0 -176.5 -89.5t-61.5 -259.5z" />
<glyph unicode="r" horiz-adv-x="681" d="M115 0v1065h233v-182h4q47 96 116 147t183 55v-268q-10 2 -20 2h-25q-47 0 -90 -23.5t-75.5 -53t-52 -57.5t-19.5 -38v-647h-254z" />
<glyph unicode="s" horiz-adv-x="909" d="M45 195l170 127q45 -61 105.5 -107.5t142.5 -46.5q68 0 109.5 34t41.5 87q0 45 -39.5 73.5t-98 51t-128 48t-128 64.5t-98.5 98.5t-40 151.5q0 74 28.5 132.5t78 97t113 59t132.5 20.5q106 0 205.5 -39.5t169.5 -121.5l-160 -140q-39 41 -89 77t-109 36q-74 0 -109 -28.5 t-35 -75.5q0 -45 40 -73t98.5 -50.5t128 -46t128 -63.5t98.5 -102.5t40 -158.5q0 -84 -30 -143.5t-82 -99.5t-124 -58t-155 -18q-129 0 -230.5 55t-173.5 160z" />
<glyph unicode="t" horiz-adv-x="681" d="M25 860v205h147v352h254v-352h209v-205h-209v-602q0 -43 22.5 -58.5t69.5 -15.5q29 0 58.5 7.5t58.5 13.5v-209q-53 -6 -100.5 -11t-100.5 -5q-141 0 -201.5 65.5t-60.5 179.5v635h-147z" />
<glyph unicode="u" horiz-adv-x="1138" d="M131 336v729h254v-692q0 -109 33 -149t98 -40q84 0 144.5 38t93.5 75v768h254v-1065h-234v115q-72 -49 -152.5 -92t-175.5 -43q-160 0 -237.5 96t-77.5 260z" />
<glyph unicode="v" horiz-adv-x="909" d="M20 1065h254l177 -721h4l180 721h254l-305 -1065h-267z" />
<glyph unicode="w" horiz-adv-x="1366" d="M20 1065h242l146 -664h4l153 664h236l147 -664h4l152 664h242l-275 -1065h-229l-158 664h-4l-156 -664h-229z" />
<glyph unicode="x" horiz-adv-x="909" d="M8 0l314 553l-302 512h281l150 -295l151 295h275l-299 -512l323 -553h-270l-178 332l-172 -332h-273z" />
<glyph unicode="y" horiz-adv-x="909" d="M18 1065h256l177 -655h4l182 655h254l-336 -1067q-43 -115 -83 -189.5t-87 -118.5t-105.5 -61.5t-136.5 -17.5q-47 0 -73.5 2t-49.5 6v209q29 -6 53.5 -7t53.5 -1q66 0 105.5 19.5t62.5 64.5q18 39 29.5 65.5t11.5 59.5q0 29 -11.5 61.5t-21.5 65.5z" />
<glyph unicode="z" horiz-adv-x="909" d="M37 0v180l514 680h-471v205h788v-180l-512 -680h516v-205h-835z" />
<glyph unicode="{" horiz-adv-x="681" d="M16 602v123q61 0 102.5 36t41.5 97v397q0 127 73.5 185.5t188.5 58.5h145v-123h-100q-43 0 -64.5 -30.5t-21.5 -71.5v-389q0 -102 -36 -150.5t-120 -68.5v-4q84 -20 120 -68.5t36 -151.5v-389q0 -41 21.5 -71.5t64.5 -30.5h100v-123h-145q-115 0 -188.5 58.5t-73.5 185.5 v397q0 61 -41 97t-103 36z" />
<glyph unicode="|" horiz-adv-x="454" d="M117 -20v1519h221v-1519h-221z" />
<glyph unicode="}" horiz-adv-x="681" d="M115 -49h100q43 0 64.5 30.5t21.5 71.5v389q0 102 36 150.5t120 69.5v4q-84 20 -120 68t-36 151v389q0 41 -21.5 71.5t-64.5 30.5h-100v123h145q115 0 188.5 -58.5t73.5 -185.5v-397q0 -61 41 -97t103 -36v-123q-61 0 -102.5 -36t-41.5 -97v-397q0 -127 -73.5 -185.5 t-188.5 -58.5h-145v123z" />
<glyph unicode="~" horiz-adv-x="1228" d="M143 532q16 33 39 65t53.5 56.5t70.5 40t91 15.5q57 0 117.5 -21.5t118 -48.5t110 -48.5t91.5 -21.5q31 0 56 13.5t46.5 34t40 47t37.5 53.5l71 -185q-23 -33 -47 -64.5t-56 -57t-72 -41t-91 -15.5q-72 0 -127 31t-114 61q-41 20 -85 35t-100 15q-37 0 -64.5 -13.5 t-49 -34t-37 -47t-27.5 -53.5z" />
<glyph unicode="&#xa1;" horiz-adv-x="681" d="M190 -369l54 979h196l54 -979h-304zM201 819v291h282v-291h-282z" />
<glyph unicode="&#xa2;" d="M168 532q0 127 31.5 229.5t91 174.5t145.5 110.5t195 38.5q70 0 135 -16l78 217h119l-95 -262q131 -72 183 -223l-211 -82q-20 47 -49 88l-220 -612q16 -6 33 -8.5t35 -2.5q84 0 135 49.5t90 120.5l193 -108q-78 -143 -178.5 -206t-247.5 -60q-66 0 -131 16l-92 -252 h-119l106 297q-111 63 -169 190t-58 301zM401 532q0 -98 18.5 -165.5t53.5 -108.5l221 614q-25 8 -63 9q-106 0 -168 -84t-62 -265z" />
<glyph unicode="&#xa3;" d="M94 643v193h166q-10 59 -18.5 121.5t-8.5 134.5q0 199 114 303t337 104q205 0 320.5 -116.5t115.5 -319.5h-246q-10 96 -53 155.5t-151 59.5q-49 0 -82 -18.5t-52.5 -48t-27.5 -67.5t-8 -79q0 -66 9 -118t26 -111h266v-193h-238q0 -35 -3 -80t-9 -93t-17.5 -92t-27.5 -75 q59 -35 116.5 -60.5t127.5 -25.5q53 0 83.5 20.5t46 53.5t20.5 74t9 81h246q0 -96 -20.5 -180t-63.5 -148.5t-107.5 -101t-152.5 -36.5q-74 0 -129 8t-103.5 23.5t-92.5 40t-93 54.5q-47 -55 -120.5 -93t-166.5 -33v253q57 4 94.5 34t59 72t29.5 91t8 94q0 31 -2 60.5 t-6 58.5h-195z" />
<glyph unicode="&#xa4;" d="M92 336l107 106q-45 66 -70 140.5t-25 156.5t25 157t70 140l-107 107l127 131l113 -105q61 41 136 66t157 25t156.5 -25t136.5 -66l112 105l127 -131l-106 -107q45 -66 69.5 -140.5t24.5 -156.5t-24.5 -156.5t-69.5 -140.5l106 -106l-127 -131l-112 104 q-61 -41 -136 -65.5t-157 -24.5t-157 24.5t-136 65.5l-113 -104zM338 739q0 -66 21.5 -121t59.5 -96t91 -63.5t115 -22.5q61 0 114.5 22.5t91 63.5t59 96.5t21.5 120.5q0 66 -21.5 121t-59 96t-91 63.5t-114.5 22.5t-114.5 -22.5t-91.5 -63.5t-59.5 -96t-21.5 -121z" />
<glyph unicode="&#xa5;" d="M57 1479h254l314 -635l315 635h254l-276 -541h192v-193h-289l-71 -139h360v-192h-369v-414h-233v414h-369v192h361l-70 139h-291v193h195z" />
<glyph unicode="&#xa6;" horiz-adv-x="454" d="M117 -20v577h221v-577h-221zM117 922v577h221v-577h-221z" />
<glyph unicode="&#xa7;" horiz-adv-x="1024" d="M102 795q0 100 62.5 165.5t161.5 71.5q-47 55 -72 106.5t-25 123.5q0 111 77 174t198 63q55 0 97 -8t80 -26.5t72.5 -50.5t75.5 -79l-139 -112q-33 39 -74 73.5t-94 34.5q-41 0 -70.5 -24.5t-29.5 -61.5q0 -41 37 -88t92 -100t120.5 -110.5t121 -120t92.5 -128t37 -135.5 q0 -35 -11.5 -70.5t-37 -68.5t-67.5 -58.5t-106 -35.5q47 -49 76 -109.5t29 -130.5q0 -63 -23.5 -112.5t-64.5 -82t-94.5 -50t-112.5 -17.5q-102 0 -183 50t-145 124l140 109q29 -45 71.5 -80t98.5 -35q53 0 86.5 23.5t33.5 78.5q0 47 -37.5 99.5t-94 108.5t-123 115.5 t-123 121t-94.5 125t-38 127.5zM295 815q0 -27 31.5 -70t105.5 -120q150 -156 207 -156q41 0 65.5 22.5t24.5 59.5t-38 82t-107 119q-41 45 -72 72.5t-54.5 44t-41 22.5t-33.5 6q-35 0 -61.5 -23.5t-26.5 -58.5z" />
<glyph unicode="&#xa8;" horiz-adv-x="569" d="M-33 1221v237h246v-237h-246zM356 1221v237h246v-237h-246z" />
<glyph unicode="&#xa9;" horiz-adv-x="1638" d="M37 739q0 178 64.5 319.5t173 240t250 149.5t294.5 51q154 0 295 -51t250 -149.5t173.5 -239.5t64.5 -320q0 -178 -64.5 -319t-173.5 -239.5t-250 -149.5t-295 -51t-295 51t-249.5 149.5t-173 239.5t-64.5 319zM238 739q0 -135 45 -247.5t123.5 -193.5t185 -126 t227.5 -45q119 0 224.5 45t185.5 126t126 193.5t46 247.5t-46 248t-126 194t-185.5 126t-224.5 45q-121 0 -227.5 -45t-185 -126t-123.5 -194t-45 -248zM422 745q0 94 29.5 176.5t84 140.5t133.5 92t177 34q137 0 237.5 -79t124.5 -232h-176q-14 72 -67.5 101.5t-118.5 29.5 q-100 0 -153.5 -70t-53.5 -188q0 -115 57.5 -191t153.5 -76q76 0 125 34t57 108h185q-12 -78 -46 -138.5t-83.5 -101.5t-111 -61.5t-126.5 -20.5q-96 0 -175 34t-135.5 93t-87 140t-30.5 175z" />
<glyph unicode="&#xaa;" horiz-adv-x="614" d="M12 1006q0 111 95.5 169t289.5 80v48q0 66 -90 65q-59 0 -93 -16.5t-58 -44.5l-107 75q16 25 44 47.5t64 38t74.5 23.5t75.5 8q70 -2 120 -15.5t83 -43t48 -78.5t15 -121v-301q0 -25 2.5 -47.5t12.5 -44.5h-172l-10 57q-43 -33 -92.5 -51t-114.5 -18q-94 0 -140.5 52 t-46.5 118zM188 1024q0 -57 68 -57q41 0 83 14t58 35v137q-37 -6 -74.5 -15.5t-67.5 -22.5t-48.5 -35.5t-18.5 -55.5z" />
<glyph unicode="&#xab;" horiz-adv-x="1138" d="M123 526l246 334h229l-252 -334l252 -321h-229zM541 526l245 334h230l-252 -334l252 -321h-230z" />
<glyph unicode="&#xac;" horiz-adv-x="1228" d="M82 647v221h1065v-671h-221v450h-844z" />
<glyph unicode="&#xad;" horiz-adv-x="681" d="M90 422v221h502v-221h-502z" />
<glyph unicode="&#xae;" horiz-adv-x="1638" d="M37 739q0 178 64.5 319.5t173 240t250 149.5t294.5 51q154 0 295 -51t250 -149.5t173.5 -239.5t64.5 -320q0 -178 -64.5 -319t-173.5 -239.5t-250 -149.5t-295 -51t-295 51t-249.5 149.5t-173 239.5t-64.5 319zM238 739q0 -135 45 -247.5t123.5 -193.5t185 -126 t227.5 -45q119 0 224.5 45t185.5 126t126 193.5t46 247.5t-46 248t-126 194t-185.5 126t-224.5 45q-121 0 -227.5 -45t-185 -126t-123.5 -194t-45 -248zM510 324v833h313q164 0 252 -54t88 -198q0 -117 -61.5 -166t-167.5 -55l217 -360h-182l-195 350h-84v-350h-180z M690 813h158q74 0 104.5 32t30.5 79q0 57 -39 75.5t-104 18.5h-150v-205z" />
<glyph unicode="&#xaf;" horiz-adv-x="569" d="M-70 1266v151h709v-151h-709z" />
<glyph unicode="&#xb0;" horiz-adv-x="819" d="M117 1206q0 61 22.5 114.5t62.5 93.5t93 62.5t115 22.5q61 0 114.5 -22.5t93 -62.5t62 -93t22.5 -115q0 -61 -22.5 -114.5t-62 -93.5t-93 -62.5t-114.5 -22.5t-114.5 22.5t-93.5 62.5t-62.5 93.5t-22.5 114.5zM248 1206q0 -68 47 -119t115 -51t114.5 51.5t46.5 118.5 q0 68 -47 119t-114 51q-68 0 -115 -51t-47 -119z" />
<glyph unicode="&#xb1;" horiz-adv-x="1228" d="M82 0v221h1065v-221h-1065zM82 573v222h422v270h221v-270h422v-222h-422v-272h-221v272h-422z" />
<glyph unicode="&#xb2;" horiz-adv-x="749" d="M41 598v147q6 35 44 74t90 81t110.5 85t107.5 85t82 83t33 78q0 121 -135 121q-72 0 -115 -39t-59 -99l-154 31q8 55 36 101.5t72 80t100 53t122 19.5q63 0 120.5 -16.5t100.5 -49t67.5 -80.5t24.5 -110q0 -80 -38 -141.5t-99.5 -116.5t-141 -111.5t-163.5 -128.5h442 v-147h-647z" />
<glyph unicode="&#xb3;" horiz-adv-x="749" d="M25 772l139 72q35 -53 84 -82t119 -29q63 0 110 34t47 99q0 49 -27.5 77t-69.5 41t-90 16.5t-91 3.5v135q51 0 96 4t78 16t52.5 35t19.5 57q0 43 -35 71t-95 30q-61 -2 -105 -28t-79 -60l-115 98q72 78 142.5 107.5t163.5 29.5q133 0 218 -57.5t85 -169.5 q0 -137 -144 -191v-4q86 -23 131.5 -81t45.5 -142q0 -70 -30 -120t-77 -83t-108.5 -49t-124.5 -16q-102 0 -195.5 46t-144.5 140z" />
<glyph unicode="&#xb4;" horiz-adv-x="569" d="M119 1200l192 299h316l-299 -299h-209z" />
<glyph unicode="&#xb5;" horiz-adv-x="1138" d="M131 -389v1454h254v-692q0 -109 33 -149t98 -40q84 0 144.5 38t93.5 75v768h254v-1065h-234v115q-72 -49 -152.5 -92t-175.5 -43q-16 0 -31.5 1t-29.5 3v-373h-254z" />
<glyph unicode="&#xb6;" horiz-adv-x="1269" d="M45 1110q0 109 37 180.5t97.5 113.5t138 58.5t157.5 16.5h725v-172h-149v-1446h-209v1446h-183v-1446h-208v895q-90 0 -165 24.5t-128.5 70.5t-83 111.5t-29.5 147.5z" />
<glyph unicode="&#xb7;" horiz-adv-x="624" d="M156 532q0 63 44 109.5t107 46.5q66 0 113 -45t47 -111t-47 -110.5t-113 -44.5t-108.5 45t-42.5 110z" />
<glyph unicode="&#xb8;" horiz-adv-x="569" d="M43 -416l37 86q27 -10 72 -21t88 -11q51 0 78.5 16t27.5 70q0 41 -26.5 52t-61.5 11q-23 0 -46.5 -4t-39.5 -8l-41 41l121 184h108l-88 -129q41 10 74 10q70 0 125 -37t55 -118q0 -51 -24.5 -88t-62.5 -60.5t-84 -35t-89 -11.5q-59 0 -114.5 15.5t-108.5 37.5z" />
<glyph unicode="&#xb9;" horiz-adv-x="749" d="M133 1323v115q66 4 120 18t89 43h137v-766h144v-135h-469v135h137v590h-158z" />
<glyph unicode="&#xba;" horiz-adv-x="614" d="M6 1167q0 154 80 243t221 89t220 -89t79 -243t-78.5 -242.5t-220.5 -88.5q-141 0 -221 88.5t-80 242.5zM182 1167q0 -201 125 -200q123 -1 123 200t-123 201q-125 0 -125 -201z" />
<glyph unicode="&#xbb;" horiz-adv-x="1138" d="M123 205l252 334l-252 321h229l246 -321l-246 -334h-229zM541 205l252 334l-252 321h229l246 -321l-246 -334h-229z" />
<glyph unicode="&#xbc;" horiz-adv-x="1875" d="M154 1323v115q66 4 120 18t88 43h138v-766h143v-135h-469v135h137v590h-157zM432 -20l846 1519h180l-844 -1519h-182zM1085 205v172l394 512h211v-549h129v-135h-129v-205h-189v205h-416zM1241 340h260v360h-4z" />
<glyph unicode="&#xbd;" horiz-adv-x="1875" d="M154 1323v115q66 4 120 18t88 43h138v-766h143v-135h-469v135h137v590h-157zM399 -20l846 1519h180l-843 -1519h-183zM1090 0v147q6 35 43.5 74t90 81t111 85t107.5 85t81.5 83t32.5 78q0 121 -135 121q-72 0 -114.5 -39t-59.5 -99l-153 31q8 55 35.5 101.5t71.5 80 t100.5 53t121.5 19.5q63 0 121 -16.5t101 -49t67.5 -80.5t24.5 -110q0 -80 -38 -141.5t-99.5 -116.5t-141.5 -111.5t-164 -128.5h443v-147h-647z" />
<glyph unicode="&#xbe;" horiz-adv-x="1875" d="M57 772l140 72q35 -53 84 -82t118 -29q63 0 110.5 34t47.5 99q0 49 -27.5 77t-69.5 41t-90 16.5t-91 3.5v135q51 0 96 4t77.5 16t52 35t19.5 57q0 43 -34.5 71t-94.5 30q-61 -2 -105 -28t-79 -60l-115 98q72 78 142.5 107.5t162.5 29.5q133 0 218.5 -57.5t85.5 -169.5 q0 -137 -144 -191v-4q86 -23 131 -81t45 -142q0 -70 -29.5 -120t-76.5 -83t-108.5 -49t-125.5 -16q-102 0 -195 46t-145 140zM461 -20l846 1519h180l-844 -1519h-182zM1085 205v172l394 512h211v-549h129v-135h-129v-205h-189v205h-416zM1241 340h260v360h-4z" />
<glyph unicode="&#xbf;" horiz-adv-x="909" d="M96 -61q0 102 46 174.5t102 138.5q55 66 101 132.5t46 152.5v75h225v-112q0 -88 -40.5 -164t-90.5 -146q-49 -70 -90 -134t-41 -130q0 -47 39 -78.5t90 -31.5q37 0 66 16t50.5 42t35.5 57.5t18 64.5l236 -66q-39 -154 -147.5 -236.5t-274.5 -82.5q-76 0 -143.5 21.5 t-117.5 62.5t-80 102.5t-30 141.5zM358 819v291h283v-291h-283z" />
<glyph unicode="&#xc0;" d="M27 0l426 1481h352l420 -1481h-281l-82 319h-467l-88 -319h-280zM285 1859h315l193 -299h-209zM457 553h344l-166 643h-4z" />
<glyph unicode="&#xc1;" d="M27 0l426 1481h352l420 -1481h-281l-82 319h-467l-88 -319h-280zM457 553h344l-166 643h-4zM461 1558l192 299h316l-299 -299h-209z" />
<glyph unicode="&#xc2;" d="M27 0l426 1481h352l420 -1481h-281l-82 319h-467l-88 -319h-280zM266 1560l232 299h254l235 -299h-231l-129 168l-131 -168h-230zM457 553h344l-166 643h-4z" />
<glyph unicode="&#xc3;" d="M27 0l426 1481h352l420 -1481h-281l-82 319h-467l-88 -319h-280zM252 1577q6 47 23.5 92t47 79.5t69.5 56t93 21.5q41 0 82 -12t78 -25.5t70 -25.5t57 -12q37 0 62.5 26.5t33.5 61.5h133q-10 -47 -26.5 -92.5t-43 -80t-64.5 -56t-93 -21.5q-39 0 -79 11t-78.5 24.5 t-75.5 24.5t-68 11q-41 0 -61.5 -24.5t-32.5 -58.5h-127zM457 553h344l-166 643h-4z" />
<glyph unicode="&#xc4;" d="M27 0l426 1481h352l420 -1481h-281l-82 319h-467l-88 -319h-280zM309 1579v237h246v-237h-246zM457 553h344l-166 643h-4zM698 1579v237h246v-237h-246z" />
<glyph unicode="&#xc5;" d="M27 0l426 1481h352l420 -1481h-281l-82 319h-467l-88 -319h-280zM405 1779q0 45 17.5 86t47.5 71t70 47t87 17q45 0 86 -17t70.5 -47t47 -71t17.5 -86q0 -47 -17.5 -87t-47 -69.5t-70.5 -47t-86 -17.5q-47 0 -87 17.5t-70 47t-47.5 69.5t-17.5 87zM457 553h344l-166 643 h-4zM516 1779q0 -47 32 -78.5t79 -31.5t78.5 31.5t31.5 78.5t-31.5 79t-78.5 32t-79 -32t-32 -79z" />
<glyph unicode="&#xc6;" horiz-adv-x="1933" d="M14 0l744 1479h1075v-238h-621v-352h430v-238h-430v-413h643v-238h-925v346h-451l-164 -346h-301zM596 584h334v690h-4z" />
<glyph unicode="&#xc7;" d="M61 739q0 365 155 562.5t439 197.5q213 0 338 -95t178 -294l-256 -61q-31 94 -97 153.5t-171 59.5q-141 0 -222 -130.5t-81 -392.5q-6 -522 311 -522q47 0 87 10.5t74 35t65.5 66.5t62.5 107l262 -69q-61 -180 -188 -276.5t-311 -108.5l-74 -111q41 10 74 10 q70 0 125 -37t55 -118q0 -51 -24.5 -88t-62.5 -60.5t-84 -35t-89 -11.5q-59 0 -114.5 15.5t-109.5 37.5l37 86q27 -10 72 -21t88 -11q51 0 79 16t28 70q0 41 -27 52t-62 11q-23 0 -46 -4t-40 -8l-40 41l108 166q-260 18 -399.5 214.5t-139.5 542.5z" />
<glyph unicode="&#xc8;" d="M172 0v1479h979v-238h-696v-352h506v-238h-506v-413h719v-238h-1002zM324 1859h315l193 -299h-209z" />
<glyph unicode="&#xc9;" d="M172 0v1479h979v-238h-696v-352h506v-238h-506v-413h719v-238h-1002zM500 1560l192 299h316l-299 -299h-209z" />
<glyph unicode="&#xca;" d="M172 0v1479h979v-238h-696v-352h506v-238h-506v-413h719v-238h-1002zM305 1560l232 299h254l235 -299h-231l-129 168l-131 -168h-230z" />
<glyph unicode="&#xcb;" d="M172 0v1479h979v-238h-696v-352h506v-238h-506v-413h719v-238h-1002zM348 1581v237h246v-237h-246zM737 1581v237h246v-237h-246z" />
<glyph unicode="&#xcc;" horiz-adv-x="681" d="M-6 1859h315l193 -299h-209zM199 0v1479h282v-1479h-282z" />
<glyph unicode="&#xcd;" horiz-adv-x="681" d="M170 1560l192 299h316l-299 -299h-209zM199 0v1479h282v-1479h-282z" />
<glyph unicode="&#xce;" horiz-adv-x="681" d="M-25 1560l232 299h254l235 -299h-231l-129 168l-131 -168h-230zM199 0v1479h282v-1479h-282z" />
<glyph unicode="&#xcf;" horiz-adv-x="681" d="M18 1581v237h246v-237h-246zM199 0v1479h282v-1479h-282zM407 1581v237h246v-237h-246z" />
<glyph unicode="&#xd0;" horiz-adv-x="1366" d="M23 635v254h137v590h489q147 0 268 -42t209 -132.5t137.5 -229.5t49.5 -336t-49.5 -336t-137.5 -229t-208.5 -132t-268.5 -42h-489v635h-137zM442 238h189q121 0 198.5 40.5t121.5 110.5t61.5 161t17.5 189t-17.5 189.5t-61.5 161t-121.5 110.5t-198.5 41h-189v-352h306 v-254h-306v-397z" />
<glyph unicode="&#xd1;" horiz-adv-x="1478" d="M166 0v1479h295l581 -1008h5v1008h266v-1479h-273l-604 1053h-4v-1053h-266zM365 1577q6 47 23.5 92t47 79.5t69.5 56t93 21.5q41 0 82 -12t78 -25.5t70 -25.5t57 -12q37 0 62.5 26.5t33.5 61.5h133q-10 -47 -26.5 -92.5t-43 -80t-64.5 -56t-93 -21.5q-39 0 -79 11 t-78.5 24.5t-75.5 24.5t-68 11q-41 0 -61.5 -24.5t-32.5 -58.5h-127z" />
<glyph unicode="&#xd2;" horiz-adv-x="1366" d="M61 739q0 365 158 562.5t463 197.5t463 -197.5t158 -562.5t-158 -562t-463 -197t-463 197.5t-158 561.5zM342 1859h315l193 -299h-209zM344 739q-4 -262 79 -392t259 -130q174 0 256 130t82 392t-82 392.5t-256 130.5t-256 -130.5t-82 -392.5z" />
<glyph unicode="&#xd3;" horiz-adv-x="1366" d="M61 739q0 365 158 562.5t463 197.5t463 -197.5t158 -562.5t-158 -562t-463 -197t-463 197.5t-158 561.5zM344 739q-4 -262 79 -392t259 -130q174 0 256 130t82 392t-82 392.5t-256 130.5t-256 -130.5t-82 -392.5zM518 1560l192 299h316l-299 -299h-209z" />
<glyph unicode="&#xd4;" horiz-adv-x="1366" d="M61 739q0 365 158 562.5t463 197.5t463 -197.5t158 -562.5t-158 -562t-463 -197t-463 197.5t-158 561.5zM323 1560l232 299h254l235 -299h-231l-129 168l-131 -168h-230zM344 739q-4 -262 79 -392t259 -130q174 0 256 130t82 392t-82 392.5t-256 130.5t-256 -130.5 t-82 -392.5z" />
<glyph unicode="&#xd5;" horiz-adv-x="1366" d="M61 739q0 365 158 562.5t463 197.5t463 -197.5t158 -562.5t-158 -562t-463 -197t-463 197.5t-158 561.5zM309 1577q6 47 23.5 92t47 79.5t69.5 56t93 21.5q41 0 82 -12t78 -25.5t70 -25.5t57 -12q37 0 62.5 26.5t33.5 61.5h133q-10 -47 -26.5 -92.5t-43 -80t-64.5 -56 t-93 -21.5q-39 0 -79 11t-78.5 24.5t-75.5 24.5t-68 11q-41 0 -61.5 -24.5t-32.5 -58.5h-127zM344 739q-4 -262 79 -392t259 -130q174 0 256 130t82 392t-82 392.5t-256 130.5t-256 -130.5t-82 -392.5z" />
<glyph unicode="&#xd6;" horiz-adv-x="1366" d="M61 739q0 365 158 562.5t463 197.5t463 -197.5t158 -562.5t-158 -562t-463 -197t-463 197.5t-158 561.5zM344 739q-4 -262 79 -392t259 -130q174 0 256 130t82 392t-82 392.5t-256 130.5t-256 -130.5t-82 -392.5zM366 1581v237h246v-237h-246zM755 1581v237h246v-237 h-246z" />
<glyph unicode="&#xd7;" horiz-adv-x="1228" d="M82 160l375 375l-375 374l158 156l374 -373l375 373l158 -156l-375 -374l375 -375l-158 -160l-375 377l-374 -377z" />
<glyph unicode="&#xd8;" horiz-adv-x="1366" d="M-23 -135l226 338q-141 193 -142 536q0 365 158 562.5t463 197.5q195 0 330 -86l96 148h235l-186 -279q145 -195 146 -543q0 -365 -158 -562t-463 -197q-203 0 -336 88l-135 -203h-234zM344 739q0 -84 7 -153.5t24 -122.5l495 741q-76 57 -188 58q-174 0 -256 -130.5 t-82 -392.5zM487 279q76 -61 195 -62q174 0 256 130t82 392q0 172 -37 283z" />
<glyph unicode="&#xd9;" horiz-adv-x="1478" d="M172 553v926h283v-938q0 -180 70.5 -252t213.5 -72t214 71.5t71 252.5v938h283v-926q0 -162 -46.5 -271.5t-125 -177t-181 -96t-215.5 -28.5t-215 28.5t-181 96t-125 177t-46 271.5zM392 1859h315l193 -299h-209z" />
<glyph unicode="&#xda;" horiz-adv-x="1478" d="M172 553v926h283v-938q0 -180 70.5 -252t213.5 -72t214 71.5t71 252.5v938h283v-926q0 -162 -46.5 -271.5t-125 -177t-181 -96t-215.5 -28.5t-215 28.5t-181 96t-125 177t-46 271.5zM568 1560l192 299h316l-299 -299h-209z" />
<glyph unicode="&#xdb;" horiz-adv-x="1478" d="M172 553v926h283v-938q0 -180 70.5 -252t213.5 -72t214 71.5t71 252.5v938h283v-926q0 -162 -46.5 -271.5t-125 -177t-181 -96t-215.5 -28.5t-215 28.5t-181 96t-125 177t-46 271.5zM373 1560l232 299h254l235 -299h-231l-129 168l-131 -168h-230z" />
<glyph unicode="&#xdc;" horiz-adv-x="1478" d="M172 553v926h283v-938q0 -180 70.5 -252t213.5 -72t214 71.5t71 252.5v938h283v-926q0 -162 -46.5 -271.5t-125 -177t-181 -96t-215.5 -28.5t-215 28.5t-181 96t-125 177t-46 271.5zM416 1581v237h246v-237h-246zM805 1581v237h246v-237h-246z" />
<glyph unicode="&#xdd;" horiz-adv-x="1138" d="M20 1479h295l254 -586l254 586h295l-407 -889v-590h-283v590zM404 1560l192 299h316l-299 -299h-209z" />
<glyph unicode="&#xde;" d="M139 0v1479h283v-273h258q119 0 216 -25.5t164.5 -79.5t104.5 -137t37 -198t-37 -199t-104.5 -137t-164.5 -78.5t-216 -25.5h-258v-326h-283zM422 555h225q80 0 132 14.5t84 42t44.5 66.5t12.5 88t-12.5 88t-44.5 66.5t-84 42t-132 14.5h-225v-422z" />
<glyph unicode="&#xdf;" horiz-adv-x="1024" d="M109 0v1126q0 76 23.5 140.5t70.5 111.5t119.5 74t169.5 27q205 0 303 -97.5t98 -263.5q0 -109 -32 -182.5t-124 -120.5v-4q106 -31 176 -129t70 -276q0 -121 -26.5 -203t-74.5 -131t-116 -70.5t-150 -21.5q-33 0 -85 13t-80 36l61 180q20 -10 45 -17.5t47 -7.5 q125 0 125 234q0 57 -8 106t-28.5 86t-56.5 57.5t-91 20.5h-53v205h32q55 0 89 44t34 138q0 199 -151 199q-133 0 -134 -156v-1118h-253z" />
<glyph unicode="&#xe0;" horiz-adv-x="1024" d="M37 262q0 182 149.5 281.5t460.5 136.5v90q0 61 -44 94t-111 33q-90 0 -143.5 -40t-90.5 -91l-164 125q25 43 68 79t97 62.5t113.5 40.5t119.5 12q106 -2 184 -24.5t128 -72.5t73.5 -132t23.5 -201v-501q0 -41 4 -80t17 -74h-248l-17 92q-78 -53 -154.5 -82.5 t-176.5 -29.5q-72 0 -126.5 23.5t-90 63t-54 90t-18.5 105.5zM170 1499h315l193 -299h-209zM291 293q0 -59 34.5 -92t88.5 -33q31 0 63.5 11t63 27.5t58.5 37t48 37.5v229q-63 -12 -126.5 -26.5t-115 -38t-83 -60.5t-31.5 -92z" />
<glyph unicode="&#xe1;" horiz-adv-x="1024" d="M37 262q0 182 149.5 281.5t460.5 136.5v90q0 61 -44 94t-111 33q-90 0 -143.5 -40t-90.5 -91l-164 125q25 43 68 79t97 62.5t113.5 40.5t119.5 12q106 -2 184 -24.5t128 -72.5t73.5 -132t23.5 -201v-501q0 -41 4 -80t17 -74h-248l-17 92q-78 -53 -154.5 -82.5 t-176.5 -29.5q-72 0 -126.5 23.5t-90 63t-54 90t-18.5 105.5zM291 293q0 -59 34.5 -92t88.5 -33q31 0 63.5 11t63 27.5t58.5 37t48 37.5v229q-63 -12 -126.5 -26.5t-115 -38t-83 -60.5t-31.5 -92zM346 1200l192 299h316l-299 -299h-209z" />
<glyph unicode="&#xe2;" horiz-adv-x="1024" d="M37 262q0 182 149.5 281.5t460.5 136.5v90q0 61 -44 94t-111 33q-90 0 -143.5 -40t-90.5 -91l-164 125q25 43 68 79t97 62.5t113.5 40.5t119.5 12q106 -2 184 -24.5t128 -72.5t73.5 -132t23.5 -201v-501q0 -41 4 -80t17 -74h-248l-17 92q-78 -53 -154.5 -82.5 t-176.5 -29.5q-72 0 -126.5 23.5t-90 63t-54 90t-18.5 105.5zM151 1200l232 299h254l235 -299h-231l-129 168l-131 -168h-230zM291 293q0 -59 34.5 -92t88.5 -33q31 0 63.5 11t63 27.5t58.5 37t48 37.5v229q-63 -12 -126.5 -26.5t-115 -38t-83 -60.5t-31.5 -92z" />
<glyph unicode="&#xe3;" horiz-adv-x="1024" d="M37 262q0 182 149.5 281.5t460.5 136.5v90q0 61 -44 94t-111 33q-90 0 -143.5 -40t-90.5 -91l-164 125q25 43 68 79t97 62.5t113.5 40.5t119.5 12q106 -2 184 -24.5t128 -72.5t73.5 -132t23.5 -201v-501q0 -41 4 -80t17 -74h-248l-17 92q-78 -53 -154.5 -82.5 t-176.5 -29.5q-72 0 -126.5 23.5t-90 63t-54 90t-18.5 105.5zM137 1217q6 47 23.5 92t47 79.5t69.5 56t93 21.5q41 0 82 -12t78 -25.5t70 -25.5t57 -12q37 0 62.5 26.5t33.5 61.5h133q-10 -47 -26.5 -92.5t-43 -80t-64.5 -56t-93 -21.5q-39 0 -79 11t-78.5 24.5t-75.5 24.5 t-68 11q-41 0 -61.5 -24.5t-32.5 -58.5h-127zM291 293q0 -59 34.5 -92t88.5 -33q31 0 63.5 11t63 27.5t58.5 37t48 37.5v229q-63 -12 -126.5 -26.5t-115 -38t-83 -60.5t-31.5 -92z" />
<glyph unicode="&#xe4;" horiz-adv-x="1024" d="M37 262q0 182 149.5 281.5t460.5 136.5v90q0 61 -44 94t-111 33q-90 0 -143.5 -40t-90.5 -91l-164 125q25 43 68 79t97 62.5t113.5 40.5t119.5 12q106 -2 184 -24.5t128 -72.5t73.5 -132t23.5 -201v-501q0 -41 4 -80t17 -74h-248l-17 92q-78 -53 -154.5 -82.5 t-176.5 -29.5q-72 0 -126.5 23.5t-90 63t-54 90t-18.5 105.5zM194 1221v237h246v-237h-246zM291 293q0 -59 34.5 -92t88.5 -33q31 0 63.5 11t63 27.5t58.5 37t48 37.5v229q-63 -12 -126.5 -26.5t-115 -38t-83 -60.5t-31.5 -92zM583 1221v237h246v-237h-246z" />
<glyph unicode="&#xe5;" horiz-adv-x="1024" d="M37 262q0 182 149.5 281.5t460.5 136.5v90q0 61 -44 94t-111 33q-90 0 -143.5 -40t-90.5 -91l-164 125q25 43 68 79t97 62.5t113.5 40.5t119.5 12q106 -2 184 -24.5t128 -72.5t73.5 -132t23.5 -201v-501q0 -41 4 -80t17 -74h-248l-17 92q-78 -53 -154.5 -82.5 t-176.5 -29.5q-72 0 -126.5 23.5t-90 63t-54 90t-18.5 105.5zM290 1419q0 45 17.5 86t47.5 71t70 47t87 17q45 0 86 -17t70.5 -47t47 -71t17.5 -86q0 -47 -17.5 -87t-47 -69.5t-70.5 -47t-86 -17.5q-47 0 -87 17.5t-70 47t-47.5 69.5t-17.5 87zM291 293q0 -59 34.5 -92 t88.5 -33q31 0 63.5 11t63 27.5t58.5 37t48 37.5v229q-63 -12 -126.5 -26.5t-115 -38t-83 -60.5t-31.5 -92zM401 1419q0 -47 32 -78.5t79 -31.5t78.5 31.5t31.5 78.5t-31.5 79t-78.5 32t-79 -32t-32 -79z" />
<glyph unicode="&#xe6;" horiz-adv-x="1593" d="M37 262q0 182 150.5 281.5t467.5 136.5v90q0 61 -48 94t-115 33q-90 0 -143.5 -40t-90.5 -91l-164 125q25 43 68 79t97 62.5t113.5 40.5t119.5 12q119 -4 192.5 -32.5t116.5 -81.5q109 115 289 114q109 0 192.5 -39.5t140 -107.5t85 -157t28.5 -185v-104h-647v-107 q0 -90 61.5 -145.5t159.5 -55.5q92 0 143.5 36t98.5 91l184 -114q-74 -115 -183.5 -166t-262.5 -51q-43 0 -89.5 7t-90.5 26.5t-84 51t-70 80.5q-76 -55 -137.5 -87.5t-111.5 -50t-94 -22.5t-87 -5q-72 0 -126.5 23.5t-90 63t-54 90t-18.5 105.5zM291 293q0 -59 34.5 -92 t88.5 -33q31 0 63.5 11t64 27.5t61.5 37t52 37.5v229q-68 -12 -132 -26.5t-116.5 -38t-84 -60.5t-31.5 -92zM889 664h414q-4 111 -58.5 172t-146.5 61q-96 0 -150.5 -61.5t-58.5 -171.5z" />
<glyph unicode="&#xe7;" horiz-adv-x="1024" d="M49 532q0 127 32 229.5t91 174.5t145 110.5t195 38.5q152 0 263.5 -74.5t156.5 -209.5l-211 -82q-31 68 -74 115t-135 47q-106 0 -157.5 -84t-51.5 -265q0 -180 52.5 -264t164.5 -84q84 0 135.5 49.5t89.5 120.5l193 -108q-70 -129 -156 -190.5t-207 -71.5l-75 -113 q41 10 73 10q70 0 125.5 -37t55.5 -118q0 -51 -24.5 -88t-62.5 -60.5t-84 -35t-89 -11.5q-59 0 -114.5 15.5t-109.5 37.5l37 86q27 -10 72 -21t88 -11q51 0 78.5 16t27.5 70q0 41 -26.5 52t-61.5 11q-23 0 -46 -4t-40 -8l-41 41l109 166q-98 8 -176 50t-131.5 112.5t-82 169 t-28.5 218.5z" />
<glyph unicode="&#xe8;" horiz-adv-x="1024" d="M49 532q0 127 32 229.5t91 174.5t145 110.5t195 38.5q104 0 185 -39.5t136.5 -107.5t84 -157t28.5 -185v-104h-643q4 -166 67.5 -237t153.5 -71q88 0 139.5 36t98.5 91l184 -114q-74 -115 -183.5 -166t-262.5 -51q-104 0 -187.5 38.5t-141.5 110.5t-90 174.5t-32 228.5z M170 1499h315l193 -299h-209zM303 664h410q-4 111 -58.5 172t-146.5 61t-146.5 -61.5t-58.5 -171.5z" />
<glyph unicode="&#xe9;" horiz-adv-x="1024" d="M49 532q0 127 32 229.5t91 174.5t145 110.5t195 38.5q104 0 185 -39.5t136.5 -107.5t84 -157t28.5 -185v-104h-643q4 -166 67.5 -237t153.5 -71q88 0 139.5 36t98.5 91l184 -114q-74 -115 -183.5 -166t-262.5 -51q-104 0 -187.5 38.5t-141.5 110.5t-90 174.5t-32 228.5z M303 664h410q-4 111 -58.5 172t-146.5 61t-146.5 -61.5t-58.5 -171.5zM346 1200l192 299h316l-299 -299h-209z" />
<glyph unicode="&#xea;" horiz-adv-x="1024" d="M49 532q0 127 32 229.5t91 174.5t145 110.5t195 38.5q104 0 185 -39.5t136.5 -107.5t84 -157t28.5 -185v-104h-643q4 -166 67.5 -237t153.5 -71q88 0 139.5 36t98.5 91l184 -114q-74 -115 -183.5 -166t-262.5 -51q-104 0 -187.5 38.5t-141.5 110.5t-90 174.5t-32 228.5z M151 1200l232 299h254l235 -299h-231l-129 168l-131 -168h-230zM303 664h410q-4 111 -58.5 172t-146.5 61t-146.5 -61.5t-58.5 -171.5z" />
<glyph unicode="&#xeb;" horiz-adv-x="1024" d="M49 532q0 127 32 229.5t91 174.5t145 110.5t195 38.5q104 0 185 -39.5t136.5 -107.5t84 -157t28.5 -185v-104h-643q4 -166 67.5 -237t153.5 -71q88 0 139.5 36t98.5 91l184 -114q-74 -115 -183.5 -166t-262.5 -51q-104 0 -187.5 38.5t-141.5 110.5t-90 174.5t-32 228.5z M194 1221v237h246v-237h-246zM303 664h410q-4 111 -58.5 172t-146.5 61t-146.5 -61.5t-58.5 -171.5zM583 1221v237h246v-237h-246z" />
<glyph unicode="&#xec;" horiz-adv-x="569" d="M-53 1499h315l193 -299h-209zM158 0v1065h254v-1065h-254z" />
<glyph unicode="&#xed;" horiz-adv-x="569" d="M123 1200l192 299h316l-299 -299h-209zM158 0v1065h254v-1065h-254z" />
<glyph unicode="&#xee;" horiz-adv-x="569" d="M-72 1200l232 299h254l235 -299h-231l-129 168l-131 -168h-230zM158 0v1065h254v-1065h-254z" />
<glyph unicode="&#xef;" horiz-adv-x="569" d="M-29 1221v237h246v-237h-246zM158 0v1065h254v-1065h-254zM360 1221v237h246v-237h-246z" />
<glyph unicode="&#xf0;" horiz-adv-x="1024" d="M49 500q0 115 32 210t91 164.5t145 107.5t195 38q20 0 39.5 -2t46.5 -8q-16 41 -38.5 78.5t-47.5 72.5l-209 -100l-74 131l187 90q-31 35 -65 66.5t-68 60.5l221 70q31 -23 58.5 -46.5t55.5 -52.5l205 99l74 -131l-180 -88q59 -80 107 -173.5t82 -191.5t51.5 -198.5 t17.5 -196.5q0 -115 -32 -210t-91 -165t-145 -107.5t-195 -37.5t-195 37.5t-145 107.5t-91 165t-32 210zM303 500q0 -154 51.5 -235t157.5 -81t157.5 81t51.5 235t-51.5 234.5t-157.5 80.5t-157.5 -81t-51.5 -234z" />
<glyph unicode="&#xf1;" horiz-adv-x="1138" d="M131 0v1065h234v-115q72 49 152.5 92t174.5 43q160 0 238 -96t78 -260v-729h-254v692q0 109 -33 149t-98 40q-84 0 -144.5 -38t-93.5 -75v-768h-254zM184 1217q6 47 23.5 92t47 79.5t69.5 56t93 21.5q41 0 82 -12t78 -25.5t70 -25.5t57 -12q37 0 62.5 26.5t33.5 61.5h133 q-10 -47 -26.5 -92.5t-43 -80t-64.5 -56t-93 -21.5q-39 0 -79 11t-78.5 24.5t-75.5 24.5t-68 11q-41 0 -61.5 -24.5t-32.5 -58.5h-127z" />
<glyph unicode="&#xf2;" horiz-adv-x="1024" d="M49 532q0 127 32 229.5t91 174.5t145 110.5t195 38.5t195 -38.5t145 -110.5t91 -174.5t32 -229.5t-32 -229t-91 -174t-145 -110.5t-195 -38.5t-195 38.5t-145 110.5t-91 174t-32 229zM164 1499h315l193 -299h-209zM303 532q0 -180 51.5 -264t157.5 -84t157.5 84t51.5 264 t-51.5 264.5t-157.5 84.5t-157.5 -84t-51.5 -265z" />
<glyph unicode="&#xf3;" horiz-adv-x="1024" d="M49 532q0 127 32 229.5t91 174.5t145 110.5t195 38.5t195 -38.5t145 -110.5t91 -174.5t32 -229.5t-32 -229t-91 -174t-145 -110.5t-195 -38.5t-195 38.5t-145 110.5t-91 174t-32 229zM303 532q0 -180 51.5 -264t157.5 -84t157.5 84t51.5 264t-51.5 264.5t-157.5 84.5 t-157.5 -84t-51.5 -265zM340 1200l192 299h316l-299 -299h-209z" />
<glyph unicode="&#xf4;" horiz-adv-x="1024" d="M49 532q0 127 32 229.5t91 174.5t145 110.5t195 38.5t195 -38.5t145 -110.5t91 -174.5t32 -229.5t-32 -229t-91 -174t-145 -110.5t-195 -38.5t-195 38.5t-145 110.5t-91 174t-32 229zM145 1200l232 299h254l235 -299h-231l-129 168l-131 -168h-230zM303 532 q0 -180 51.5 -264t157.5 -84t157.5 84t51.5 264t-51.5 264.5t-157.5 84.5t-157.5 -84t-51.5 -265z" />
<glyph unicode="&#xf5;" horiz-adv-x="1024" d="M49 532q0 127 32 229.5t91 174.5t145 110.5t195 38.5t195 -38.5t145 -110.5t91 -174.5t32 -229.5t-32 -229t-91 -174t-145 -110.5t-195 -38.5t-195 38.5t-145 110.5t-91 174t-32 229zM131 1217q6 47 23.5 92t47 79.5t69.5 56t93 21.5q41 0 82 -12t78 -25.5t70 -25.5 t57 -12q37 0 62.5 26.5t33.5 61.5h133q-10 -47 -26.5 -92.5t-43 -80t-64.5 -56t-93 -21.5q-39 0 -79 11t-78.5 24.5t-75.5 24.5t-68 11q-41 0 -61.5 -24.5t-32.5 -58.5h-127zM303 532q0 -180 51.5 -264t157.5 -84t157.5 84t51.5 264t-51.5 264.5t-157.5 84.5t-157.5 -84 t-51.5 -265z" />
<glyph unicode="&#xf6;" horiz-adv-x="1024" d="M49 532q0 127 32 229.5t91 174.5t145 110.5t195 38.5t195 -38.5t145 -110.5t91 -174.5t32 -229.5t-32 -229t-91 -174t-145 -110.5t-195 -38.5t-195 38.5t-145 110.5t-91 174t-32 229zM188 1221v237h246v-237h-246zM303 532q0 -180 51.5 -264t157.5 -84t157.5 84t51.5 264 t-51.5 264.5t-157.5 84.5t-157.5 -84t-51.5 -265zM577 1221v237h246v-237h-246z" />
<glyph unicode="&#xf7;" horiz-adv-x="1228" d="M82 422v221h1065v-221h-1065zM434 143q0 33 14.5 66t39 59.5t57.5 42t67 15.5q37 0 71 -15.5t59.5 -42t40 -59.5t14.5 -66q0 -35 -14.5 -66.5t-40 -57t-59.5 -41t-71 -15.5q-35 0 -67.5 15.5t-57 41t-39 57.5t-14.5 66zM434 920q0 33 14.5 65.5t39 59t57.5 42t67 15.5 q37 0 71 -15.5t59.5 -42t40 -59t14.5 -65.5q0 -35 -14.5 -67t-40 -57.5t-59.5 -41t-71 -15.5q-35 0 -67.5 15.5t-57 41t-39 57.5t-14.5 67z" />
<glyph unicode="&#xf8;" horiz-adv-x="1024" d="M20 -205l173 314q-143 150 -144 423q0 127 32 229.5t91 174.5t145 110.5t195 38.5q111 0 197 -41l114 209h187l-168 -305q66 -72 99.5 -177t33.5 -239q0 -127 -32 -229t-91 -174t-145 -110.5t-195 -38.5q-98 0 -184 34l-121 -219h-187zM303 532q0 -113 21 -186l282 512 q-41 23 -94 23q-106 0 -157.5 -84t-51.5 -265zM430 201q37 -16 82 -17q106 0 157.5 84t51.5 264q0 49 -4 91.5t-12 76.5z" />
<glyph unicode="&#xf9;" horiz-adv-x="1138" d="M131 336v729h254v-692q0 -109 33 -149t98 -40q84 0 144.5 38t93.5 75v768h254v-1065h-234v115q-72 -49 -152.5 -92t-175.5 -43q-160 0 -237.5 96t-77.5 260zM228 1499h315l193 -299h-209z" />
<glyph unicode="&#xfa;" horiz-adv-x="1138" d="M131 336v729h254v-692q0 -109 33 -149t98 -40q84 0 144.5 38t93.5 75v768h254v-1065h-234v115q-72 -49 -152.5 -92t-175.5 -43q-160 0 -237.5 96t-77.5 260zM404 1200l192 299h316l-299 -299h-209z" />
<glyph unicode="&#xfb;" horiz-adv-x="1138" d="M131 336v729h254v-692q0 -109 33 -149t98 -40q84 0 144.5 38t93.5 75v768h254v-1065h-234v115q-72 -49 -152.5 -92t-175.5 -43q-160 0 -237.5 96t-77.5 260zM209 1200l232 299h254l235 -299h-231l-129 168l-131 -168h-230z" />
<glyph unicode="&#xfc;" horiz-adv-x="1138" d="M131 336v729h254v-692q0 -109 33 -149t98 -40q84 0 144.5 38t93.5 75v768h254v-1065h-234v115q-72 -49 -152.5 -92t-175.5 -43q-160 0 -237.5 96t-77.5 260zM252 1221v237h246v-237h-246zM641 1221v237h246v-237h-246z" />
<glyph unicode="&#xfd;" horiz-adv-x="909" d="M18 1065h256l177 -655h4l182 655h254l-336 -1067q-43 -115 -83 -189.5t-87 -118.5t-105.5 -61.5t-136.5 -17.5q-47 0 -73.5 2t-49.5 6v209q29 -6 53.5 -7t53.5 -1q66 0 105.5 19.5t62.5 64.5q18 39 29.5 65.5t11.5 59.5q0 29 -11.5 61.5t-21.5 65.5zM289 1200l192 299 h316l-299 -299h-209z" />
<glyph unicode="&#xfe;" horiz-adv-x="1138" d="M131 -389v1868h244v-512q55 53 120.5 85.5t151.5 32.5q106 0 186 -44t133.5 -121.5t80 -184t26.5 -231.5q0 -98 -27.5 -192.5t-82 -168t-134 -118.5t-182.5 -45q-33 0 -69.5 9t-72.5 24.5t-66.5 38t-49.5 46.5h-4v-487h-254zM385 274q39 -35 87 -62.5t110 -27.5 q115 0 176 89t61 259t-61.5 259.5t-175.5 89.5q-41 0 -70 -9.5t-50.5 -22.5t-38.5 -30.5t-38 -32.5v-512z" />
<glyph unicode="&#xff;" horiz-adv-x="909" d="M18 1065h256l177 -655h4l182 655h254l-336 -1067q-43 -115 -83 -189.5t-87 -118.5t-105.5 -61.5t-136.5 -17.5q-47 0 -73.5 2t-49.5 6v209q29 -6 53.5 -7t53.5 -1q66 0 105.5 19.5t62.5 64.5q18 39 29.5 65.5t11.5 59.5q0 29 -11.5 61.5t-21.5 65.5zM137 1221v237h246 v-237h-246zM526 1221v237h246v-237h-246z" />
<glyph unicode="&#x152;" horiz-adv-x="1933" d="M27 739q0 186 37.5 327.5t119.5 238t210 145.5t306 49q66 0 150 -10t174 -10h825v-238h-626v-352h442v-238h-442v-413h661v-238h-825q-90 0 -178 -10t-181 -10q-178 0 -306 49t-210 145t-119.5 237.5t-37.5 327.5zM309 739q0 -166 26.5 -268t75 -158.5t111 -76 t133.5 -19.5q76 0 130.5 14.5t89 51t50 100t15.5 162.5v389q0 98 -15.5 161.5t-50 100.5t-89 51.5t-130.5 14.5q-72 0 -134 -19.5t-110.5 -76t-75 -159t-26.5 -268.5z" />
<glyph unicode="&#x153;" horiz-adv-x="1593" d="M25 532q0 127 31.5 229.5t90 174.5t141.5 110.5t187 38.5t188.5 -32.5t141.5 -104.5q109 137 301 137q102 0 182 -39.5t135.5 -107.5t84 -157t28.5 -185v-104h-623q4 -166 57.5 -237t168.5 -71q72 0 119 36t94 91l184 -114q-74 -115 -179.5 -166t-234.5 -51 q-104 0 -182 37.5t-131 103.5q-55 -72 -140 -106.5t-194 -34.5q-104 0 -187 38.5t-141.5 110.5t-90 174.5t-31.5 228.5zM279 532q0 -180 50 -264t150 -84t150.5 84t50.5 264t-50 264.5t-151 84.5q-100 0 -150 -84.5t-50 -264.5zM913 664h390q-4 111 -56.5 172t-138.5 61 t-138 -61.5t-57 -171.5z" />
<glyph unicode="&#x178;" horiz-adv-x="1138" d="M20 1479h295l254 -586l254 586h295l-407 -889v-590h-283v590zM252 1581v237h246v-237h-246zM641 1581v237h246v-237h-246z" />
<glyph unicode="&#x2c6;" horiz-adv-x="569" d="M-76 1200l232 299h254l235 -299h-231l-129 168l-131 -168h-230z" />
<glyph unicode="&#x2dc;" horiz-adv-x="569" d="M-90 1217q6 47 23.5 92t47 79.5t69.5 56t93 21.5q41 0 82 -12t78 -25.5t70 -25.5t57 -12q37 0 62.5 26.5t33.5 61.5h133q-10 -47 -26.5 -92.5t-43 -80t-64.5 -56t-93 -21.5q-39 0 -79 11t-78.5 24.5t-75.5 24.5t-68 11q-41 0 -61.5 -24.5t-32.5 -58.5h-127z" />
<glyph unicode="&#x2000;" horiz-adv-x="1000" />
<glyph unicode="&#x2001;" horiz-adv-x="2000" />
<glyph unicode="&#x2002;" horiz-adv-x="1000" />
<glyph unicode="&#x2003;" horiz-adv-x="2000" />
<glyph unicode="&#x2004;" horiz-adv-x="666" />
<glyph unicode="&#x2005;" horiz-adv-x="500" />
<glyph unicode="&#x2006;" horiz-adv-x="333" />
<glyph unicode="&#x2007;" horiz-adv-x="333" />
<glyph unicode="&#x2008;" horiz-adv-x="250" />
<glyph unicode="&#x2009;" horiz-adv-x="400" />
<glyph unicode="&#x200a;" horiz-adv-x="111" />
<glyph unicode="&#x2010;" horiz-adv-x="681" d="M90 422v221h502v-221h-502z" />
<glyph unicode="&#x2011;" horiz-adv-x="681" d="M90 422v221h502v-221h-502z" />
<glyph unicode="&#x2012;" horiz-adv-x="681" d="M90 422v221h502v-221h-502z" />
<glyph unicode="&#x2013;" horiz-adv-x="1024" d="M0 446v172h1024v-172h-1024z" />
<glyph unicode="&#x2014;" horiz-adv-x="2048" d="M0 446v172h2048v-172h-2048z" />
<glyph unicode="&#x2018;" horiz-adv-x="569" d="M143 901v291l131 307h134l-105 -307h123v-291h-283z" />
<glyph unicode="&#x2019;" horiz-adv-x="569" d="M143 1188v291h283v-291l-131 -307h-133l104 307h-123z" />
<glyph unicode="&#x201a;" horiz-adv-x="569" d="M143 0v291h283v-291l-131 -307h-133l104 307h-123z" />
<glyph unicode="&#x201c;" horiz-adv-x="909" d="M86 901v291l131 307h133l-104 -307h123v-291h-283zM543 901v291l131 307h133l-105 -307h123v-291h-282z" />
<glyph unicode="&#x201d;" horiz-adv-x="909" d="M84 1188v291h283v-291l-131 -307h-134l105 307h-123zM541 1188v291h282v-291l-131 -307h-133l105 307h-123z" />
<glyph unicode="&#x201e;" horiz-adv-x="909" d="M84 0v291h283v-291l-131 -307h-134l105 307h-123zM541 0v291h282v-291l-131 -307h-133l105 307h-123z" />
<glyph unicode="&#x2022;" horiz-adv-x="1024" d="M141 739q0 76 29 143.5t79 118t116.5 79t144.5 28.5q76 0 143.5 -28.5t118.5 -79t80 -118t29 -143.5q0 -78 -29 -144.5t-80 -117.5t-118.5 -79.5t-143.5 -28.5q-78 0 -144.5 28.5t-116.5 79.5t-79 117.5t-29 144.5z" />
<glyph unicode="&#x2026;" horiz-adv-x="2048" d="M197 0v291h290v-291h-290zM879 0v291h290v-291h-290zM1561 0v291h290v-291h-290z" />
<glyph unicode="&#x202f;" horiz-adv-x="400" />
<glyph unicode="&#x2039;" horiz-adv-x="681" d="M84 526l246 334h229l-252 -334l252 -321h-229z" />
<glyph unicode="&#x203a;" horiz-adv-x="681" d="M123 205l252 321l-252 334h229l246 -334l-246 -321h-229z" />
<glyph unicode="&#x205f;" horiz-adv-x="500" />
<glyph unicode="&#x20ac;" d="M66 459l53 192h102q-2 23 -2 43v45v52h-153l51 192h123q47 250 194.5 383t380.5 133q131 0 224.5 -38t154.5 -95l-70 -252q-74 78 -145.5 117t-173.5 39q-109 0 -185.5 -72t-111.5 -215h582l-54 -192h-553v-140h514l-51 -192h-436q29 -111 101.5 -180.5t215.5 -69.5 q70 0 151 19.5t146 76.5v-256q-66 -35 -144.5 -52t-156.5 -17q-127 0 -224 35.5t-167 99t-115 151.5t-69 193h-182z" />
<glyph unicode="&#x2122;" horiz-adv-x="2048" d="M45 1307v172h698v-172h-247v-672h-205v672h-246zM911 635v844h306l190 -529h4l188 529h306v-844h-205v575l-8 4l-205 -579h-158l-205 577h-8v-577h-205z" />
<glyph unicode="&#xe000;" horiz-adv-x="1064" d="M0 0v1065h1065v-1065h-1065z" />
</font>
</defs>
</svg>
