<?xml version="1.0" standalone="no"?>
<!DOCTYPE svg PUBLIC "-//W3C//DTD SVG 1.1//EN" "http://www.w3.org/Graphics/SVG/1.1/DTD/svg11.dtd" >
<svg>
<metadata>
Created by FontForge 20110222 at Sun Mar  9 12:07:53 2014
 By Orthosie Webhosting
Copyright (c) 2012, LatinoType (www.latinotype.com), with Reserved Font Name 'Sanchez'
</metadata>
<defs>
<font id="SanchezRegular" horiz-adv-x="613" >
  <font-face 
    font-family="SanchezRegular"
    font-weight="400"
    font-stretch="normal"
    units-per-em="1000"
    panose-1="2 0 0 0 0 0 0 0 0 0"
    ascent="800"
    descent="-200"
    x-height="492"
    cap-height="718"
    bbox="-42 -274 1054 1004"
    underline-thickness="50"
    underline-position="-50"
    unicode-range="U+0020-FB02"
  />
<missing-glyph horiz-adv-x="313" 
 />
    <glyph glyph-name="ff" unicode="ff" horiz-adv-x="753" 
d="M279 0h-226q-13 0 -13 12v43q0 12 13 12h55v358h-57q-13 0 -13 12v43q0 12 13 12h57v62q0 83 42.5 126.5t118.5 43.5q56 0 101 -40q10 -9 3 -17l-24 -31q-9 -9 -17 -2q-24 19 -60 19t-58.5 -25.5t-22.5 -74.5v-61h283v62q0 83 42.5 126.5t118.5 43.5q56 0 101 -40
q6 -5 6 -9.5t-3 -7.5l-24 -31q-9 -9 -17 -2q-24 19 -60 19t-58.5 -25.5t-22.5 -74.5v-61h128q13 0 13 -12v-43q0 -12 -13 -12h-128v-358h88q12 0 12 -12v-43q0 -12 -12 -12h-226q-13 0 -13 12v43q0 12 13 12h55v358h-283v-358h88q12 0 12 -12v-43q0 -12 -12 -12z" />
    <glyph glyph-name="fi" unicode="fi" horiz-adv-x="665" 
d="M279 0h-226q-13 0 -13 12v43q0 12 13 12h55v358h-57q-13 0 -13 12v43q0 12 13 12h57v62q0 83 42.5 126.5t118.5 43.5q56 0 101 -40q10 -9 3 -17l-24 -31q-9 -9 -17 -2q-24 19 -60 19t-58.5 -25.5t-22.5 -74.5v-61h358q12 0 12 -12v-413h53q13 0 13 -12v-43q0 -12 -13 -12
h-191q-13 0 -13 12v43q0 12 13 12h55v358h-287v-358h88q12 0 12 -12v-43q0 -12 -12 -12zM574 600q0 -23 -16.5 -39t-39.5 -16t-39.5 16t-16.5 39t16.5 40t39.5 17t39.5 -17t16.5 -40z" />
    <glyph glyph-name="fl" unicode="fl" horiz-adv-x="680" 
d="M279 0h-226q-13 0 -13 12v43q0 12 13 12h55v358h-57q-13 0 -13 12v43q0 12 13 12h57v62q0 83 42.5 126.5t118.5 43.5q56 0 101 -40q10 -9 3 -17l-24 -31q-9 -9 -17 -2q-24 19 -60 19t-58.5 -25.5t-22.5 -74.5v-61h128q13 0 13 -12v-43q0 -12 -13 -12h-128v-358h88
q12 0 12 -12v-43q0 -12 -12 -12zM629 0h-191q-13 0 -13 12v43q0 12 13 12h55v584h-55q-13 0 -13 12v43q0 12 13 12h111q27 0 27 -25v-626h53q13 0 13 -12v-43q0 -12 -13 -12z" />
    <glyph glyph-name=".notdef" horiz-adv-x="313" 
 />
    <glyph glyph-name=".notdef" horiz-adv-x="313" 
 />
    <glyph glyph-name=".null" horiz-adv-x="0" 
 />
    <glyph glyph-name="nonmarkingreturn" horiz-adv-x="333" 
 />
    <glyph glyph-name="space" unicode=" " horiz-adv-x="313" 
 />
    <glyph glyph-name="exclam" unicode="!" horiz-adv-x="182" 
d="M121 148h-60q-12 0 -12 12v588q0 12 12 12h60q12 0 12 -12v-588q0 -12 -12 -12zM144 4q0 -22 -15 -37.5t-37.5 -15.5t-38 15.5t-15.5 37.5t15.5 37.5t38 15.5t37.5 -15.5t15 -37.5z" />
    <glyph glyph-name="quotedbl" unicode="&#x22;" horiz-adv-x="278" 
d="M90 561h-34q-13 0 -13 13l-5 163q0 13 14 13h43q15 0 13 -13l-5 -163q0 -13 -13 -13zM222 561h-34q-13 0 -13 13l-5 163q0 13 13 13h44q15 0 13 -13l-5 -163q0 -13 -13 -13z" />
    <glyph glyph-name="numbersign" unicode="#" horiz-adv-x="612" 
d="M507 112h-98l-31 -107q-3 -12 -15 -12h-49q-14 0 -9 12l30 107h-130l-31 -107q-3 -12 -16 -12h-49q-12 0 -9 12l31 107h-80q-13 0 -13 12v37q0 12 13 12h97l36 126h-79q-12 0 -12 13v36q0 13 12 13h97l32 109q3 13 16 13h50q11 0 8 -13l-32 -109h131l32 109q3 13 16 13
h49q13 0 8 -13l-31 -109h80q13 0 13 -13v-36q0 -13 -13 -13h-98l-37 -126h81q12 0 12 -12v-37q0 -12 -12 -12zM352 173l37 126h-131l-36 -126h130z" />
    <glyph glyph-name="dollar" unicode="$" horiz-adv-x="646" 
d="M361 -86h-54q-12 0 -12 12v75q-67 9 -110.5 40.5t-65.5 68.5h-2l2 -67q1 -12 -12 -12h-56q-13 0 -13 12v188q0 12 13 12h63q12 0 12 -12v-6q3 -28 47 -82q23 -28 67.5 -48.5t110.5 -20.5t109.5 32t43.5 89q0 35 -24.5 60t-63.5 39t-86.5 25.5t-95 26.5t-86.5 35.5
t-63.5 58.5t-24.5 90q0 81 60 135.5t163 58.5v69q0 12 12 12h54q12 0 12 -12v-79q86 -12 131 -69l-2 39q0 12 13 12h56q12 0 12 -12v-181q0 -12 -12 -12h-63q-12 0 -12 12v13q-2 38 -40 78q-20 21 -56.5 34.5t-93.5 13.5t-97.5 -31.5t-40.5 -75t25 -70t65 -41t88 -27t96 -27
t88 -34t65 -55.5t25 -86q0 -85 -58.5 -141t-176.5 -60v-68q0 -12 -12 -12z" />
    <glyph glyph-name="percent" unicode="%" horiz-adv-x="753" 
d="M183 359q-68 0 -106.5 50.5t-38.5 132t39.5 132t106 50.5t105 -50t38.5 -132t-38 -132.5t-106 -50.5zM183 414q40 0 62.5 33.5t22.5 94.5t-22 94t-63 33t-63 -33t-22 -94t22.5 -94.5t62.5 -33.5zM571 -7q-68 0 -106.5 50.5t-38.5 132.5t39 132t105.5 50t105.5 -50
t39 -132t-38 -132.5t-106 -50.5zM571 48q40 0 62 33.5t22 94.5t-22 94t-62.5 33t-62.5 -33t-22 -94t22.5 -94.5t62.5 -33.5zM276 -74h-60q-10 0 -10 8q0 2 1 4l243 810q3 12 16 12h59q10 0 10 -8q0 -2 -1 -4l-243 -810q-3 -12 -15 -12z" />
    <glyph glyph-name="ampersand" unicode="&#x26;" horiz-adv-x="674" 
d="M603 0h-81q-21 0 -48 37l-21 30q-71 -74 -182.5 -74t-172.5 61.5t-61 140.5q0 93 63 146q49 41 108 65q-68 79 -68 155t47.5 119.5t117.5 43.5t118.5 -40t48.5 -112t-41.5 -114t-111.5 -77l133 -189q26 53 26 150q0 12 13 12h132q12 0 12 -12v-37q0 -12 -12 -12h-74
q-4 -90 -49 -168l40 -56h63q13 0 13 -12v-45q0 -12 -13 -12zM126 197q0 -59 43 -95t105 -36q86 0 136 60l-158 221q-88 -38 -114 -91q-12 -27 -12 -59zM386 516q10 21 10 53t-22.5 57.5t-63 25.5t-65.5 -25t-25 -72.5t59 -119.5q89 39 107 81z" />
    <glyph glyph-name="quotesingle" unicode="'" horiz-adv-x="147" 
d="M90 561h-34q-13 0 -13 13l-5 163q0 13 14 13h43q13 0 13 -13l-5 -163q0 -13 -13 -13z" />
    <glyph glyph-name="parenleft" unicode="(" horiz-adv-x="412" 
d="M373 -2v-51q0 -13 -13 -13q-121 0 -217 100q-47 49 -76 131.5t-29 185.5t29 184.5t76 130.5q95 99 217 99q13 0 13 -13v-51q0 -13 -13 -13q-85 0 -159 -82q-36 -39 -58 -106.5t-22 -152t22.5 -152t58.5 -105.5q73 -79 158 -79q13 0 13 -13z" />
    <glyph glyph-name="parenright" unicode=")" horiz-adv-x="412" 
d="M38 -53v50q0 14 14 14q86 0 158 78q36 39 58.5 106t22.5 151.5t-22 152t-58 107.5q-74 81 -159 81q-14 0 -14 13v51q0 13 14 13q120 0 216 -98q48 -49 76.5 -131t28.5 -185t-28.5 -185.5t-76.5 -131.5q-96 -100 -216 -100q-14 0 -14 14z" />
    <glyph glyph-name="asterisk" unicode="*" horiz-adv-x="413" 
d="M223 420h-34q-6 0 -10 4t-3 9l11 113l-68 -89q-10 -11 -20 -1l-23 24q-11 11 0 20l91 69l-115 -12q-6 -1 -10 3t-4 10v34q0 6 4 10t10 3l114 -14l-91 72q-11 9 0 19l24 24q11 9 19 0l71 -89l-13 113q-1 5 3 9t10 4h34q6 0 10 -3.5t3 -9.5l-11 -114l69 90q10 11 19 0
l24 -23q11 -11 -1 -20l-89 -73l113 16q6 1 10 -3t4 -10v-34q0 -14 -14 -14l-111 11l88 -68q9 -8 0 -19l-24 -24q-9 -11 -19 0l-71 87l13 -111q1 -6 -3 -9.5t-10 -3.5z" />
    <glyph glyph-name="plus" unicode="+" horiz-adv-x="401" 
d="M231 96h-58q-12 0 -12 13v107h-109q-14 0 -14 13v51q0 13 14 13h109v110q0 12 12 12h58q12 0 12 -12v-110h106q13 0 13 -13v-51q0 -13 -13 -13h-106v-107q0 -13 -12 -13z" />
    <glyph glyph-name="comma" unicode="," horiz-adv-x="159" 
d="M45 -90v17q0 6 11.5 6t24 13.5t12.5 39.5l-2 12q-6 -5 -21.5 -5t-28.5 12.5t-13 33t14 34t37 13.5t37.5 -19t14.5 -64.5t-22 -71.5t-57 -26q-7 0 -7 5z" />
    <glyph glyph-name="hyphen" unicode="-" horiz-adv-x="414" 
d="M363 222h-311q-14 0 -14 13v51q0 13 14 13h311q13 0 13 -13v-51q0 -13 -13 -13z" />
    <glyph glyph-name="period" unicode="." horiz-adv-x="151" 
d="M123 40q0 -20 -13.5 -33.5t-33.5 -13.5t-34 13.5t-14 33.5t14 33.5t34 13.5t33.5 -13.5t13.5 -33.5z" />
    <glyph glyph-name="slash" unicode="/" horiz-adv-x="405" 
d="M108 -74h-60q-10 0 -10 8q0 2 1 4l242 810q5 12 17 12h59q9 0 9 -6q0 -3 -1 -6l-242 -810q-3 -12 -15 -12z" />
    <glyph glyph-name="zero" unicode="0" horiz-adv-x="654" 
d="M327 -7q-136 0 -212.5 101t-76.5 265t78 264.5t211 100.5t211 -100.5t78 -264t-76.5 -265t-212.5 -101.5zM327 74q92 0 144 74.5t52 209.5t-52.5 211t-143.5 76t-143.5 -76t-52.5 -210.5t52 -209.5t144 -75z" />
    <glyph glyph-name="one" unicode="1" horiz-adv-x="508" 
d="M458 0h-395q-13 0 -13 12v51q0 12 13 12h162v549l-138 -99q-10 -7 -17 3l-28 41q-3 4 -3 8t6 9l174 125q10 7 18 7h63q12 0 12 -12v-631h146q12 0 12 -12v-51q0 -12 -12 -12z" />
    <glyph glyph-name="two" unicode="2" horiz-adv-x="602" 
d="M551 0h-500q-13 0 -13 12v31q0 60 23.5 108t61 78.5t82.5 55.5t90 46.5t83 44.5q84 52 84 129q0 58 -44.5 98.5t-120.5 40.5t-119 -41t-43 -104q0 -12 -13 -12h-65q-12 0 -12 12q0 93 65.5 159t187 66t188 -62.5t66.5 -150.5q0 -60 -30 -108t-75 -76.5t-98 -57t-99 -52
t-78.5 -60.5t-35.5 -82h340v72q0 12 12 12h63q13 0 13 -12v-135q0 -12 -13 -12z" />
    <glyph glyph-name="three" unicode="3" horiz-adv-x="590" 
d="M407 378v-1q35 0 83 -35q26 -19 43.5 -56.5t17.5 -86.5q0 -93 -73 -149.5t-192 -56.5q-59 0 -92.5 11.5t-53.5 22t-32.5 19.5t-25.5 20q-17 15 -32 35l-7 9q-5 4 -5 8t5 9l43 40q8 8 18 0l16 -17q44 -47 78 -60q43 -16 88 -16q80 0 127.5 37t47.5 99q0 127 -172 127h-40
q-12 0 -12 13v45q0 13 12 13h32q53 0 89 16q68 32 68 101q0 51 -37 85t-106.5 34t-104 -35.5t-34.5 -80.5q0 -12 -12 -12h-61q-12 0 -12 12q0 89 60 142.5t169 53.5t169 -58.5t60 -130.5t-46 -114.5t-76 -42.5z" />
    <glyph glyph-name="four" unicode="4" horiz-adv-x="608" 
d="M557 0h-288q-12 0 -12 12v51q0 12 12 12h115v150h-333q-12 0 -12 13v40q0 14 13 32l312 385q18 23 37 23h57q13 0 13 -12v-411h79q13 0 13 -13v-44q0 -13 -13 -13h-79v-150h86q13 0 13 -12v-51q0 -12 -13 -12zM384 295v315l-255 -315h255z" />
    <glyph glyph-name="five" unicode="5" horiz-adv-x="590" 
d="M286 -7q-53 0 -84 10t-48.5 17t-32 17t-25.5 18t-20.5 18t-15 16t-11 13t-8.5 9.5t-3 6.5t5 9l43 40q8 8 14 3t19.5 -20t20 -21t24 -19t32.5 -19q44 -17 90 -17q83 0 129.5 42t46.5 116.5t-47.5 118t-128.5 43.5q-59 0 -115 -16q-62 -19 -67 -19q-20 0 -20 25v324
q0 12 12 12h401q12 0 12 -12v-130q0 -12 -12 -12h-64q-12 0 -12 12v67h-249v-203q1 0 14.5 4t27.5 7q44 9 90 9q119 0 183.5 -63t64.5 -170t-72.5 -171.5t-193.5 -64.5z" />
    <glyph glyph-name="six" unicode="6" 
d="M535 523h-60q-13 0 -13 12q0 40 -34.5 75t-100.5 35q-86 0 -135 -61t-58 -173q81 51 197 51t180 -63t64 -167.5t-71 -171.5t-196 -67t-197.5 98t-72.5 266t74 267.5t215 99.5q100 0 160.5 -52.5t60.5 -136.5q0 -12 -13 -12zM180.5 143q47.5 -69 130 -69t128.5 44.5
t46 116.5t-47 115.5t-136 43.5t-171 -55q2 -127 49.5 -196z" />
    <glyph glyph-name="seven" unicode="7" horiz-adv-x="598" 
d="M301 0h-63q-12 0 -12 12q0 122 24 212t58 141t68 91q84 96 87 193h-337v-72q0 -12 -12 -12h-63q-13 0 -13 12v135q0 12 13 12h496q12 0 12 -12v-33q0 -103 -49 -177q-22 -34 -48 -67t-52 -72t-48 -85q-48 -102 -48 -265q0 -13 -13 -13z" />
    <glyph glyph-name="eight" unicode="8" horiz-adv-x="608" 
d="M430 387v-1q32 0 81 -37q25 -19 42 -57t17 -87q0 -93 -73.5 -152.5t-192 -59.5t-192.5 59t-74 153q0 49 17 87t41 57q48 37 82 37v1q-30 0 -73 39.5t-43 111.5t60 128.5t182 57t182 -56.5t60 -131q0 -37 -14.5 -68t-35.5 -48q-41 -33 -66 -33zM317 345h-26
q-78 0 -120.5 -35.5t-42.5 -98.5t48 -100t128 -37t127.5 37.5t47.5 99.5t-42.5 98t-119.5 36zM456 527q0 50 -39.5 83.5t-112.5 33.5t-112.5 -33.5t-39.5 -83.5q0 -35 15 -60t39 -37q46 -21 84 -21t62 5t49 16.5t40 36.5t15 60z" />
    <glyph glyph-name="nine" unicode="9" horiz-adv-x="612" 
d="M77 194h61q12 0 12 -12q0 -40 34.5 -75t101.5 -35q86 0 134.5 61t57.5 173q-81 -51 -197 -51t-179.5 62.5t-63.5 167.5t71 172t196 67t196.5 -98t71.5 -265t-75 -267.5t-212 -100.5q-100 0 -160.5 52.5t-60.5 136.5q0 12 12 12zM432.5 574q-47.5 69 -130 69t-128.5 -44.5
t-46 -116.5t47 -115.5t136 -43.5t171 55q-2 127 -49.5 196z" />
    <glyph glyph-name="colon" unicode=":" horiz-adv-x="171" 
d="M133 40q0 -20 -14 -33.5t-34 -13.5t-33.5 13.5t-13.5 33.5t14 33.5t33.5 13.5t33.5 -13.5t14 -33.5zM133 440q0 -20 -14 -33.5t-33.5 -13.5t-33.5 13.5t-14 33.5t13.5 34t33.5 14t34 -14t14 -34z" />
    <glyph glyph-name="semicolon" unicode=";" horiz-adv-x="179" 
d="M134 440q0 -20 -14 -33.5t-34 -13.5t-33.5 13.5t-13.5 33.5t13.5 34t33.5 14t34 -14t14 -34zM55 -90v17q0 6 11 6t23.5 13.5t12.5 39.5l-2 12q-5 -5 -21 -5t-28.5 13t-12.5 33t13.5 33.5t36.5 13.5t38 -19t15 -64.5t-22.5 -71.5t-57.5 -26q-6 0 -6 5z" />
    <glyph glyph-name="less" unicode="&#x3c;" horiz-adv-x="438" 
d="M38 245v18q0 13 14 19l335 161q4 1 6 1q7 0 7 -9v-43q0 -14 -13 -20l-247 -118l247 -118q13 -5 13 -19v-43q0 -9 -7 -9q-2 0 -6 1l-335 160q-14 6 -14 19z" />
    <glyph glyph-name="equal" unicode="=" horiz-adv-x="423" 
d="M372 335h-320q-14 0 -14 14v50q0 14 14 14h320q13 0 13 -14v-50q0 -14 -13 -14zM372 100h-320q-14 0 -14 13v51q0 13 14 13h320q13 0 13 -13v-51q0 -13 -13 -13z" />
    <glyph glyph-name="greater" unicode="&#x3e;" horiz-adv-x="438" 
d="M400 263v-18q0 -13 -13 -19l-335 -160q-4 -1 -7 -1q-7 0 -7 9v43q0 14 14 19l246 118l-246 118q-14 7 -14 20v43q0 9 7 9q3 0 7 -1l335 -161q13 -6 13 -19z" />
    <glyph glyph-name="question" unicode="?" horiz-adv-x="582" 
d="M303 127h-69q-13 0 -13 12q0 63 24 112t58 79t68 56q82 61 82 123.5t-44 98.5t-122.5 36t-119 -40t-41.5 -105q0 -12 -12 -12h-63q-13 0 -13 12q0 94 61.5 159.5t185.5 65.5t191.5 -58t67.5 -146q0 -48 -17 -86.5t-42 -61.5t-55 -48.5t-55 -47.5t-42 -57.5t-17 -79.5
q0 -12 -13 -12zM322 4q0 -22 -15 -37.5t-37.5 -15.5t-38 15.5t-15.5 37.5t15.5 37.5t38 15.5t37.5 -15.5t15 -37.5z" />
    <glyph glyph-name="at" unicode="@" horiz-adv-x="783" 
d="M392 -126q-151 0 -252.5 101.5t-101.5 259t115 274t267.5 116.5t238.5 -78.5t86 -201.5t-68 -195t-153 -72h-20q-40 0 -40 29q0 4 1 9l3 25q0 -3 -11 -17.5t-37 -31.5t-56 -17q-60 0 -102 41.5t-42 131.5t57.5 148t131 58t96.5 -46l4 25q2 11 13 11h30q12 0 10 -12
l-38 -295h22q53 0 94 56.5t41 153t-69.5 154t-185.5 57.5q-135 0 -226.5 -98.5t-91.5 -227t82 -209.5t202 -81q60 0 110 9t70 19l20 9q12 7 17 -6l16 -35q5 -11 -5.5 -16t-28.5 -13t-77 -21.5t-122 -13.5zM416 401q-53 0 -94.5 -42.5t-41.5 -105.5t28.5 -91t67 -28t70.5 33
t35 64l13 103q-2 30 -26.5 48.5t-51.5 18.5z" />
    <glyph glyph-name="A" unicode="A" horiz-adv-x="841" 
d="M768 0h-226q-12 0 -12 12v51q0 12 12 12h70l-65 173h-279l-65 -173h70q12 0 12 -12v-51q0 -12 -12 -12h-225q-12 0 -12 12v51q0 12 12 12h67l215 568h-54q-13 0 -13 12v51q0 12 13 12h136q24 0 36.5 -10t21.5 -33l230 -600h68q12 0 12 -12v-51q0 -12 -12 -12zM520 317
l-111 297h-3l-112 -297h226z" />
    <glyph glyph-name="B" unicode="B" horiz-adv-x="681" 
d="M384 0h-323q-13 0 -13 12v51q0 12 13 12h76v568h-76q-13 0 -13 12v51q0 12 13 12h322q100 0 155.5 -53t55.5 -139q0 -101 -89 -151q128 -37 128 -170q0 -94 -62.5 -149.5t-186.5 -55.5zM224 75h153q79 0 123.5 33.5t44.5 103.5q0 125 -162 125h-159v-262zM224 403h153
q52 1 90.5 30t38.5 91t-40.5 90.5t-99.5 28.5h-142v-240z" />
    <glyph glyph-name="C" unicode="C" horiz-adv-x="752" 
d="M697 181q5 -4 5 -9.5t-4.5 -15t-15 -25t-37.5 -42.5t-59 -46.5t-84.5 -34.5t-112.5 -15q-146 0 -243.5 102t-97.5 267.5t98.5 263.5t237.5 98q155 0 225 -107l-1 89q-2 12 12 12h56q13 0 13 -12v-218q0 -13 -13 -13h-63q-12 0 -12 13v9q0 46 -62.5 95.5t-155.5 49.5
t-167.5 -73.5t-74.5 -208t75 -209t176 -74.5q109 0 172 49q49 38 72 77q8 15 19 6z" />
    <glyph glyph-name="D" unicode="D" horiz-adv-x="740" 
d="M342 0h-287q-12 0 -12 12v51q0 12 12 12h77v568h-77q-12 0 -12 12v51q0 12 12 12h270q166 0 264 -95.5t98 -262.5t-93 -263.5t-252 -96.5zM219 75h99q278 2 278 283q0 135 -71.5 210t-209.5 75h-96v-568z" />
    <glyph glyph-name="E" unicode="E" horiz-adv-x="653" 
d="M592 0h-531q-13 0 -13 12v51q0 12 13 12h76v568h-76q-13 0 -13 12v51q0 12 13 12h531q13 0 13 -12v-161q0 -13 -13 -13h-54q-12 0 -12 13v98h-302v-248h253q13 0 13 -12v-51q0 -12 -13 -12h-253v-245h301v98q0 12 13 12h54q13 0 13 -12v-161q0 -12 -13 -12z" />
    <glyph glyph-name="F" unicode="F" horiz-adv-x="635" 
d="M337 0h-276q-13 0 -13 12v51q0 12 13 12h76v568h-76q-13 0 -13 12v51q0 12 13 12h513q13 0 13 -12v-161q0 -13 -13 -13h-54q-12 0 -12 13v98h-284v-248h235q13 0 13 -12v-51q0 -12 -13 -12h-235v-245h113q12 0 12 -12v-51q0 -12 -12 -12z" />
    <glyph glyph-name="G" unicode="G" horiz-adv-x="750" 
d="M690 0h-53q-13 0 -13 12l1 69q-88 -88 -234.5 -88t-244.5 102t-98 268q0 111 49.5 195t126 125t165.5 41q153 0 220 -95l-1 77q-2 12 12 12h56q13 0 13 -12v-206q0 -12 -13 -12h-63q-12 0 -12 12v12q0 44 -60.5 87t-154.5 43t-169.5 -77.5t-75.5 -207t76 -205t170 -75.5
t148.5 30t81.5 71v78h-186q-12 0 -12 13v46q0 12 12 12h259q12 0 12 -12v-303q0 -12 -12 -12z" />
    <glyph glyph-name="H" unicode="H" horiz-adv-x="820" 
d="M760 0h-241q-12 0 -12 12v51q0 12 12 12h77v245h-372v-245h77q13 0 13 -12v-51q0 -12 -13 -12h-240q-13 0 -13 12v51q0 12 13 12h76v568h-76q-13 0 -13 12v51q0 12 13 12h240q13 0 13 -12v-51q0 -12 -13 -12h-77v-250h372v250h-77q-12 0 -12 12v51q0 12 12 12h241
q12 0 12 -12v-51q0 -12 -12 -12h-77v-568h77q12 0 12 -12v-51q0 -12 -12 -12z" />
    <glyph glyph-name="I" unicode="I" horiz-adv-x="362" 
d="M301 0h-240q-13 0 -13 12v51q0 12 13 12h76v568h-76q-13 0 -13 12v51q0 12 13 12h240q13 0 13 -12v-51q0 -12 -13 -12h-77v-568h77q13 0 13 -12v-51q0 -12 -13 -12z" />
    <glyph glyph-name="J" unicode="J" horiz-adv-x="484" 
d="M259 262v381h-76q-13 0 -13 12v51q0 12 13 12h240q13 0 13 -12v-51q0 -12 -13 -12h-77v-372q0 -147 -69 -209t-216 -62q-13 0 -13 12v51q0 12 13 12q110 0 154 45.5t44 141.5z" />
    <glyph glyph-name="K" unicode="K" horiz-adv-x="763" 
d="M702 0h-87q-36 0 -60 48l-94 191q-8 16 -14.5 25t-28 18t-53.5 9h-141v-216h92q13 0 13 -12v-51q0 -12 -13 -12h-255q-13 0 -13 12v51q0 12 13 12h76v568h-76q-13 0 -13 12v51q0 12 13 12h224q12 0 12 -12v-51q0 -12 -12 -12h-61v-281h105q106 0 157.5 62.5t51.5 218.5
h-68q-12 0 -12 12v51q0 12 12 12h223q12 0 12 -12v-51q0 -12 -12 -12h-69q0 -241 -136 -315q23 -11 36 -28.5t30 -51.5l87 -173h61q12 0 12 -12v-51q0 -12 -12 -12z" />
    <glyph glyph-name="L" unicode="L" horiz-adv-x="670" 
d="M608 0h-547q-13 0 -13 12v51q0 12 13 12h76v568h-76q-13 0 -13 12v51q0 12 13 12h239q13 0 13 -13v-49q0 -13 -13 -13h-76v-568h318v98q0 12 13 12h54q12 0 12 -12v-160q0 -13 -13 -13z" />
    <glyph glyph-name="M" unicode="M" horiz-adv-x="919" 
d="M859 0h-231q-12 0 -12 12v51q0 12 12 12h67v498h-1l-190 -472q-12 -30 -44 -30t-44 30l-190 472h-2v-498h67q13 0 13 -12v-51q0 -12 -13 -12h-230q-13 0 -13 12v51q0 12 13 12h76v568h-76q-13 0 -13 12v51q0 12 13 12h154q34 0 47 -34l149 -360l47 -126h4q28 78 46 124
l150 362q13 34 48 34h153q12 0 12 -12v-51q0 -12 -12 -12h-77v-568h77q12 0 12 -12v-51q0 -12 -12 -12z" />
    <glyph glyph-name="N" unicode="N" horiz-adv-x="820" 
d="M670 0h-54q-19 0 -30 7.5t-21 23.5l-289 452l-50 84h-2v-492h77q13 0 13 -12v-51q0 -12 -13 -12h-240q-13 0 -13 12v51q0 12 13 12h76v568h-76q-13 0 -13 12v51q0 12 13 12h140q29 0 51 -34l285 -446l57 -97h2v502h-77q-12 0 -12 12v51q0 12 12 12h241q12 0 12 -12v-51
q0 -12 -12 -12h-77v-631q0 -12 -13 -12z" />
    <glyph glyph-name="O" unicode="O" horiz-adv-x="793" 
d="M645.5 95.5q-98.5 -102.5 -248 -102.5t-249.5 103.5t-100 267t103 262t246 98.5t245 -98.5t102 -263t-98.5 -267zM397 74q102 0 178 76.5t76 210t-77.5 209t-176.5 75.5t-177 -75.5t-78 -209t76.5 -210t178.5 -76.5z" />
    <glyph glyph-name="P" unicode="P" horiz-adv-x="658" 
d="M322 0h-261q-13 0 -13 12v51q0 12 13 12h76v568h-76q-13 0 -13 12v51q0 12 13 12h308q106 0 173.5 -61.5t67.5 -166t-66 -162t-186 -57.5h-134v-196h98q12 0 12 -12v-51q0 -12 -12 -12zM224 342h130q168 0 168 148q0 77 -47.5 115t-119.5 38h-131v-301z" />
    <glyph glyph-name="Q" unicode="Q" horiz-adv-x="769" 
d="M724 -82q-61 -27 -120 -27t-106 11.5t-77.5 28t-53 33.5t-33 28.5t-9.5 11.5q-122 22 -199.5 119.5t-77.5 239.5q0 164 103 262.5t246 98.5t245 -98.5t102 -258t-87 -259.5t-224 -112q57 -38 166 -38q57 0 103 20q11 5 14 -4l15 -40q3 -10 -7 -16zM218 152
q76 -75 178.5 -75t178.5 75t76 208.5t-77.5 207.5t-176.5 74q-96 0 -172 -68q-37 -34 -60 -89.5t-23 -124.5q0 -133 76 -208z" />
    <glyph glyph-name="R" unicode="R" horiz-adv-x="715" 
d="M655 0h-87q-36 0 -60 48l-94 191q-12 25 -25.5 37t-37.5 13h-127v-214h90q12 0 12 -12v-51q0 -12 -12 -12h-253q-13 0 -13 12v51q0 12 13 12h76v568h-76q-13 0 -13 12v51q0 12 13 12h308q107 0 174 -56.5t67 -159.5q0 -157 -147 -196q19 -15 47 -67l84 -164h61
q12 0 12 -12v-51q0 -12 -12 -12zM224 360h128q170 0 170 139q0 144 -170 144h-128v-283z" />
    <glyph glyph-name="S" unicode="S" horiz-adv-x="666" 
d="M117 0h-56q-13 0 -13 12v234q0 13 13 13h63q12 0 12 -13v-21q0 -19 23 -50.5t46 -51.5t61.5 -34.5t83.5 -14.5q77 0 120.5 32t43.5 89q0 33 -24.5 56.5t-63.5 37.5t-86.5 26t-95 27.5t-86.5 37t-63.5 60t-24.5 90.5q0 84 63.5 139t170.5 55q135 0 198 -79l-2 62
q0 12 13 12h56q12 0 12 -12v-218q0 -12 -12 -12h-63q-12 0 -12 12v28q0 41 -46 83t-135 42q-66 0 -106.5 -31.5t-40.5 -80.5q0 -35 25 -60t65 -40t88 -27.5t96 -27.5t88 -36t65 -57.5t25 -86.5q0 -88 -63 -145t-188 -57q-92 0 -152 37t-87 80l1 -98q0 -12 -12 -12z" />
    <glyph glyph-name="T" unicode="T" horiz-adv-x="727" 
d="M478 0h-233q-13 0 -13 13v49q0 13 13 13h76v568h-189v-106q0 -14 -14 -14h-56q-14 0 -14 14v168q0 13 14 13h603q14 0 14 -13v-168q0 -14 -14 -14h-57q-13 0 -13 14v106h-187v-568h70q14 0 14 -13v-49q0 -13 -14 -13z" />
    <glyph glyph-name="U" unicode="U" horiz-adv-x="814" 
d="M590 260v383h-77q-12 0 -12 12v51q0 12 12 12h241q12 0 12 -12v-51q0 -12 -12 -12h-77v-374q0 -135 -70.5 -205.5t-199 -70.5t-199.5 70.5t-71 205.5v374h-76q-13 0 -13 12v51q0 12 13 12h240q13 0 13 -12v-51q0 -12 -13 -12h-77v-377q0 -192 184 -192q94 0 138 49.5
t44 136.5z" />
    <glyph glyph-name="V" unicode="V" horiz-adv-x="848" 
d="M444 0h-39q-19 0 -29 9t-18 31l-233 603h-64q-13 0 -13 12v51q0 12 13 12h225q12 0 12 -12v-51q0 -12 -12 -12h-68l203 -537h6l203 537h-68q-13 0 -13 12v51q0 12 13 12h225q13 0 13 -12v-51q0 -12 -13 -12h-66l-231 -603q-7 -21 -16.5 -30.5t-29.5 -9.5z" />
    <glyph glyph-name="W" unicode="W" horiz-adv-x="1094" 
d="M748 0h-38q-37 0 -47 40l-116 508h-3l-114 -508q-10 -40 -48 -40h-37q-35 0 -48 40l-183 603h-63q-13 0 -13 12v51q0 12 13 12h225q13 0 13 -12v-51q0 -12 -13 -12h-70l155 -537h6l139 612h80l140 -612h6l155 537h-71q-12 0 -12 12v51q0 12 12 12h226q12 0 12 -12v-51
q0 -12 -12 -12h-64l-183 -603q-12 -40 -47 -40z" />
    <glyph glyph-name="X" unicode="X" horiz-adv-x="814" 
d="M746 0h-241q-12 0 -12 12v51q0 12 12 12h66l-166 233l-171 -233h67q13 0 13 -12v-51q0 -12 -13 -12h-240q-13 0 -13 12v51q0 12 13 12h77l216 287l-217 281h-76q-13 0 -13 12v51q0 12 13 12h240q13 0 13 -12v-51q0 -12 -13 -12h-68l170 -226l170 226h-61q-12 0 -12 12v51
q0 12 12 12h241q12 0 12 -12v-51q0 -12 -12 -12h-83l-216 -281l212 -287h80q12 0 12 -12v-51q0 -12 -12 -12z" />
    <glyph glyph-name="Y" unicode="Y" horiz-adv-x="759" 
d="M500 0h-241q-12 0 -12 12v51q0 12 12 12h77v214l-40 69q-130 231 -167 285h-68q-13 0 -13 12v51q0 12 13 12h225q12 0 12 -12v-51q0 -12 -12 -12h-66l157 -278h6l156 278h-66q-12 0 -12 12v51q0 12 12 12h226q12 0 12 -12v-51q0 -12 -12 -12h-69q-49 -72 -127.5 -212
t-79.5 -141v-215h77q12 0 12 -12v-51q0 -12 -12 -12z" />
    <glyph glyph-name="Z" unicode="Z" horiz-adv-x="641" 
d="M580 0h-518q-14 0 -14 13v43q0 10 20 34l406 553h-342v-81q0 -14 -14 -14h-56q-14 0 -14 14v143q0 13 14 13h518q13 0 13 -13v-37q0 -17 -20 -41l-406 -552h343v81q0 14 13 14h57q13 0 13 -14v-143q0 -13 -13 -13z" />
    <glyph glyph-name="bracketleft" unicode="[" horiz-adv-x="304" 
d="M252 -71h-201q-13 0 -13 12v813q0 12 13 12h201q14 0 14 -14v-52q0 -13 -14 -13h-130v-679h130q14 0 14 -14v-52q0 -13 -14 -13z" />
    <glyph glyph-name="backslash" unicode="\" horiz-adv-x="405" 
d="M366 -67q0 -7 -10 -7h-59q-11 0 -16 12l-242 810q-1 2 -1 4q0 8 10 8h59q13 0 16 -12l242 -810q1 -3 1 -5z" />
    <glyph glyph-name="bracketright" unicode="]" horiz-adv-x="304" 
d="M266 754v-813q0 -12 -13 -12h-201q-14 0 -14 13v52q0 14 14 14h130v679h-130q-14 0 -14 13v52q0 14 14 14h201q13 0 13 -12z" />
    <glyph glyph-name="underscore" unicode="_" horiz-adv-x="554" 
d="M503 -100h-451q-14 0 -14 13v51q0 13 14 13h451q13 0 13 -13v-51q0 -13 -13 -13z" />
    <glyph glyph-name="grave" unicode="`" horiz-adv-x="291" 
d="M227 575q-5 -6 -10 -6t-9 4l-168 134q-5 4 -5 9t3 10l32 37q5 6 9.5 6t9.5 -4l161 -142q6 -4 6 -9t-4 -10z" />
    <glyph glyph-name="a" unicode="a" horiz-adv-x="580" 
d="M529 0h-87q-43 0 -43 42v51h-2q-73 -101 -195 -101q-72 0 -118 37.5t-46 101.5q0 82 71.5 120.5t196.5 38.5h84v12q0 125 -130 125q-61 0 -88 -11.5t-38.5 -18.5t-17.5 -11q-15 -12 -22 -2l-28 35q-7 8 2 16q17 22 70 43t125 21q210 0 210 -200v-232h56q12 0 12 -12v-43
q0 -12 -12 -12zM390 230h-79q-58 0 -96 -6t-64.5 -26t-26.5 -55t28.5 -57.5t74.5 -22.5q97 0 163 86v81z" />
    <glyph glyph-name="b" unicode="b" 
d="M170 0h-51q-12 0 -12 12v639h-56q-13 0 -13 12v43q0 12 13 12h123q13 0 13 -12v-266l-3 -39h3q17 41 59 69.5t104 28.5q101 0 162.5 -69.5t61.5 -183t-62.5 -183.5t-162.5 -70q-63 0 -105 29.5t-60 71.5h-1v-82q0 -12 -13 -12zM228.5 113.5q43.5 -50.5 110.5 -50.5
t110 51t43 133.5t-44 132t-109.5 49.5t-109.5 -49t-44 -132.5t43.5 -134z" />
    <glyph glyph-name="c" unicode="c" horiz-adv-x="539" 
d="M494 116q6 -5 6 -9.5t-4.5 -12t-19 -22.5t-40 -34t-66 -32t-86.5 -13q-105 0 -175.5 69t-70.5 185.5t70.5 184t172.5 67.5t154 -74h1l-1 55q0 13 13 13h38q12 0 12 -13v-170q0 -12 -12 -12h-46q-12 0 -12 12v17q-1 36 -41 69t-101.5 33t-112.5 -49t-51 -133.5t50 -134
t112 -49.5t105.5 26.5t58.5 51.5q7 12 17 3z" />
    <glyph glyph-name="d" unicode="d" horiz-adv-x="612" 
d="M562 0h-87q-23 0 -33.5 9.5t-10.5 32.5v56h-1q-16 -42 -60 -73.5t-107 -31.5q-100 0 -162.5 70t-62.5 183.5t62.5 183t163.5 69.5q62 0 103 -28.5t59 -69.5h1q-1 20 -1 33v217h-56q-13 0 -13 12v43q0 12 13 12h124q12 0 12 -12v-639h56q12 0 12 -12v-43q0 -12 -12 -12z
M163.5 114q43.5 -51 110.5 -51t110 50.5t43 134.5t-44 132.5t-109 48.5t-109.5 -49t-44.5 -132t43.5 -134z" />
    <glyph glyph-name="e" unicode="e" horiz-adv-x="538" 
d="M483 236h-360q4 -83 52.5 -128t109.5 -45t104.5 26t58.5 51q8 10 18 3l27 -27q6 -6 6 -10.5t-4.5 -11.5t-18.5 -22t-39.5 -34t-66 -32t-86.5 -13q-105 0 -175.5 69t-70.5 185.5t70 184t171.5 67.5t159.5 -65.5t58 -176.5v-8q0 -13 -14 -13zM375 396q-36 37 -96 37
t-103 -34t-51 -102h289q-3 62 -39 99z" />
    <glyph glyph-name="f" unicode="f" horiz-adv-x="387" 
d="M279 0h-226q-13 0 -13 12v43q0 12 13 12h55v358h-57q-13 0 -13 12v43q0 12 13 12h57v62q0 83 42.5 126.5t118.5 43.5q56 0 101 -40q6 -5 6 -9.5t-3 -7.5l-24 -31q-9 -9 -17 -2q-24 19 -60 19t-58.5 -25.5t-22.5 -74.5v-61h128q13 0 13 -12v-43q0 -12 -13 -12h-128v-358
h88q12 0 12 -12v-43q0 -12 -12 -12z" />
    <glyph glyph-name="g" unicode="g" horiz-adv-x="611" 
d="M268 -234q-50 0 -75.5 7t-41 12.5t-26.5 11t-21 11.5q-44 29 -33 42l26 37q6 9 17 1q1 0 6.5 -4.5t11 -8.5t15 -9.5t21.5 -10t26 -8.5q33 -9 73 -9q72 0 115.5 34.5t43.5 108.5v114q-18 -42 -59.5 -72t-103.5 -30q-102 0 -163.5 71t-61.5 184t62.5 182t162.5 69
q62 0 104.5 -28.5t61.5 -69.5h2l-1 79q0 12 12 12h118q12 0 12 -12v-43q0 -12 -12 -12h-54v-444q0 -107 -65.5 -161t-172.5 -54zM164 113.5q44 -50.5 110 -50.5t109.5 50t43.5 134t-43.5 133t-109.5 49t-110 -50t-44 -132.5t44 -133z" />
    <glyph glyph-name="h" unicode="h" horiz-adv-x="621" 
d="M570 0h-95q-43 0 -43 42v263q0 58 -28 90t-82 32q-41 0 -62.5 -12.5t-32.5 -22t-18 -18.5q-12 -16 -20 -33v-274h53q13 0 13 -12v-43q0 -12 -13 -12h-191q-13 0 -13 12v43q0 12 13 12h55v584h-55q-13 0 -13 12v43q0 12 13 12h126q12 0 12 -12v-223q0 -33 -4 -61h2
q49 77 156 77q80 0 125 -47t46 -127v-258h56q13 0 13 -12v-43q0 -12 -13 -12z" />
    <glyph glyph-name="i" unicode="i" horiz-adv-x="293" 
d="M242 0h-191q-13 0 -13 12v43q0 12 13 12h55v358h-55q-13 0 -13 12v43q0 12 13 12h126q12 0 12 -12v-413h53q13 0 13 -12v-43q0 -12 -13 -12zM202 600q0 -23 -16.5 -39t-39.5 -16t-39.5 16t-16.5 39t16.5 40t39.5 17t39.5 -17t16.5 -40z" />
    <glyph glyph-name="j" unicode="j" horiz-adv-x="326" 
d="M288 601q0 -23 -16.5 -39.5t-39.5 -16.5t-39.5 16.5t-16.5 39.5t16.5 39.5t39.5 16.5t39.5 -16.5t16.5 -39.5zM189 -63v488h-56q-12 0 -12 12v43q0 12 12 12h127q12 0 12 -12v-544q0 -83 -42.5 -126.5t-118.5 -43.5q-56 0 -100 39q-6 5 -6 10t4 9l23 30q9 9 18 2
q24 -19 54 -19q85 0 85 100z" />
    <glyph glyph-name="k" unicode="k" horiz-adv-x="614" 
d="M570 0h-54q-31 0 -53 31l-177 240l-97 -90v-114h53q13 0 13 -12v-43q0 -12 -13 -12h-191q-13 0 -13 12v43q0 12 13 12h55v584h-55q-13 0 -13 12v43q0 12 13 12h126q12 0 12 -12v-448l182 167h-36q-12 0 -12 12v43q0 12 12 12h192q12 0 12 -12v-43q0 -12 -12 -12h-65
l-122 -107l187 -251h43q12 0 12 -12v-43q0 -12 -12 -12z" />
    <glyph glyph-name="l" unicode="l" horiz-adv-x="293" 
d="M242 0h-191q-13 0 -13 12v43q0 12 13 12h55v584h-55q-13 0 -13 12v43q0 12 13 12h111q27 0 27 -25v-626h53q13 0 13 -12v-43q0 -12 -13 -12z" />
    <glyph glyph-name="m" unicode="m" horiz-adv-x="931" 
d="M880 0h-95q-23 0 -33.5 9.5t-10.5 32.5v263q0 58 -27.5 90t-81.5 32q-79 0 -124 -69q6 -18 6 -40v-251h56q12 0 12 -12v-43q0 -12 -12 -12h-191q-13 0 -13 12v43q0 12 13 12h53v238q0 58 -28 90t-82 32q-41 0 -62.5 -12.5t-32.5 -22t-18 -18.5q-12 -16 -20 -33v-274h49
q12 0 12 -12v-43q0 -12 -12 -12h-187q-13 0 -13 12v43q0 12 13 12h55v358h-55q-13 0 -13 12v43q0 12 13 12h98q17 0 24.5 -6.5t7.5 -23.5l-2 -50h3q52 87 161.5 87t149.5 -83q57 83 161 83q80 0 124.5 -47t44.5 -127l1 -258h56q13 0 13 -12v-43q0 -12 -13 -12z" />
    <glyph glyph-name="n" unicode="n" horiz-adv-x="621" 
d="M570 0h-95q-43 0 -43 42v263q0 58 -28 90t-82 32q-77 0 -120 -63q-5 -6 -13 -22v-275h53q13 0 13 -12v-43q0 -12 -13 -12h-191q-13 0 -13 12v43q0 12 13 12h55v358h-55q-13 0 -13 12v43q0 12 13 12h117q13 0 13 -12l-2 -68h3q52 87 161 87q80 0 125 -47t46 -127v-258h56
q13 0 13 -12v-43q0 -12 -13 -12z" />
    <glyph glyph-name="o" unicode="o" horiz-adv-x="575" 
d="M287 -7q-109 0 -179 69.5t-70 185t71 183.5t178.5 68t178 -68.5t70.5 -183t-70 -184.5t-179 -70zM170 114q48 -51 117.5 -51t117.5 51t48 133t-48.5 132t-116.5 50t-117 -50t-49 -132t48 -133z" />
    <glyph glyph-name="p" unicode="p" 
d="M252 -225h-201q-13 0 -13 12v43q0 12 13 12h56v583h-54q-13 0 -13 12v43q0 12 13 12h117q13 0 13 -12l-1 -79h1q19 41 61.5 69.5t104.5 28.5q101 0 163 -68.5t62 -182t-61 -184.5t-163 -71q-62 0 -103.5 28.5t-59.5 69.5h-3q3 -32 3 -46v-203h65q13 0 13 -12v-43
q0 -12 -13 -12zM230.5 110q45.5 -47 110 -47t108 50.5t43.5 133t-43.5 132.5t-108.5 50t-110 -49t-45 -136t45.5 -134z" />
    <glyph glyph-name="q" unicode="q" 
d="M562 -225h-201q-13 0 -13 12v43q0 12 13 12h65v208l3 45h-3q-18 -42 -60 -72t-103 -30q-102 0 -163.5 71t-61.5 184.5t62.5 182t162.5 68.5q62 0 104.5 -28.5t61.5 -68.5h2l-1 78q0 12 12 12h52q12 0 12 -12v-638h56q12 0 12 -12v-43q0 -12 -12 -12zM164 113.5
q44 -50.5 110 -50.5t109.5 50t43.5 134t-43.5 133t-109.5 49t-110 -50t-44 -132.5t44 -133z" />
    <glyph glyph-name="r" unicode="r" horiz-adv-x="421" 
d="M242 0h-191q-13 0 -13 12v43q0 12 13 12h55v358h-55q-13 0 -13 12v43q0 12 13 12h117q13 0 13 -12v-125h3q3 16 21 44t39.5 46.5t62 33.5t91.5 15q13 0 13 -13v-53q0 -13 -13 -13h-21q-86 0 -137 -55t-51 -125v-168h53q13 0 13 -12v-43q0 -12 -13 -12z" />
    <glyph glyph-name="s" unicode="s" horiz-adv-x="486" 
d="M260 -7q-67 0 -107 25t-50 47h-2q2 -49 2 -52q0 -13 -14 -13h-34q-13 0 -13 13v150q0 13 13 13h39q14 0 14 -13v-20q10 -30 42 -55q38 -30 95 -30q112 0 112 78q0 27 -31 43.5t-75.5 27.5t-88.5 25t-75 45.5t-31 79.5q0 65 47 103.5t120 38.5q99 0 142 -58h2q-2 36 -2 37
q0 13 13 13h32q13 0 13 -13v-139q0 -13 -13 -13h-39q-14 0 -14 13v14q0 27 -31.5 53.5t-81.5 26.5t-78 -21t-28 -54.5t31.5 -52t76.5 -29t90 -23.5t76.5 -43t31.5 -83t-45.5 -93.5t-138.5 -40.5z" />
    <glyph glyph-name="t" unicode="t" horiz-adv-x="401" 
d="M372 51q4 -4 4 -8.5t-6 -10.5q-44 -39 -110.5 -39t-109 43.5t-42.5 126.5v262h-56q-14 0 -14 13v41q0 13 14 13h56v101q0 14 14 14h56q13 0 13 -14v-101h127q14 0 14 -13v-41q0 -13 -14 -13h-127v-260q0 -50 22.5 -75.5t60 -25.5t56.5 19q10 9 18 -1z" />
    <glyph glyph-name="u" unicode="u" horiz-adv-x="608" 
d="M557 0h-87q-43 0 -43 42v37h-3q-41 -86 -156 -86q-80 0 -126.5 47.5t-47.5 126.5v258h-57q-12 0 -12 12v43q0 12 12 12h96q43 0 43 -42v-263q0 -58 28 -90t82 -32q73 0 115 54q18 23 18 31v275h-54q-12 0 -12 12v43q0 12 12 12h124q12 0 12 -12v-413h56q13 0 13 -12v-43
q0 -12 -13 -12z" />
    <glyph glyph-name="v" unicode="v" horiz-adv-x="588" 
d="M326 0h-67q-10 0 -14 3.5t-8 14.5l-159 407h-56q-12 0 -12 12v43q0 12 12 12h186q12 0 12 -12v-43q0 -12 -12 -12h-44l128 -337h2l130 337h-45q-12 0 -12 12v43q0 12 12 12h186q13 0 13 -12v-43q0 -12 -13 -12h-55l-161 -407q-6 -18 -23 -18z" />
    <glyph glyph-name="w" unicode="w" horiz-adv-x="812" 
d="M576 0h-59q-21 0 -24 21l-85 335h-2l-85 -335q-4 -21 -25 -21h-58q-18 0 -24 21l-132 404h-56q-12 0 -12 12v43q0 12 12 12h187q12 0 12 -12v-43q0 -12 -12 -12h-46l101 -337h2l88 337h-39q-12 0 -12 12v43q0 12 12 12h176q12 0 12 -12v-43q0 -12 -12 -12h-39l88 -337h2
l100 337h-45q-13 0 -13 12v43q0 12 13 12h186q12 0 12 -12v-43q0 -12 -12 -12h-55l-132 -404q-8 -21 -24 -21z" />
    <glyph glyph-name="x" unicode="x" horiz-adv-x="557" 
d="M523 0h-188q-12 0 -12 12v43q0 12 12 12h50l-118 145l-110 -145h46q12 0 12 -12v-43q0 -12 -12 -12h-169q-12 0 -12 12v43q0 12 12 12h48l146 184l-146 174h-48q-12 0 -12 12v43q0 12 12 12h188q12 0 12 -12v-43q0 -12 -12 -12h-47l118 -143l101 143h-40q-12 0 -12 12v43
q0 12 12 12h169q12 0 12 -12v-43q0 -12 -12 -12h-54l-136 -185l146 -173h44q12 0 12 -12v-43q0 -12 -12 -12z" />
    <glyph glyph-name="y" unicode="y" horiz-adv-x="590" 
d="M261 11q-16 0 -26 25l-153 389h-55q-12 0 -12 12v43q0 12 12 12h181q13 0 13 -12v-43q0 -12 -13 -12h-41l129 -339h2l120 339h-45q-12 0 -12 12v43q0 12 12 12h186q12 0 12 -12v-43q0 -12 -12 -12h-56l-178 -489q-33 -89 -68.5 -129.5t-97 -40.5t-105.5 39q-10 10 -3 18
l25 32q9 7 18 1q24 -19 57 -19t54.5 22.5t41.5 77.5l27 74h-13z" />
    <glyph glyph-name="z" unicode="z" horiz-adv-x="519" 
d="M468 0h-417q-13 0 -13 12v41q0 19 15 34l324 338h-271v-77q0 -12 -12 -12h-43q-13 0 -13 12v132q0 12 13 12h417q13 0 13 -12v-35q0 -18 -16 -32l-328 -346h275v79q0 12 13 12h43q13 0 13 -12v-134q0 -12 -13 -12z" />
    <glyph glyph-name="braceleft" unicode="{" horiz-adv-x="341" 
d="M302 -7v-52q0 -13 -13 -13q-168 0 -168 156v120q0 50 -24.5 82.5t-41.5 32.5t-17 14v31q0 13 17 13.5t41.5 32.5t24.5 83v114q0 158 168 158q13 0 13 -13v-52q0 -13 -13 -13q-44 0 -64 -20.5t-20 -66.5v-106q0 -40 -16.5 -72t-32.5 -44l-16 -13v-34q42 -28 58 -81
q7 -22 7 -47v-112q0 -46 19.5 -65.5t64.5 -19.5q13 0 13 -13z" />
    <glyph glyph-name="bar" unicode="|" horiz-adv-x="160" 
d="M110 -131h-59q-13 0 -13 12v867q0 12 13 12h59q12 0 12 -12v-867q0 -12 -12 -12z" />
    <glyph glyph-name="braceright" unicode="}" horiz-adv-x="341" 
d="M136 203q0 83 65 128v34q-7 4 -18 13.5t-29 42.5t-18 73v106q0 46 -20 66.5t-64 20.5q-14 0 -14 13v52q0 13 14 13q168 0 168 -158v-114q0 -51 24 -83t41 -32.5t17 -13.5v-31q0 -14 -16.5 -14t-41 -32.5t-24.5 -82.5v-120q0 -156 -168 -156q-14 0 -14 13v52q0 13 14 13
q44 0 64 19.5t20 65.5v112z" />
    <glyph glyph-name="exclamdown" unicode="&#xa1;" horiz-adv-x="182" 
d="M121 -268h-60q-12 0 -12 12v588q0 12 12 12h60q12 0 12 -12v-588q0 -12 -12 -12zM144 488q0 -22 -15 -37.5t-37.5 -15.5t-38 15.5t-15.5 37.5t15.5 37.5t38 15.5t37.5 -15.5t15 -37.5z" />
    <glyph glyph-name="cent" unicode="&#xa2;" horiz-adv-x="539" 
d="M300 -13h-44q-12 0 -12 12v54q-90 12 -148 79t-58 172.5t59.5 171.5t146.5 77v71q0 12 13 12h43q12 0 12 -12v-73q90 -13 123 -70h3l-3 56q0 12 13 12h38q12 0 12 -12v-170q0 -12 -12 -12h-46q-12 0 -12 12v17q-1 35 -41 68t-101.5 33t-112.5 -49t-51 -133t50 -133.5
t112 -49.5t105.5 26.5t58.5 51.5q7 11 17 3l29 -29q5 -4 5 -9t-5.5 -14.5t-24 -28.5t-62.5 -41.5t-95 -27.5v-52q0 -12 -12 -12z" />
    <glyph glyph-name="sterling" unicode="&#xa3;" horiz-adv-x="598" 
d="M548 0h-488q-12 0 -12 12v48q0 15 11 22q27 13 53 38.5t36 39.5q23 35 23 70t-12 66h-108q-13 0 -13 12v37q0 12 13 12h73q-45 76 -45 143q0 102 70.5 163t178 61t168 -55.5t60.5 -150.5v-16q0 -12 -13 -12h-61q-13 0 -13 12v17q0 55 -37.5 91t-103 36t-112 -37.5
t-46.5 -114.5q0 -39 12 -64l16 -31q3 -6 13 -21.5t13 -20.5h190q13 0 13 -12v-37q0 -12 -13 -12h-161q9 -31 9 -58q0 -89 -91 -163h377q12 0 12 -12v-51q0 -12 -12 -12z" />
    <glyph glyph-name="yen" unicode="&#xa5;" horiz-adv-x="759" 
d="M500 0h-241q-12 0 -12 12v51q0 12 12 12h77v140h-125q-12 0 -12 13v39q0 12 12 12h113v26l-29 50h-124q-13 0 -13 13v39q0 12 13 12h84l-126 224h-68q-13 0 -13 12v51q0 12 13 12h225q12 0 12 -12v-51q0 -12 -12 -12h-66l157 -278h6l156 278h-66q-12 0 -12 12v51
q0 12 12 12h226q12 0 12 -12v-51q0 -12 -12 -12h-69l-126 -224h80q12 0 12 -12v-39q0 -13 -12 -13h-121l-30 -50v-26h109q12 0 12 -12v-39q0 -13 -12 -13h-119v-140h77q12 0 12 -12v-51q0 -12 -12 -12z" />
    <glyph glyph-name="brokenbar" unicode="&#xa6;" horiz-adv-x="160" 
d="M110 410h-59q-13 0 -13 12v326q0 12 13 12h59q12 0 12 -12v-326q0 -12 -12 -12zM110 -131h-59q-13 0 -13 12v326q0 12 13 12h59q12 0 12 -12v-326q0 -12 -12 -12z" />
    <glyph glyph-name="section" unicode="&#xa7;" horiz-adv-x="646" 
d="M107 -224h-56q-13 0 -13 12v234q0 12 13 12h63q12 0 12 -12v-22q3 -27 47 -81q23 -28 67.5 -48.5t110.5 -20.5t109.5 31.5t43.5 89.5q0 35 -24.5 60t-63.5 39t-86.5 25.5t-95 26.5t-86.5 35.5t-63.5 58.5t-24.5 97t39 107q-39 44 -39 110q0 84 63.5 139t170.5 55
q135 0 198 -79l-2 62q0 12 13 12h56q12 0 12 -12v-218q0 -12 -12 -12h-63q-12 0 -12 12v25q0 42 -45 85t-136 43q-66 0 -106.5 -31.5t-40.5 -75t25 -70t65 -41t88 -27t96 -27t88 -34t65 -55.5t25 -86q0 -73 -40 -120q40 -42 40 -104q0 -88 -63 -145t-188 -57
q-92 0 -152 36.5t-86 79.5h-2l2 -97q1 -12 -12 -12zM504 195q0 42 -35.5 69.5t-80.5 38.5q-158 38 -208 66q-24 -27 -24 -63t21.5 -61.5t59.5 -40.5t77 -26q127 -33 166 -54q24 29 24 71z" />
    <glyph glyph-name="dieresis" unicode="&#xa8;" horiz-adv-x="313" 
d="M120 598q0 -18 -12.5 -30t-30.5 -12t-30 12t-12 30t12 30.5t30 12.5t30.5 -12.5t12.5 -30.5zM278 598q0 -18 -12.5 -30t-30.5 -12t-30 12t-12 30t12 30.5t30 12.5t30.5 -12.5t12.5 -30.5z" />
    <glyph glyph-name="copyright" unicode="&#xa9;" horiz-adv-x="670" 
d="M632 348q0 -121 -88 -209t-209 -88t-209 88t-88 209t88 209t209 88t209 -88t88 -209zM580 348q0 101 -72 172.5t-173 71.5t-172.5 -71.5t-71.5 -172.5t71.5 -172.5t172.5 -71.5t173 71.5t72 172.5zM469 265q5 -4 5 -7t-5 -11.5t-17.5 -23t-45.5 -31.5t-73 -17
q-69 0 -117 47.5t-48 128.5t48 128.5t117 47.5q40 0 73 -17t46 -32q22 -25 22 -31t-4 -10l-29 -20q-7 -4 -11 2q-29 52 -97 52q-45 0 -75.5 -30.5t-30.5 -88.5t31 -89.5t77 -31.5q67 0 95 49q5 8 11 3z" />
    <glyph glyph-name="ordfeminine" unicode="&#xaa;" horiz-adv-x="328" 
d="M212 509q-38 -38 -81 -38t-68 20t-25 55q0 73 111 73h59v3q0 31 -11.5 45.5t-47.5 14.5q-37 0 -69 -21q-4 -2 -7 2l-16 21q-3 5 0 7q28 33 94 33q104 0 104 -104v-106h29q5 0 5 -5v-28q0 -6 -5 -6h-49q-22 0 -22 21v13h-1zM137 512q43 0 71 32v44h-56q-64 0 -64 -37
q0 -18 13 -28.5t36 -10.5z" />
    <glyph glyph-name="guillemotleft" unicode="&#xab;" horiz-adv-x="521" 
d="M285 66q0 -8 -7 -8q-3 0 -6 3l-220 152q-14 11 -14 23v22q0 12 14 21l220 153q5 3 9 3t4 -8v-44q0 -13 -13 -22l-165 -115l165 -114q13 -11 13 -22v-44zM236 236v22q0 12 13 21l220 153q5 3 9.5 3t4.5 -8v-44q0 -13 -14 -22l-165 -115l165 -114q14 -10 14 -22v-44
q0 -9 -4 -9t-10 4l-220 152q-13 10 -13 23z" />
    <glyph glyph-name="logicalnot" unicode="&#xac;" horiz-adv-x="565" 
d="M514 141h-46q-13 0 -13 12v171h-403q-14 0 -14 13v43q0 13 14 13h461q13 0 13 -13v-227q0 -12 -12 -12z" />
    <glyph glyph-name="registered" unicode="&#xae;" horiz-adv-x="670" 
d="M632 348q0 -121 -88 -209t-209 -88t-209 88t-88 209t88 209t209 88t209 -88t88 -209zM335 100q103 0 175.5 72.5t72.5 175.5t-72.5 175.5t-175.5 72.5t-175.5 -72.5t-72.5 -175.5t72.5 -175.5t175.5 -72.5zM480 179h-46q-14 0 -25 22l-51 99q-12 22 -26 22h-52v-97h37
q6 0 6 -5v-35q0 -6 -6 -6h-117q-5 0 -5 6v35q0 5 5 5h31v255h-31q-5 0 -5 6v35q0 5 5 5h148q51 0 82.5 -26t31.5 -77q0 -76 -69 -95q1 -1 18 -30l37 -72h32q5 0 5 -5v-36q0 -6 -5 -6zM280 365h65q67 0 67 57q0 28 -18 43t-49 15h-65v-115z" />
    <glyph glyph-name="macron" unicode="&#xaf;" horiz-adv-x="392" 
d="M344 554h-296q-13 0 -13 13v42q0 14 13 14h296q13 0 13 -14v-42q0 -13 -13 -13z" />
    <glyph glyph-name="degree" unicode="&#xb0;" horiz-adv-x="220" 
d="M110 419q-31 0 -51.5 20t-20.5 54.5t21 56t51 21.5t51 -21.5t21 -56t-20.5 -54.5t-51.5 -20zM110 457q14 0 24 10.5t10 27.5t-10 27.5t-24 10.5t-24 -10.5t-10 -27.5t10 -27.5t24 -10.5z" />
    <glyph glyph-name="plusminus" unicode="&#xb1;" horiz-adv-x="401" 
d="M349 329h-106v-107q0 -13 -12 -13h-58q-12 0 -12 13v107h-109q-14 0 -14 13v51q0 13 14 13h109v110q0 12 12 12h58q12 0 12 -12v-110h106q13 0 13 -13v-51q0 -13 -13 -13zM349 91h-297q-14 0 -14 13v51q0 13 14 13h297q13 0 13 -13v-51q0 -13 -13 -13z" />
    <glyph glyph-name="acute" unicode="&#xb4;" horiz-adv-x="291" 
d="M83 572q-5 -3 -10 -3t-9 6l-25 29q-4 5 -4 10t6 9l161 141q4 4 9 4t10 -5l31 -38q4 -5 4 -9.5t-5 -9.5z" />
    <glyph glyph-name="paragraph" unicode="&#xb6;" horiz-adv-x="663" 
d="M557 -78h-63q-12 0 -12 12v709h-72v-709q0 -12 -12 -12h-62q-13 0 -13 12v302h-40q-113 0 -179 59t-66 178t65 182t170 63h340q12 0 12 -12v-51q0 -12 -12 -12h-44v-709q0 -12 -12 -12z" />
    <glyph glyph-name="periodcentered" unicode="&#xb7;" horiz-adv-x="151" 
d="M123 290q0 -20 -13.5 -33.5t-33.5 -13.5t-34 13.5t-14 33.5t14 33.5t34 13.5t33.5 -13.5t13.5 -33.5z" />
    <glyph glyph-name="cedilla" unicode="&#xb8;" horiz-adv-x="236" 
d="M177.5 -136q-23.5 -20 -62.5 -20t-74 23q-6 4 -6 8t3 8l10 12q8 8 17 3q19 -13 44 -13q43 0 43 33q0 26 -49 26q-13 0 -17.5 4t-1.5 13l20 57l42 -1l-15 -42q14 0 33 -5q37 -12 37 -49t-23.5 -57z" />
    <glyph glyph-name="ordmasculine" unicode="&#xba;" horiz-adv-x="317" 
d="M244 506.5q-35 -35.5 -85.5 -35.5t-85.5 35.5t-35 93t35.5 91t85.5 33.5t85 -34t35 -91t-35 -92.5zM159 513q33 0 55 22.5t22 62.5t-23 62.5t-54 22.5t-54.5 -23t-23.5 -62.5t22.5 -62t55.5 -22.5z" />
    <glyph glyph-name="guillemotright" unicode="&#xbb;" horiz-adv-x="521" 
d="M236 427q0 8 6 8q3 0 7 -3l220 -153q14 -9 14 -21v-22q0 -12 -14 -23l-220 -152q-5 -3 -9 -3t-4 8v44q0 12 13 22l165 114l-165 115q-13 8 -13 22v44zM52 61q-5 -3 -9.5 -3t-4.5 8v44q0 12 14 22l165 114l-165 115q-14 9 -14 22v44q0 9 4 9t10 -4l220 -153q13 -9 13 -21
v-22q0 -13 -13 -23z" />
    <glyph glyph-name="onehalf" unicode="&#xbd;" horiz-adv-x="703" 
d="M238 -74h-59q-12 0 -9 12l242 810q4 12 17 12h59q12 0 8 -12l-242 -810q-3 -12 -16 -12zM655 0h-243q-10 0 -10 10v21q0 41 21 69t50 43.5t58.5 28.5t50 32.5t20.5 47.5t-18 43.5t-49 15.5q-76 0 -76 -62q0 -8 -7 -8h-39q-8 0 -8 8q0 46 33 79.5t94.5 33.5t94 -31
t32.5 -72t-19.5 -67.5t-47.5 -42t-56 -28.5q-70 -32 -73 -73h151v35q0 8 8 8h35q8 0 8 -8v-73q0 -10 -10 -10zM262 362h-191q-9 0 -9 10v29q0 9 9 9h73v250l-73 -55q-6 -4 -10 1l-21 28q-1 2 -1 4.5t4 5.5l97 74q5 3 13 3h39q8 0 8 -9v-302h62q10 0 10 -9v-29q0 -10 -10 -10
z" />
    <glyph glyph-name="questiondown" unicode="&#xbf;" horiz-adv-x="582" 
d="M468 -37h63q13 0 13 -12q0 -94 -62 -159.5t-185.5 -65.5t-191 58t-67.5 146q0 48 17 86.5t42 61.5t55 48.5t55 47.5t42 57.5t17 79.5q0 12 13 12h69q13 0 13 -12q0 -63 -24 -112t-58 -79t-68 -56q-82 -61 -82 -123.5t44 -98.5t122.5 -36t119 40t41.5 105q0 12 12 12z
M366 446q0 -22 -15.5 -37.5t-38 -15.5t-37.5 15.5t-15 37.5t15 37.5t37.5 15.5t38 -15.5t15.5 -37.5z" />
    <glyph glyph-name="Agrave" unicode="&#xc0;" horiz-adv-x="841" 
d="M768 0h-226q-12 0 -12 12v51q0 12 12 12h70l-65 173h-279l-65 -173h70q12 0 12 -12v-51q0 -12 -12 -12h-225q-12 0 -12 12v51q0 12 12 12h67l215 568h-54q-13 0 -13 12v51q0 12 13 12h136q24 0 36.5 -10t21.5 -33l230 -600h68q12 0 12 -12v-51q0 -12 -12 -12zM520 317
l-111 297h-3l-112 -297h226zM471 801q-5 -6 -10 -6t-9 4l-168 134q-5 4 -5 9t3 10l32 37q5 6 9.5 6t9.5 -4l161 -142q6 -4 6 -9t-4 -10z" />
    <glyph glyph-name="Aacute" unicode="&#xc1;" horiz-adv-x="841" 
d="M768 0h-226q-12 0 -12 12v51q0 12 12 12h70l-65 173h-279l-65 -173h70q12 0 12 -12v-51q0 -12 -12 -12h-225q-12 0 -12 12v51q0 12 12 12h67l215 568h-54q-13 0 -13 12v51q0 12 13 12h136q24 0 36.5 -10t21.5 -33l230 -600h68q12 0 12 -12v-51q0 -12 -12 -12zM520 317
l-111 297h-3l-112 -297h226zM403 798q-5 -3 -10 -3t-9 6l-25 29q-4 5 -4 10t6 9l161 141q4 4 9 4t10 -5l31 -38q4 -5 4 -9.5t-5 -9.5z" />
    <glyph glyph-name="Acircumflex" unicode="&#xc2;" horiz-adv-x="841" 
d="M768 0h-226q-12 0 -12 12v51q0 12 12 12h70l-65 173h-279l-65 -173h70q12 0 12 -12v-51q0 -12 -12 -12h-225q-12 0 -12 12v51q0 12 12 12h67l215 568h-54q-13 0 -13 12v51q0 12 13 12h136q24 0 36.5 -10t21.5 -33l230 -600h68q12 0 12 -12v-51q0 -12 -12 -12zM520 317
l-111 297h-3l-112 -297h226zM548 801q-4 -6 -9 -6t-10 4l-124 105l-122 -105q-5 -4 -9.5 -4t-9.5 6l-25 29q-3 5 -3 9.5t5 9.5l155 136q4 4 9.5 4t10.5 -5l155 -135q5 -6 5 -10.5t-3 -8.5z" />
    <glyph glyph-name="Atilde" unicode="&#xc3;" horiz-adv-x="841" 
d="M768 0h-226q-12 0 -12 12v51q0 12 12 12h70l-65 173h-279l-65 -173h70q12 0 12 -12v-51q0 -12 -12 -12h-225q-12 0 -12 12v51q0 12 12 12h67l215 568h-54q-13 0 -13 12v51q0 12 13 12h136q24 0 36.5 -10t21.5 -33l230 -600h68q12 0 12 -12v-51q0 -12 -12 -12zM520 317
l-111 297h-3l-112 -297h226zM525 910h24q12 0 12 -12q0 -113 -87 -113q-32 0 -56.5 15.5t-44 31.5t-39 16t-29.5 -12.5t-10 -44.5q0 -12 -12 -12h-24q-12 0 -12 12q0 108 86 108q37 0 77 -33t62.5 -33t31.5 14t9 51q0 12 12 12z" />
    <glyph glyph-name="Adieresis" unicode="&#xc4;" horiz-adv-x="841" 
d="M768 0h-226q-12 0 -12 12v51q0 12 12 12h70l-65 173h-279l-65 -173h70q12 0 12 -12v-51q0 -12 -12 -12h-225q-12 0 -12 12v51q0 12 12 12h67l215 568h-54q-13 0 -13 12v51q0 12 13 12h136q24 0 36.5 -10t21.5 -33l230 -600h68q12 0 12 -12v-51q0 -12 -12 -12zM520 317
l-111 297h-3l-112 -297h226zM371 824q0 -18 -12.5 -30t-30.5 -12t-30 12t-12 30t12 30.5t30 12.5t30.5 -12.5t12.5 -30.5zM529 824q0 -18 -12.5 -30t-30.5 -12t-30 12t-12 30t12 30.5t30 12.5t30.5 -12.5t12.5 -30.5z" />
    <glyph glyph-name="Aring" unicode="&#xc5;" horiz-adv-x="841" 
d="M768 0h-226q-12 0 -12 12v51q0 12 12 12h70l-65 173h-279l-65 -173h70q12 0 12 -12v-51q0 -12 -12 -12h-225q-12 0 -12 12v51q0 12 12 12h67l215 568h-54q-13 0 -13 12v51q0 12 13 12h136q24 0 36.5 -10t21.5 -33l230 -600h68q12 0 12 -12v-51q0 -12 -12 -12zM520 317
l-111 297h-3l-112 -297h226zM452 829q-17 -29 -54 -29q-11 0 -28 10q-25 15 -25 50q0 14 10 31q15 25 49 25q14 0 31 -10q25 -15 25 -50q0 -14 -8 -27zM415 832q16 8 16 27t-20 26q-5 2 -10 2q-19 0 -26 -20q-2 -5 -2 -10q0 -19 21 -26q5 -2 10 -2t11 3z" />
    <glyph glyph-name="AE" unicode="&#xc6;" horiz-adv-x="1044" 
d="M984 0h-532q-12 0 -12 12v51q0 12 12 12h77v245h-209l-104 -245h69q13 0 13 -12v-51q0 -12 -13 -12h-224q-13 0 -13 12v51q0 12 13 12h67l242 568h-55q-12 0 -12 12v51q0 12 12 12h669q12 0 12 -12v-161q0 -13 -12 -13h-54q-13 0 -13 13v98h-301v-248h253q12 0 12 -12
v-51q0 -12 -12 -12h-253v-245h301v98q0 12 12 12h55q12 0 12 -12v-161q0 -12 -12 -12zM529 395v248h-71l-108 -248h179z" />
    <glyph glyph-name="Ccedilla" unicode="&#xc7;" horiz-adv-x="752" 
d="M437.5 -136q-23.5 -20 -62.5 -20t-74 23q-11 7 -3 16l10 12q8 8 17 3q19 -13 44 -13q43 0 43 33q0 26 -49 26q-13 0 -17.5 4t-1.5 13l12 34q-134 12 -221 112t-87 260.5t98.5 258.5t237.5 98q155 0 225 -107l-1 89q-2 12 12 12h56q13 0 13 -12v-218q0 -13 -13 -13h-63
q-12 0 -12 13v9q0 46 -62.5 95.5t-155.5 49.5t-167.5 -73.5t-74.5 -208t75 -209t176 -74.5q109 0 172 49q49 38 72 77q8 15 19 6l42 -28q5 -4 5 -9.5t-4.5 -15t-15 -25t-36.5 -41.5t-57.5 -45.5t-82.5 -34.5t-109 -16l-6 -19q14 0 33 -5q37 -12 37 -49t-23.5 -57z" />
    <glyph glyph-name="Egrave" unicode="&#xc8;" horiz-adv-x="653" 
d="M592 0h-531q-13 0 -13 12v51q0 12 13 12h76v568h-76q-13 0 -13 12v51q0 12 13 12h531q13 0 13 -12v-161q0 -13 -13 -13h-54q-12 0 -12 13v98h-302v-248h253q13 0 13 -12v-51q0 -12 -13 -12h-253v-245h301v98q0 12 13 12h54q13 0 13 -12v-161q0 -12 -13 -12zM380 801
q-5 -6 -10 -6t-9 4l-168 134q-5 4 -5 9t3 10l32 37q5 6 10 6t9 -4l161 -142q6 -4 6 -9t-4 -10z" />
    <glyph glyph-name="Eacute" unicode="&#xc9;" horiz-adv-x="653" 
d="M392 990q4 4 9 4t10 -5l31 -38q8 -10 -1 -19l-168 -134q-12 -7 -19 3l-25 29q-9 11 2 19zM592 0h-531q-13 0 -13 12v51q0 12 13 12h76v568h-76q-13 0 -13 12v51q0 12 13 12h531q13 0 13 -12v-161q0 -13 -13 -13h-54q-12 0 -12 13v98h-302v-248h253q13 0 13 -12v-51
q0 -12 -13 -12h-253v-245h301v98q0 12 13 12h54q13 0 13 -12v-161q0 -12 -13 -12z" />
    <glyph glyph-name="Ecircumflex" unicode="&#xca;" horiz-adv-x="653" 
d="M296 985q4 4 9.5 4t10.5 -5l155 -135q8 -10 2 -19l-25 -29q-8 -10 -19 -2l-124 105l-122 -105q-10 -9 -19 2l-25 29q-7 11 2 19zM592 0h-531q-13 0 -13 12v51q0 12 13 12h76v568h-76q-13 0 -13 12v51q0 12 13 12h531q13 0 13 -12v-161q0 -13 -13 -13h-54q-12 0 -12 13v98
h-302v-248h253q13 0 13 -12v-51q0 -12 -13 -12h-253v-245h301v98q0 12 13 12h54q13 0 13 -12v-161q0 -12 -13 -12z" />
    <glyph glyph-name="Edieresis" unicode="&#xcb;" horiz-adv-x="653" 
d="M285 824q0 -18 -12.5 -30t-30.5 -12t-30 12t-12 30t12 30.5t30 12.5t30.5 -12.5t12.5 -30.5zM443 824q0 -18 -12.5 -30t-30.5 -12t-30 12t-12 30t12 30.5t30 12.5t30.5 -12.5t12.5 -30.5zM592 0h-531q-13 0 -13 12v51q0 12 13 12h76v568h-76q-13 0 -13 12v51q0 12 13 12
h531q13 0 13 -12v-161q0 -13 -13 -13h-54q-12 0 -12 13v98h-302v-248h253q13 0 13 -12v-51q0 -12 -13 -12h-253v-245h301v98q0 12 13 12h54q13 0 13 -12v-161q0 -12 -13 -12z" />
    <glyph glyph-name="Igrave" unicode="&#xcc;" horiz-adv-x="378" 
d="M317 0h-240q-13 0 -13 12v51q0 12 13 12h76v568h-76q-13 0 -13 12v51q0 12 13 12h240q13 0 13 -12v-51q0 -12 -13 -12h-77v-568h77q13 0 13 -12v-51q0 -12 -13 -12zM224 779q-5 -6 -10 -6t-9 4l-168 134q-5 4 -5 9t3 10l32 37q5 6 10 6t9 -4l161 -142q6 -4 6 -9t-4 -10z
" />
    <glyph glyph-name="Iacute" unicode="&#xcd;" horiz-adv-x="391" 
d="M301 0h-240q-13 0 -13 12v51q0 12 13 12h76v568h-76q-13 0 -13 12v51q0 12 13 12h240q13 0 13 -12v-51q0 -12 -13 -12h-77v-568h77q13 0 13 -12v-51q0 -12 -13 -12zM170 774q-5 -3 -10 -3t-9 6l-25 29q-4 5 -4 10t6 9l161 141q4 4 9 4t10 -5l31 -38q4 -5 4 -9.5t-5 -9.5z
" />
    <glyph glyph-name="Icircumflex" unicode="&#xce;" horiz-adv-x="381" 
d="M309 0h-240q-13 0 -13 12v51q0 12 13 12h76v568h-76q-13 0 -13 12v51q0 12 13 12h240q13 0 13 -12v-51q0 -12 -13 -12h-77v-568h77q13 0 13 -12v-51q0 -12 -13 -12zM334 801q-4 -6 -9 -6t-10 4l-124 105l-122 -105q-5 -4 -9.5 -4t-9.5 6l-25 29q-3 5 -3 9.5t5 9.5
l155 136q4 4 9.5 4t10.5 -5l155 -135q5 -6 5 -10.5t-3 -8.5z" />
    <glyph glyph-name="Idieresis" unicode="&#xcf;" horiz-adv-x="362" 
d="M301 0h-240q-13 0 -13 12v51q0 12 13 12h76v568h-76q-13 0 -13 12v51q0 12 13 12h240q13 0 13 -12v-51q0 -12 -13 -12h-77v-568h77q13 0 13 -12v-51q0 -12 -13 -12zM147 824q0 -18 -12.5 -30t-30.5 -12t-30 12t-12 30t12 30.5t30 12.5t30.5 -12.5t12.5 -30.5zM305 824
q0 -18 -12.5 -30t-30.5 -12t-30 12t-12 30t12 30.5t30 12.5t30.5 -12.5t12.5 -30.5z" />
    <glyph glyph-name="Eth" unicode="&#xd0;" horiz-adv-x="741" 
d="M348 0h-287q-13 0 -13 12v51q0 12 13 12h76v249h-68q-14 0 -14 13v42q0 14 14 14h68v250h-76q-13 0 -13 12v51q0 12 13 12h269q166 0 264 -95.5t98 -262.5t-92.5 -263.5t-251.5 -96.5zM224 75h100q136 1 207 72t71 208.5t-71.5 212.5t-209.5 75h-97v-250h153q13 0 13 -14
v-42q0 -13 -13 -13h-153v-249z" />
    <glyph glyph-name="Ntilde" unicode="&#xd1;" horiz-adv-x="820" 
d="M670 0h-54q-19 0 -30 7.5t-21 23.5l-289 452l-50 84h-2v-492h77q13 0 13 -12v-51q0 -12 -13 -12h-240q-13 0 -13 12v51q0 12 13 12h76v568h-76q-13 0 -13 12v51q0 12 13 12h140q29 0 51 -34l285 -446l57 -97h2v502h-77q-12 0 -12 12v51q0 12 12 12h241q12 0 12 -12v-51
q0 -12 -12 -12h-77v-631q0 -12 -13 -12zM539 910h24q12 0 12 -12q0 -113 -87 -113q-32 0 -56.5 15.5t-44 31.5t-39 16t-29.5 -12.5t-10 -44.5q0 -12 -12 -12h-24q-12 0 -12 12q0 108 86 108q37 0 77 -33t62.5 -33t31.5 14t9 51q0 12 12 12z" />
    <glyph glyph-name="Ograve" unicode="&#xd2;" horiz-adv-x="793" 
d="M645.5 95.5q-98.5 -102.5 -248 -102.5t-249.5 103.5t-100 267t103 262t246 98.5t245 -98.5t102 -263t-98.5 -267zM397 74q102 0 178 76.5t76 210t-77.5 209t-176.5 75.5t-177 -75.5t-78 -209t76.5 -210t178.5 -76.5zM450 801q-5 -6 -10 -6t-9 4l-168 134q-5 4 -5 9t3 10
l32 37q5 6 10 6t9 -4l161 -142q6 -4 6 -9t-4 -10z" />
    <glyph glyph-name="Oacute" unicode="&#xd3;" horiz-adv-x="793" 
d="M450 990q4 4 9 4t10 -5l31 -38q8 -10 -1 -19l-168 -134q-12 -7 -19 3l-25 29q-9 11 2 19zM645.5 95.5q-98.5 -102.5 -248 -102.5t-249.5 103.5t-100 267t103 262t246 98.5t245 -98.5t102 -263t-98.5 -267zM397 74q102 0 178 76.5t76 210t-77.5 209t-176.5 75.5
t-177 -75.5t-78 -209t76.5 -210t178.5 -76.5z" />
    <glyph glyph-name="Ocircumflex" unicode="&#xd4;" horiz-adv-x="793" 
d="M386 985q4 4 9.5 4t10.5 -5l155 -135q8 -10 2 -19l-25 -29q-8 -10 -19 -2l-124 105l-122 -105q-10 -9 -19 2l-25 29q-7 11 2 19zM645.5 95.5q-98.5 -102.5 -248 -102.5t-249.5 103.5t-100 267t103 262t246 98.5t245 -98.5t102 -263t-98.5 -267zM397 74q102 0 178 76.5
t76 210t-77.5 209t-176.5 75.5t-177 -75.5t-78 -209t76.5 -210t178.5 -76.5z" />
    <glyph glyph-name="Otilde" unicode="&#xd5;" horiz-adv-x="793" 
d="M645.5 95.5q-98.5 -102.5 -248 -102.5t-249.5 103.5t-100 267t103 262t246 98.5t245 -98.5t102 -263t-98.5 -267zM397 74q102 0 178 76.5t76 210t-77.5 209t-176.5 75.5t-177 -75.5t-78 -209t76.5 -210t178.5 -76.5zM524 910h24q12 0 12 -12q0 -113 -87 -113
q-32 0 -56.5 15.5t-44 31.5t-39 16t-29.5 -12.5t-10 -44.5q0 -12 -12 -12h-24q-12 0 -12 12q0 108 86 108q37 0 77 -33t62.5 -33t31.5 14t9 51q0 12 12 12z" />
    <glyph glyph-name="Odieresis" unicode="&#xd6;" horiz-adv-x="793" 
d="M360 824q0 -18 -12.5 -30t-30.5 -12t-30 12t-12 30t12 30.5t30 12.5t30.5 -12.5t12.5 -30.5zM518 824q0 -18 -12.5 -30t-30.5 -12t-30 12t-12 30t12 30.5t30 12.5t30.5 -12.5t12.5 -30.5zM645.5 95.5q-98.5 -102.5 -248 -102.5t-249.5 103.5t-100 267t103 262t246 98.5
t245 -98.5t102 -263t-98.5 -267zM397 74q102 0 178 76.5t76 210t-77.5 209t-176.5 75.5t-177 -75.5t-78 -209t76.5 -210t178.5 -76.5z" />
    <glyph glyph-name="multiply" unicode="&#xd7;" horiz-adv-x="352" 
d="M260 159q-4 0 -9 4l-75 75l-77 -78q-5 -4 -9.5 -4t-9.5 4l-36 36q-4 5 -4 10t4 10l77 77l-78 78q-5 5 -5 9t5 9l40 40q4 5 8.5 5t8.5 -5l78 -80l77 77q4 5 8.5 5t9.5 -5l36 -36q5 -5 5 -9.5t-5 -9.5l-76 -76l75 -74q4 -5 4 -9t-4 -9l-40 -40q-4 -4 -8 -4z" />
    <glyph glyph-name="Oslash" unicode="&#xd8;" horiz-adv-x="793" 
d="M308 -51h-60q-12 0 -9 12l18 60q-96 41 -152.5 131t-56.5 211q0 164 103 262.5t246 98.5q33 0 68 -8l17 55q3 12 16 12h59q12 0 9 -12l-23 -78q91 -40 146 -125.5t55 -204.5q0 -165 -98.5 -267.5t-248.5 -102.5q-30 0 -62 8l-12 -40q-3 -12 -15 -12zM142 360
q0 -92 39 -156.5t101 -96.5l160 529q-25 8 -54 8q-96 -3 -171 -78t-75 -206zM651 360q0 89 -37.5 151.5t-96.5 94.5l-158 -525q24 -6 50 -6q98 5 170 80t72 205z" />
    <glyph glyph-name="Ugrave" unicode="&#xd9;" horiz-adv-x="814" 
d="M590 260v383h-77q-12 0 -12 12v51q0 12 12 12h241q12 0 12 -12v-51q0 -12 -12 -12h-77v-374q0 -135 -70.5 -205.5t-199 -70.5t-199.5 70.5t-71 205.5v374h-76q-13 0 -13 12v51q0 12 13 12h240q13 0 13 -12v-51q0 -12 -13 -12h-77v-377q0 -192 184 -192q94 0 138 49.5
t44 136.5zM491 801q-5 -6 -10 -6t-9 4l-168 134q-5 4 -5 9t3 10l32 37q5 6 9.5 6t9.5 -4l161 -142q6 -4 6 -9t-4 -10z" />
    <glyph glyph-name="Uacute" unicode="&#xda;" horiz-adv-x="814" 
d="M496 990q4 4 9 4t10 -5l31 -38q8 -10 -1 -19l-168 -134q-12 -7 -19 3l-25 29q-9 11 2 19zM590 260v383h-77q-12 0 -12 12v51q0 12 12 12h241q12 0 12 -12v-51q0 -12 -12 -12h-77v-374q0 -135 -70.5 -205.5t-199 -70.5t-199.5 70.5t-71 205.5v374h-76q-13 0 -13 12v51
q0 12 13 12h240q13 0 13 -12v-51q0 -12 -13 -12h-77v-377q0 -192 184 -192q94 0 138 49.5t44 136.5z" />
    <glyph glyph-name="Ucircumflex" unicode="&#xdb;" horiz-adv-x="814" 
d="M398 985q4 4 9.5 4t10.5 -5l155 -135q8 -10 2 -19l-25 -29q-8 -10 -19 -2l-124 105l-122 -105q-10 -9 -19 2l-25 29q-7 11 2 19zM590 260v383h-77q-12 0 -12 12v51q0 12 12 12h241q12 0 12 -12v-51q0 -12 -12 -12h-77v-374q0 -135 -70.5 -205.5t-199 -70.5t-199.5 70.5
t-71 205.5v374h-76q-13 0 -13 12v51q0 12 13 12h240q13 0 13 -12v-51q0 -12 -13 -12h-77v-377q0 -192 184 -192q94 0 138 49.5t44 136.5z" />
    <glyph glyph-name="Udieresis" unicode="&#xdc;" horiz-adv-x="814" 
d="M370 824q0 -18 -12.5 -30t-30.5 -12t-30 12t-12 30t12 30.5t30 12.5t30.5 -12.5t12.5 -30.5zM528 824q0 -18 -12.5 -30t-30.5 -12t-30 12t-12 30t12 30.5t30 12.5t30.5 -12.5t12.5 -30.5zM590 260v383h-77q-12 0 -12 12v51q0 12 12 12h241q12 0 12 -12v-51q0 -12 -12 -12
h-77v-374q0 -135 -70.5 -205.5t-199 -70.5t-199.5 70.5t-71 205.5v374h-76q-13 0 -13 12v51q0 12 13 12h240q13 0 13 -12v-51q0 -12 -13 -12h-77v-377q0 -192 184 -192q94 0 138 49.5t44 136.5z" />
    <glyph glyph-name="Yacute" unicode="&#xdd;" horiz-adv-x="759" 
d="M500 0h-241q-12 0 -12 12v51q0 12 12 12h77v214l-40 69q-130 231 -167 285h-68q-13 0 -13 12v51q0 12 13 12h225q12 0 12 -12v-51q0 -12 -12 -12h-66l157 -278h6l156 278h-66q-12 0 -12 12v51q0 12 12 12h226q12 0 12 -12v-51q0 -12 -12 -12h-69q-49 -72 -127.5 -212
t-79.5 -141v-215h77q12 0 12 -12v-51q0 -12 -12 -12zM320 798q-5 -3 -10 -3t-9 6l-25 29q-4 5 -4 10t6 9l161 141q4 4 9 4t10 -5l31 -38q4 -5 4 -9.5t-5 -9.5z" />
    <glyph glyph-name="Thorn" unicode="&#xde;" horiz-adv-x="626" 
d="M296 0h-245q-13 0 -13 12v45q0 12 13 12h70v580h-68q-13 0 -13 12v45q0 12 13 12h139q13 0 13 -12l-1 -122h143q108 0 174 -56t66 -159t-64.5 -156.5t-186.5 -53.5h-134v-90h94q13 0 13 -12v-45q0 -12 -13 -12zM203 230h141q156 0 156 139q0 72 -44 106t-112 34h-141
v-279z" />
    <glyph glyph-name="germandbls" unicode="&#xdf;" horiz-adv-x="697" 
d="M232 0h-181q-13 0 -13 12v45q0 12 13 12h57v413q0 111 63.5 176.5t153 65.5t134 -39t44.5 -97t-45 -92l-36 -28q-45 -32 -45 -80q0 -32 29 -52.5t70.5 -33.5t83 -29.5t70.5 -50.5t29 -85q0 -64 -58.5 -106.5t-141.5 -42.5q-154 0 -205 142q-1 1 -1 2q-6 11 6 17l35 16
q13 5 17 -6q23 -51 57 -77q34 -25 84 -25t84.5 23.5t34.5 58.5t-28.5 57t-69 34.5t-81 27.5t-69 46t-28.5 75.5t19.5 73.5t42.5 43q62 36 62 78q0 32 -22.5 53.5t-73 21.5t-91 -44.5t-40.5 -122.5v-413h40q12 0 12 -12v-45q0 -12 -12 -12z" />
    <glyph glyph-name="agrave" unicode="&#xe0;" horiz-adv-x="580" 
d="M529 0h-87q-43 0 -43 42v51h-2q-73 -101 -195 -101q-72 0 -118 37.5t-46 101.5q0 82 71.5 120.5t196.5 38.5h84v12q0 125 -130 125q-61 0 -88 -11.5t-38.5 -18.5t-17.5 -11q-15 -12 -22 -2l-28 35q-7 8 2 16q17 22 70 43t125 21q210 0 210 -200v-232h56q12 0 12 -12v-43
q0 -12 -12 -12zM390 230h-79q-58 0 -96 -6t-64.5 -26t-26.5 -55t28.5 -57.5t74.5 -22.5q97 0 163 86v81zM344 575q-5 -6 -10 -6t-9 4l-168 134q-5 4 -5 9t3 10l32 37q5 6 10 6t9 -4l161 -142q6 -4 6 -9t-4 -10z" />
    <glyph glyph-name="aacute" unicode="&#xe1;" horiz-adv-x="580" 
d="M529 0h-87q-43 0 -43 42v51h-2q-73 -101 -195 -101q-72 0 -118 37.5t-46 101.5q0 82 71.5 120.5t196.5 38.5h84v12q0 125 -130 125q-61 0 -88 -11.5t-38.5 -18.5t-17.5 -11q-15 -12 -22 -2l-28 35q-7 8 2 16q17 22 70 43t125 21q210 0 210 -200v-232h56q12 0 12 -12v-43
q0 -12 -12 -12zM390 230h-79q-58 0 -96 -6t-64.5 -26t-26.5 -55t28.5 -57.5t74.5 -22.5q97 0 163 86v81zM238 572q-5 -3 -10 -3t-9 6l-25 29q-4 5 -4 10t6 9l161 141q4 4 9 4t10 -5l31 -38q4 -5 4 -9.5t-5 -9.5z" />
    <glyph glyph-name="acircumflex" unicode="&#xe2;" horiz-adv-x="580" 
d="M529 0h-87q-43 0 -43 42v51h-2q-73 -101 -195 -101q-72 0 -118 37.5t-46 101.5q0 82 71.5 120.5t196.5 38.5h84v12q0 125 -130 125q-61 0 -88 -11.5t-38.5 -18.5t-17.5 -11q-15 -12 -22 -2l-28 35q-7 8 2 16q17 22 70 43t125 21q210 0 210 -200v-232h56q12 0 12 -12v-43
q0 -12 -12 -12zM390 230h-79q-58 0 -96 -6t-64.5 -26t-26.5 -55t28.5 -57.5t74.5 -22.5q97 0 163 86v81zM423 575q-4 -6 -9 -6t-10 4l-124 105l-122 -105q-4 -4 -9 -4t-10 6l-25 29q-3 5 -3 9.5t5 9.5l155 136q4 4 9.5 4t10.5 -5l155 -135q5 -6 5 -10.5t-3 -8.5z" />
    <glyph glyph-name="atilde" unicode="&#xe3;" horiz-adv-x="580" 
d="M529 0h-87q-43 0 -43 42v51h-2q-73 -101 -195 -101q-72 0 -118 37.5t-46 101.5q0 82 71.5 120.5t196.5 38.5h84v12q0 125 -130 125q-61 0 -88 -11.5t-38.5 -18.5t-17.5 -11q-15 -12 -22 -2l-28 35q-7 8 2 16q17 22 70 43t125 21q210 0 210 -200v-232h56q12 0 12 -12v-43
q0 -12 -12 -12zM390 230h-79q-58 0 -96 -6t-64.5 -26t-26.5 -55t28.5 -57.5t74.5 -22.5q97 0 163 86v81zM401 684h24q12 0 12 -12q0 -113 -87 -113q-32 0 -56.5 15.5t-44 31.5t-39 16t-29.5 -12.5t-10 -44.5q0 -12 -12 -12h-24q-12 0 -12 12q0 108 86 108q37 0 77 -33
t62.5 -33t31.5 14t9 51q0 12 12 12z" />
    <glyph glyph-name="adieresis" unicode="&#xe4;" horiz-adv-x="580" 
d="M529 0h-87q-43 0 -43 42v51h-2q-73 -101 -195 -101q-72 0 -118 37.5t-46 101.5q0 82 71.5 120.5t196.5 38.5h84v12q0 125 -130 125q-61 0 -88 -11.5t-38.5 -18.5t-17.5 -11q-15 -12 -22 -2l-28 35q-7 8 2 16q17 22 70 43t125 21q210 0 210 -200v-232h56q12 0 12 -12v-43
q0 -12 -12 -12zM390 230h-79q-58 0 -96 -6t-64.5 -26t-26.5 -55t28.5 -57.5t74.5 -22.5q97 0 163 86v81zM254 598q0 -18 -12.5 -30t-30.5 -12t-30 12t-12 30t12 30.5t30 12.5t30.5 -12.5t12.5 -30.5zM412 598q0 -18 -12.5 -30t-30.5 -12t-30 12t-12 30t12 30.5t30 12.5
t30.5 -12.5t12.5 -30.5z" />
    <glyph glyph-name="aring" unicode="&#xe5;" horiz-adv-x="580" 
d="M529 0h-87q-43 0 -43 42v51h-2q-73 -101 -195 -101q-72 0 -118 37.5t-46 101.5q0 82 71.5 120.5t196.5 38.5h84v12q0 125 -130 125q-61 0 -88 -11.5t-38.5 -18.5t-17.5 -11q-15 -12 -22 -2l-28 35q-7 8 2 16q17 22 70 43t125 21q210 0 210 -200v-232h56q12 0 12 -12v-43
q0 -12 -12 -12zM390 230h-79q-58 0 -96 -6t-64.5 -26t-26.5 -55t28.5 -57.5t74.5 -22.5q97 0 163 86v81zM339 603q-17 -29 -54 -29q-11 0 -28 10q-25 15 -25 50q0 14 10 31q15 25 49 25q14 0 31 -10q25 -15 25 -50q0 -14 -8 -27zM302 606q16 8 16 27t-20 26q-5 2 -10 2
q-19 0 -26 -20q-2 -5 -2 -10q0 -19 21 -26q5 -2 10 -2t11 3z" />
    <glyph glyph-name="ae" unicode="&#xe6;" horiz-adv-x="890" 
d="M722.5 5q-40.5 -13 -98 -13t-113.5 31t-87 88q-31 -46 -86 -82.5t-131.5 -36.5t-122.5 37.5t-46 101.5q0 82 71.5 120.5t196.5 38.5h84v13q0 67 -34 95.5t-96 28.5q-61 0 -88 -11.5t-38.5 -18.5t-17.5 -11q-15 -12 -22 -2l-28 35q-7 8 2 16q17 22 70 43t125 21
q142 0 183 -95q30 45 78 69.5t102 24.5q107 0 165 -65t58 -176v-8q0 -14 -14 -14h-360q4 -83 52.5 -128t109.5 -45t104.5 26t58.5 51q8 11 18 3l27 -27q6 -6 6 -10.5t-4.5 -11.5t-18.5 -22t-39.5 -34t-66 -32zM390 236h-79q-187 0 -187 -94q0 -34 28.5 -56.5t65 -22.5
t61.5 7.5t42 18.5t32 25q15 13 37 44l7 9q-7 28 -7 69zM727 393q-36 39 -95.5 39t-102.5 -36.5t-52 -105.5h289q-3 64 -39 103z" />
    <glyph glyph-name="ccedilla" unicode="&#xe7;" horiz-adv-x="539" 
d="M351.5 -136q-23.5 -20 -63 -20t-73.5 23q-11 7 -3 16l10 12q8 8 17 3q19 -13 44 -13q43 0 43 33q0 26 -49 26q-13 0 -17.5 4t-1.5 13l11 32q-99 5 -165 74t-66 183t70.5 181.5t172.5 67.5t154 -74h1l-1 55q0 13 13 13h38q12 0 12 -13v-170q0 -12 -12 -12h-46
q-12 0 -12 12v17q-1 36 -41 69t-101.5 33t-112.5 -49t-51 -133.5t50 -134t112 -49.5t105.5 26.5t58.5 51.5q7 12 17 3l29 -28q6 -5 6 -9.5t-3 -8.5q-14 -27 -63 -62t-122 -41l-7 -20q14 0 33 -5q37 -12 37 -49t-23.5 -57z" />
    <glyph glyph-name="egrave" unicode="&#xe8;" horiz-adv-x="538" 
d="M483 236h-360q4 -83 52.5 -128t109.5 -45t104.5 26t58.5 51q8 10 18 3l27 -27q6 -6 6 -10.5t-4.5 -11.5t-18.5 -22t-39.5 -34t-66 -32t-86.5 -13q-105 0 -175.5 69t-70.5 185.5t70 184t171.5 67.5t159.5 -65.5t58 -176.5v-8q0 -13 -14 -13zM375 396q-36 37 -96 37
t-103 -34t-51 -102h289q-3 62 -39 99zM347 575q-5 -6 -10 -6t-9 4l-168 134q-5 4 -5 9t3 10l32 37q5 6 9.5 6t9.5 -4l161 -142q6 -4 6 -9t-4 -10z" />
    <glyph glyph-name="eacute" unicode="&#xe9;" horiz-adv-x="538" 
d="M367 764q4 4 9 4t10 -5l31 -38q8 -10 -1 -19l-168 -134q-12 -7 -19 3l-25 29q-9 11 2 19zM483 236h-360q4 -83 52.5 -128t109.5 -45t104.5 26t58.5 51q8 10 18 3l27 -27q6 -6 6 -10.5t-4.5 -11.5t-18.5 -22t-39.5 -34t-66 -32t-86.5 -13q-105 0 -175.5 69t-70.5 185.5
t70 184t171.5 67.5t159.5 -65.5t58 -176.5v-8q0 -13 -14 -13zM375 396q-36 37 -96 37t-103 -34t-51 -102h289q-3 62 -39 99z" />
    <glyph glyph-name="ecircumflex" unicode="&#xea;" horiz-adv-x="538" 
d="M266 759q4 4 9.5 4t10.5 -5l155 -135q8 -10 2 -19l-25 -29q-8 -10 -19 -2l-124 105l-122 -105q-10 -9 -19 2l-25 29q-7 11 2 19zM483 236h-360q4 -83 52.5 -128t109.5 -45t104.5 26t58.5 51q8 10 18 3l27 -27q6 -6 6 -10.5t-4.5 -11.5t-18.5 -22t-39.5 -34t-66 -32
t-86.5 -13q-105 0 -175.5 69t-70.5 185.5t70 184t171.5 67.5t159.5 -65.5t58 -176.5v-8q0 -13 -14 -13zM375 396q-36 37 -96 37t-103 -34t-51 -102h289q-3 62 -39 99z" />
    <glyph glyph-name="edieresis" unicode="&#xeb;" horiz-adv-x="538" 
d="M236 598q0 -18 -12.5 -30t-30.5 -12t-30 12t-12 30t12 30.5t30 12.5t30.5 -12.5t12.5 -30.5zM394 598q0 -18 -12.5 -30t-30.5 -12t-30 12t-12 30t12 30.5t30 12.5t30.5 -12.5t12.5 -30.5zM483 236h-360q4 -83 52.5 -128t109.5 -45t104.5 26t58.5 51q8 10 18 3l27 -27
q6 -6 6 -10.5t-4.5 -11.5t-18.5 -22t-39.5 -34t-66 -32t-86.5 -13q-105 0 -175.5 69t-70.5 185.5t70 184t171.5 67.5t159.5 -65.5t58 -176.5v-8q0 -13 -14 -13zM375 396q-36 37 -96 37t-103 -34t-51 -102h289q-3 62 -39 99z" />
    <glyph glyph-name="igrave" unicode="&#xec;" horiz-adv-x="293" 
d="M242 0h-191q-13 0 -13 12v43q0 12 13 12h55v358h-55q-13 0 -13 12v43q0 12 13 12h126q12 0 12 -12v-413h53q13 0 13 -12v-43q0 -12 -13 -12zM150 570q-5 -6 -10 -6t-9 4l-168 134q-5 4 -5 9t3 10l32 37q5 6 10 6t9 -4l161 -142q6 -4 6 -9t-4 -10z" />
    <glyph glyph-name="iacute" unicode="&#xed;" horiz-adv-x="293" 
d="M242 0h-191q-13 0 -13 12v43q0 12 13 12h55v358h-55q-13 0 -13 12v43q0 12 13 12h126q12 0 12 -12v-413h53q13 0 13 -12v-43q0 -12 -13 -12zM141 572q-5 -3 -10 -3t-9 6l-25 29q-4 5 -4 10t6 9l161 141q4 4 9 4t10 -5l31 -38q4 -5 4 -9.5t-5 -9.5z" />
    <glyph glyph-name="icircumflex" unicode="&#xee;" horiz-adv-x="293" 
d="M242 0h-191q-13 0 -13 12v43q0 12 13 12h55v358h-55q-13 0 -13 12v43q0 12 13 12h126q12 0 12 -12v-413h53q13 0 13 -12v-43q0 -12 -13 -12zM285 575q-4 -6 -9 -6t-10 4l-124 105l-122 -105q-4 -4 -9 -4t-10 6l-25 29q-3 5 -3 9.5t5 9.5l155 136q4 4 9.5 4t10.5 -5
l155 -135q5 -6 5 -10.5t-3 -8.5z" />
    <glyph glyph-name="idieresis" unicode="&#xef;" horiz-adv-x="293" 
d="M242 0h-191q-13 0 -13 12v43q0 12 13 12h55v358h-55q-13 0 -13 12v43q0 12 13 12h126q12 0 12 -12v-413h53q13 0 13 -12v-43q0 -12 -13 -12zM117 598q0 -18 -12.5 -30t-30.5 -12t-30 12t-12 30t12 30.5t30 12.5t30.5 -12.5t12.5 -30.5zM275 598q0 -18 -12.5 -30
t-30.5 -12t-30 12t-12 30t12 30.5t30 12.5t30.5 -12.5t12.5 -30.5z" />
    <glyph glyph-name="eth" unicode="&#xf0;" horiz-adv-x="611" 
d="M286 645q-67 0 -101.5 -35t-34.5 -75q0 -12 -12 -12h-61q-12 0 -12 12q0 85 60 137t160 52q72 0 128 -29l48 49q5 4 9.5 4t9.5 -4l20 -21q9 -9 0 -19l-40 -40q113 -91 113 -311q0 -164 -71.5 -262t-196.5 -98t-195.5 67t-70.5 172t63.5 167.5t178.5 62.5t196 -51
q-8 137 -80 191l-48 -49q-9 -9 -18 0l-20 21q-10 9 0 19l40 40q-33 12 -65 12zM481 339q-81 55 -170 55t-135.5 -43.5t-46.5 -115.5t45.5 -116.5t128 -44.5t129.5 69t49 196z" />
    <glyph glyph-name="ntilde" unicode="&#xf1;" horiz-adv-x="621" 
d="M570 0h-95q-43 0 -43 42v263q0 58 -28 90t-82 32q-77 0 -120 -63q-5 -6 -13 -22v-275h53q13 0 13 -12v-43q0 -12 -13 -12h-191q-13 0 -13 12v43q0 12 13 12h55v358h-55q-13 0 -13 12v43q0 12 13 12h117q13 0 13 -12l-2 -68h3q52 87 161 87q80 0 125 -47t46 -127v-258h56
q13 0 13 -12v-43q0 -12 -13 -12zM429 684h24q12 0 12 -12q0 -113 -87 -113q-32 0 -56.5 15.5t-44 31.5t-39 16t-29.5 -12.5t-10 -44.5q0 -12 -12 -12h-24q-12 0 -12 12q0 108 86 108q37 0 77 -33t62.5 -33t31.5 14t9 51q0 12 12 12z" />
    <glyph glyph-name="ograve" unicode="&#xf2;" horiz-adv-x="575" 
d="M287 -7q-109 0 -179 69.5t-70 185t71 183.5t178.5 68t178 -68.5t70.5 -183t-70 -184.5t-179 -70zM170 114q48 -51 117.5 -51t117.5 51t48 133t-48.5 132t-116.5 50t-117 -50t-49 -132t48 -133zM327 575q-5 -6 -10 -6t-9 4l-168 134q-5 4 -5 9t3 10l32 37q5 6 9.5 6
t9.5 -4l161 -142q6 -4 6 -9t-4 -10z" />
    <glyph glyph-name="oacute" unicode="&#xf3;" horiz-adv-x="575" 
d="M381 764q4 4 9 4t10 -5l31 -38q8 -10 -1 -19l-168 -134q-12 -7 -19 3l-25 29q-9 11 2 19zM287 -7q-109 0 -179 69.5t-70 185t71 183.5t178.5 68t178 -68.5t70.5 -183t-70 -184.5t-179 -70zM170 114q48 -51 117.5 -51t117.5 51t48 133t-48.5 132t-116.5 50t-117 -50
t-49 -132t48 -133z" />
    <glyph glyph-name="ocircumflex" unicode="&#xf4;" horiz-adv-x="575" 
d="M283 759q4 4 9.5 4t10.5 -5l155 -135q8 -10 2 -19l-25 -29q-8 -10 -19 -2l-124 105l-122 -105q-10 -9 -19 2l-25 29q-7 11 2 19zM287 -7q-109 0 -179 69.5t-70 185t71 183.5t178.5 68t178 -68.5t70.5 -183t-70 -184.5t-179 -70zM170 114q48 -51 117.5 -51t117.5 51
t48 133t-48.5 132t-116.5 50t-117 -50t-49 -132t48 -133z" />
    <glyph glyph-name="otilde" unicode="&#xf5;" horiz-adv-x="575" 
d="M287 -7q-109 0 -179 69.5t-70 185t71 183.5t178.5 68t178 -68.5t70.5 -183t-70 -184.5t-179 -70zM170 114q48 -51 117.5 -51t117.5 51t48 133t-48.5 132t-116.5 50t-117 -50t-49 -132t48 -133zM416 684h24q12 0 12 -12q0 -113 -87 -113q-32 0 -56.5 15.5t-44 31.5t-39 16
t-29.5 -12.5t-10 -44.5q0 -12 -12 -12h-24q-12 0 -12 12q0 108 86 108q37 0 77 -33t62.5 -33t31.5 14t9 51q0 12 12 12z" />
    <glyph glyph-name="odieresis" unicode="&#xf6;" horiz-adv-x="575" 
d="M253 598q0 -18 -12.5 -30t-30.5 -12t-30 12t-12 30t12 30.5t30 12.5t30.5 -12.5t12.5 -30.5zM411 598q0 -18 -12.5 -30t-30.5 -12t-30 12t-12 30t12 30.5t30 12.5t30.5 -12.5t12.5 -30.5zM287 -7q-109 0 -179 69.5t-70 185t71 183.5t178.5 68t178 -68.5t70.5 -183
t-70 -184.5t-179 -70zM170 114q48 -51 117.5 -51t117.5 51t48 133t-48.5 132t-116.5 50t-117 -50t-49 -132t48 -133z" />
    <glyph glyph-name="divide" unicode="&#xf7;" horiz-adv-x="414" 
d="M363 221h-311q-14 0 -14 13v51q0 13 14 13h311q13 0 13 -13v-51q0 -13 -13 -13zM237 168q12 -12 12 -29.5t-12 -29.5t-29 -12t-29.5 12t-12.5 29.5t12.5 29.5t29.5 12t29 -12zM249 387q0 -17 -12 -29.5t-29 -12.5t-29.5 12.5t-12.5 29.5t12.5 29t29.5 12t29 -12t12 -29z
" />
    <glyph glyph-name="oslash" unicode="&#xf8;" horiz-adv-x="575" 
d="M177 -29h-42q-14 0 -9 12l24 47q-52 32 -82 88.5t-30 129.5q0 115 71 183t179 68q48 0 91 -17l7 15q5 13 17 13h42q14 0 9 -13l-21 -40q103 -69 103 -209q0 -115 -70 -185t-179 -70q-41 0 -82 13l-12 -23q-6 -12 -16 -12zM288 429q-68 0 -117 -50t-49 -137.5t64 -138.5
l159 313q-29 13 -57 13zM289 63q69 0 116.5 51t47.5 134t-57 135l-157 -310q21 -10 50 -10z" />
    <glyph glyph-name="ugrave" unicode="&#xf9;" horiz-adv-x="608" 
d="M557 0h-87q-43 0 -43 42v37h-3q-41 -86 -156 -86q-80 0 -126.5 47.5t-47.5 126.5v258h-57q-12 0 -12 12v43q0 12 12 12h96q43 0 43 -42v-263q0 -58 28 -90t82 -32q73 0 115 54q18 23 18 31v275h-54q-12 0 -12 12v43q0 12 12 12h124q12 0 12 -12v-413h56q13 0 13 -12v-43
q0 -12 -13 -12zM331 575q-5 -6 -10 -6t-9 4l-168 134q-5 4 -5 9t3 10l32 37q5 6 9.5 6t9.5 -4l161 -142q6 -4 6 -9t-4 -10z" />
    <glyph glyph-name="uacute" unicode="&#xfa;" horiz-adv-x="608" 
d="M347 764q4 4 9 4t10 -5l31 -38q8 -10 -1 -19l-168 -134q-12 -7 -19 3l-25 29q-9 11 2 19zM557 0h-87q-43 0 -43 42v37h-3q-41 -86 -156 -86q-80 0 -126.5 47.5t-47.5 126.5v258h-57q-12 0 -12 12v43q0 12 12 12h96q43 0 43 -42v-263q0 -58 28 -90t82 -32q73 0 115 54
q18 23 18 31v275h-54q-12 0 -12 12v43q0 12 12 12h124q12 0 12 -12v-413h56q13 0 13 -12v-43q0 -12 -13 -12z" />
    <glyph glyph-name="ucircumflex" unicode="&#xfb;" horiz-adv-x="608" 
d="M275 759q4 4 9.5 4t10.5 -5l155 -135q8 -10 2 -19l-25 -29q-8 -10 -19 -2l-124 105l-122 -105q-10 -9 -19 2l-25 29q-7 11 2 19zM557 0h-87q-43 0 -43 42v37h-3q-41 -86 -156 -86q-80 0 -126.5 47.5t-47.5 126.5v258h-57q-12 0 -12 12v43q0 12 12 12h96q43 0 43 -42v-263
q0 -58 28 -90t82 -32q73 0 115 54q18 23 18 31v275h-54q-12 0 -12 12v43q0 12 12 12h124q12 0 12 -12v-413h56q13 0 13 -12v-43q0 -12 -13 -12z" />
    <glyph glyph-name="udieresis" unicode="&#xfc;" horiz-adv-x="608" 
d="M250 598q0 -18 -12.5 -30t-30.5 -12t-30 12t-12 30t12 30.5t30 12.5t30.5 -12.5t12.5 -30.5zM408 598q0 -18 -12.5 -30t-30.5 -12t-30 12t-12 30t12 30.5t30 12.5t30.5 -12.5t12.5 -30.5zM557 0h-87q-43 0 -43 42v37h-3q-41 -86 -156 -86q-80 0 -126.5 47.5t-47.5 126.5
v258h-57q-12 0 -12 12v43q0 12 12 12h96q43 0 43 -42v-263q0 -58 28 -90t82 -32q73 0 115 54q18 23 18 31v275h-54q-12 0 -12 12v43q0 12 12 12h124q12 0 12 -12v-413h56q13 0 13 -12v-43q0 -12 -13 -12z" />
    <glyph glyph-name="yacute" unicode="&#xfd;" horiz-adv-x="590" 
d="M261 11q-16 0 -26 25l-153 389h-55q-12 0 -12 12v43q0 12 12 12h181q13 0 13 -12v-43q0 -12 -13 -12h-41l129 -339h2l120 339h-45q-12 0 -12 12v43q0 12 12 12h186q12 0 12 -12v-43q0 -12 -12 -12h-56l-178 -489q-33 -89 -68.5 -129.5t-97 -40.5t-105.5 39q-10 10 -3 18
l25 32q9 7 18 1q24 -19 57 -19t54.5 22.5t41.5 77.5l27 74h-13zM259 572q-5 -3 -10 -3t-9 6l-25 29q-4 5 -4 10t6 9l161 141q4 4 9 4t10 -5l31 -38q4 -5 4 -9.5t-5 -9.5z" />
    <glyph glyph-name="thorn" unicode="&#xfe;" 
d="M252 -226h-201q-13 0 -13 13v42q0 13 13 13h56v808h-54q-13 0 -13 12v43q0 12 13 12h124q13 0 13 -12v-298q47 92 153.5 92t168.5 -68.5t62 -182t-61 -184.5t-163 -71q-62 0 -103.5 28.5t-59.5 69.5h-2q2 -22 2 -36v-213h65q13 0 13 -13v-42q0 -13 -13 -13zM228.5 113
q43.5 -50 110 -50t110 50.5t43.5 133t-43.5 132.5t-110 50t-110 -49t-43.5 -133t43.5 -134z" />
    <glyph glyph-name="ydieresis" unicode="&#xff;" horiz-adv-x="590" 
d="M261 11q-16 0 -26 25l-153 389h-55q-12 0 -12 12v43q0 12 12 12h181q13 0 13 -12v-43q0 -12 -13 -12h-41l129 -339h2l120 339h-45q-12 0 -12 12v43q0 12 12 12h186q12 0 12 -12v-43q0 -12 -12 -12h-56l-178 -489q-33 -89 -68.5 -129.5t-97 -40.5t-105.5 39q-10 10 -3 18
l25 32q9 7 18 1q24 -19 57 -19t54.5 22.5t41.5 77.5l27 74h-13zM265 598q0 -18 -12.5 -30t-30.5 -12t-30 12t-12 30t12 30.5t30 12.5t30.5 -12.5t12.5 -30.5zM423 598q0 -18 -12.5 -30t-30.5 -12t-30 12t-12 30t12 30.5t30 12.5t30.5 -12.5t12.5 -30.5z" />
    <glyph glyph-name="Amacron" unicode="&#x100;" horiz-adv-x="841" 
d="M768 0h-226q-12 0 -12 12v51q0 12 12 12h70l-65 173h-279l-65 -173h70q12 0 12 -12v-51q0 -12 -12 -12h-225q-12 0 -12 12v51q0 12 12 12h67l215 568h-54q-13 0 -13 12v51q0 12 13 12h136q24 0 36.5 -10t21.5 -33l230 -600h68q12 0 12 -12v-51q0 -12 -12 -12zM520 317
l-111 297h-3l-112 -297h226zM550 780h-296q-13 0 -13 13v42q0 14 13 14h296q13 0 13 -14v-42q0 -13 -13 -13z" />
    <glyph glyph-name="amacron" unicode="&#x101;" horiz-adv-x="580" 
d="M529 0h-87q-43 0 -43 42v51h-2q-73 -101 -195 -101q-72 0 -118 37.5t-46 101.5q0 82 71.5 120.5t196.5 38.5h84v12q0 125 -130 125q-61 0 -88 -11.5t-38.5 -18.5t-17.5 -11q-15 -12 -22 -2l-28 35q-7 8 2 16q17 22 70 43t125 21q210 0 210 -200v-232h56q12 0 12 -12v-43
q0 -12 -12 -12zM390 230h-79q-58 0 -96 -6t-64.5 -26t-26.5 -55t28.5 -57.5t74.5 -22.5q97 0 163 86v81zM423 554h-296q-13 0 -13 13v42q0 14 13 14h296q13 0 13 -14v-42q0 -13 -13 -13z" />
    <glyph glyph-name="Abreve" unicode="&#x102;" horiz-adv-x="841" 
d="M768 0h-226q-12 0 -12 12v51q0 12 12 12h70l-65 173h-279l-65 -173h70q12 0 12 -12v-51q0 -12 -12 -12h-225q-12 0 -12 12v51q0 12 12 12h67l215 568h-54q-13 0 -13 12v51q0 12 13 12h136q24 0 36.5 -10t21.5 -33l230 -600h68q12 0 12 -12v-51q0 -12 -12 -12zM520 317
l-111 297h-3l-112 -297h226zM498 941h32q13 0 13 -13q0 -67 -39 -103t-101.5 -36t-101 36t-38.5 103q0 13 13 13h32q13 0 13 -13q0 -41 23 -64.5t58 -23.5t59 23.5t24 64.5q0 13 13 13z" />
    <glyph glyph-name="abreve" unicode="&#x103;" horiz-adv-x="580" 
d="M529 0h-87q-43 0 -43 42v51h-2q-73 -101 -195 -101q-72 0 -118 37.5t-46 101.5q0 82 71.5 120.5t196.5 38.5h84v12q0 125 -130 125q-61 0 -88 -11.5t-38.5 -18.5t-17.5 -11q-15 -12 -22 -2l-28 35q-7 8 2 16q17 22 70 43t125 21q210 0 210 -200v-232h56q12 0 12 -12v-43
q0 -12 -12 -12zM390 230h-79q-58 0 -96 -6t-64.5 -26t-26.5 -55t28.5 -57.5t74.5 -22.5q97 0 163 86v81zM377 715h32q13 0 13 -13q0 -67 -39 -103t-101.5 -36t-101 36t-38.5 103q0 13 13 13h32q13 0 13 -13q0 -41 23 -64.5t58 -23.5t59 23.5t24 64.5q0 13 13 13z" />
    <glyph glyph-name="Aogonek" unicode="&#x104;" horiz-adv-x="852" 
d="M753 0q-70 -35 -70 -82q0 -16 10.5 -25t29.5 -9t34.5 8.5t20.5 0.5l9 -13q3 -4 3 -8.5t-7 -8.5q-34 -24 -71.5 -24t-59 20.5t-21.5 53t21.5 55t47.5 32.5h-158q-12 0 -12 12v51q0 12 12 12h70l-65 173h-279l-65 -173h70q12 0 12 -12v-51q0 -12 -12 -12h-225q-12 0 -12 12
v51q0 12 12 12h67l215 568h-54q-13 0 -13 12v51q0 12 13 12h136q24 0 36.5 -10t21.5 -33l230 -600h68q12 0 12 -12v-51q0 -12 -12 -12h-15zM520 317l-111 297h-3l-112 -297h226z" />
    <glyph glyph-name="aogonek" unicode="&#x105;" horiz-adv-x="580" 
d="M517 0q-70 -35 -70 -82q0 -16 10.5 -25t29.5 -9t34.5 8.5t20.5 0.5l9 -13q3 -4 3 -8.5t-7 -8.5q-34 -24 -71.5 -24t-59 20.5t-21.5 53t21.5 55t47.5 32.5h-22q-43 0 -43 42v51h-2q-73 -101 -195 -101q-72 0 -118 37.5t-46 101.5q0 82 71.5 120.5t196.5 38.5h84v12
q0 125 -130 125q-61 0 -88 -11.5t-38.5 -18.5t-17.5 -11q-15 -12 -22 -2l-28 35q-7 8 2 16q17 22 70 43t125 21q210 0 210 -200v-232h56q12 0 12 -12v-43q0 -12 -12 -12h-12zM390 230h-79q-58 0 -96 -6t-64.5 -26t-26.5 -55t28.5 -57.5t74.5 -22.5q97 0 163 86v81z" />
    <glyph glyph-name="Cacute" unicode="&#x106;" horiz-adv-x="752" 
d="M456 990q4 4 9 4t10 -5l31 -38q8 -10 -1 -19l-168 -134q-12 -7 -19 3l-25 29q-9 11 2 19zM697 181q5 -4 5 -9.5t-4.5 -15t-15 -25t-37.5 -42.5t-59 -46.5t-84.5 -34.5t-112.5 -15q-146 0 -243.5 102t-97.5 267.5t98.5 263.5t237.5 98q155 0 225 -107l-1 89q-2 12 12 12
h56q13 0 13 -12v-218q0 -13 -13 -13h-63q-12 0 -12 13v9q0 46 -62.5 95.5t-155.5 49.5t-167.5 -73.5t-74.5 -208t75 -209t176 -74.5q109 0 172 49q49 38 72 77q8 15 19 6z" />
    <glyph glyph-name="cacute" unicode="&#x107;" horiz-adv-x="539" 
d="M396 764q4 4 9 4t10 -5l31 -38q8 -10 -1 -19l-168 -134q-12 -7 -19 3l-25 29q-9 11 2 19zM494 116q6 -5 6 -9.5t-4.5 -12t-19 -22.5t-40 -34t-66 -32t-86.5 -13q-105 0 -175.5 69t-70.5 185.5t70.5 184t172.5 67.5t154 -74h1l-1 55q0 13 13 13h38q12 0 12 -13v-170
q0 -12 -12 -12h-46q-12 0 -12 12v17q-1 36 -41 69t-101.5 33t-112.5 -49t-51 -133.5t50 -134t112 -49.5t105.5 26.5t58.5 51.5q7 12 17 3z" />
    <glyph glyph-name="Ccircumflex" unicode="&#x108;" horiz-adv-x="752" 
d="M372 985q4 4 9.5 4t10.5 -5l155 -135q8 -10 2 -19l-25 -29q-8 -10 -19 -2l-124 105l-122 -105q-10 -9 -19 2l-25 29q-7 11 2 19zM697 181q5 -4 5 -9.5t-4.5 -15t-15 -25t-37.5 -42.5t-59 -46.5t-84.5 -34.5t-112.5 -15q-146 0 -243.5 102t-97.5 267.5t98.5 263.5
t237.5 98q155 0 225 -107l-1 89q-2 12 12 12h56q13 0 13 -12v-218q0 -13 -13 -13h-63q-12 0 -12 13v9q0 46 -62.5 95.5t-155.5 49.5t-167.5 -73.5t-74.5 -208t75 -209t176 -74.5q109 0 172 49q49 38 72 77q8 15 19 6z" />
    <glyph glyph-name="ccircumflex" unicode="&#x109;" horiz-adv-x="539" 
d="M272 759q4 4 9.5 4t10.5 -5l155 -135q8 -10 2 -19l-25 -29q-8 -10 -19 -2l-124 105l-122 -105q-10 -9 -19 2l-25 29q-7 11 2 19zM494 116q6 -5 6 -9.5t-4.5 -12t-19 -22.5t-40 -34t-66 -32t-86.5 -13q-105 0 -175.5 69t-70.5 185.5t70.5 184t172.5 67.5t154 -74h1l-1 55
q0 13 13 13h38q12 0 12 -13v-170q0 -12 -12 -12h-46q-12 0 -12 12v17q-1 36 -41 69t-101.5 33t-112.5 -49t-51 -133.5t50 -134t112 -49.5t105.5 26.5t58.5 51.5q7 12 17 3z" />
    <glyph glyph-name="Cdotaccent" unicode="&#x10a;" horiz-adv-x="752" 
d="M697 181q5 -4 5 -9.5t-4.5 -15t-15 -25t-37.5 -42.5t-59 -46.5t-84.5 -34.5t-112.5 -15q-146 0 -243.5 102t-97.5 267.5t98.5 263.5t237.5 98q155 0 225 -107l-1 89q-2 12 12 12h56q13 0 13 -12v-218q0 -13 -13 -13h-63q-12 0 -12 13v9q0 46 -62.5 95.5t-155.5 49.5
t-167.5 -73.5t-74.5 -208t75 -209t176 -74.5q109 0 172 49q49 38 72 77q8 15 19 6zM450 844q0 -22 -15 -37t-37 -15t-37 15t-15 37t15 37.5t37 15.5t37 -15.5t15 -37.5z" />
    <glyph glyph-name="cdotaccent" unicode="&#x10b;" horiz-adv-x="539" 
d="M494 116q6 -5 6 -9.5t-4.5 -12t-19 -22.5t-40 -34t-66 -32t-86.5 -13q-105 0 -175.5 69t-70.5 185.5t70.5 184t172.5 67.5t154 -74h1l-1 55q0 13 13 13h38q12 0 12 -13v-170q0 -12 -12 -12h-46q-12 0 -12 12v17q-1 36 -41 69t-101.5 33t-112.5 -49t-51 -133.5t50 -134
t112 -49.5t105.5 26.5t58.5 51.5q7 12 17 3zM334 618q0 -22 -15 -37t-37 -15t-37 15t-15 37t15 37.5t37 15.5t37 -15.5t15 -37.5z" />
    <glyph glyph-name="Ccaron" unicode="&#x10c;" horiz-adv-x="752" 
d="M393 804q-5 -5 -10.5 -5t-9.5 4l-155 136q-9 8 -2 19l25 28q4 6 9 6t10 -4l122 -105l124 105q5 4 10 4t9 -6l25 -28q6 -9 -2 -19zM697 181q5 -4 5 -9.5t-4.5 -15t-15 -25t-37.5 -42.5t-59 -46.5t-84.5 -34.5t-112.5 -15q-146 0 -243.5 102t-97.5 267.5t98.5 263.5
t237.5 98q155 0 225 -107l-1 89q-2 12 12 12h56q13 0 13 -12v-218q0 -13 -13 -13h-63q-12 0 -12 13v9q0 46 -62.5 95.5t-155.5 49.5t-167.5 -73.5t-74.5 -208t75 -209t176 -74.5q109 0 172 49q49 38 72 77q8 15 19 6z" />
    <glyph glyph-name="ccaron" unicode="&#x10d;" horiz-adv-x="539" 
d="M301 578q-5 -5 -10.5 -5t-9.5 4l-155 136q-9 8 -2 19l25 28q4 6 9 6t10 -4l122 -105l124 105q5 4 10 4t9 -6l25 -28q6 -9 -2 -19zM494 116q6 -5 6 -9.5t-4.5 -12t-19 -22.5t-40 -34t-66 -32t-86.5 -13q-105 0 -175.5 69t-70.5 185.5t70.5 184t172.5 67.5t154 -74h1l-1 55
q0 13 13 13h38q12 0 12 -13v-170q0 -12 -12 -12h-46q-12 0 -12 12v17q-1 36 -41 69t-101.5 33t-112.5 -49t-51 -133.5t50 -134t112 -49.5t105.5 26.5t58.5 51.5q7 12 17 3z" />
    <glyph glyph-name="Dcaron" unicode="&#x10e;" horiz-adv-x="740" 
d="M366 804q-5 -5 -10.5 -5t-9.5 4l-155 136q-9 8 -2 19l25 28q4 6 9 6t10 -4l122 -105l124 105q5 4 10 4t9 -6l25 -28q6 -9 -2 -19zM342 0h-287q-12 0 -12 12v51q0 12 12 12h77v568h-77q-12 0 -12 12v51q0 12 12 12h270q166 0 264 -95.5t98 -262.5t-93 -263.5t-252 -96.5z
M219 75h99q278 2 278 283q0 135 -71.5 210t-209.5 75h-96v-568z" />
    <glyph glyph-name="dcaron" unicode="&#x10f;" horiz-adv-x="640" 
d="M556 567v17q0 6 11 6t23.5 13.5t12.5 39.5l-2 12q-5 -5 -21 -5t-28.5 13t-12.5 33t13.5 33.5t36.5 13.5t38 -19t15 -64.5t-22.5 -72t-57.5 -26.5q-6 0 -6 6zM562 0h-87q-23 0 -33.5 9.5t-10.5 32.5v56h-1q-16 -42 -60 -73.5t-107 -31.5q-100 0 -162.5 70t-62.5 183.5
t62.5 183t163.5 69.5q62 0 103 -28.5t59 -69.5h1q-1 20 -1 33v217h-56q-13 0 -13 12v43q0 12 13 12h124q12 0 12 -12v-639h56q12 0 12 -12v-43q0 -12 -12 -12zM163.5 114q43.5 -51 110.5 -51t110 50.5t43 134.5t-44 132.5t-109 48.5t-109.5 -49t-44.5 -132t43.5 -134z" />
    <glyph glyph-name="Dcroat" unicode="&#x110;" horiz-adv-x="741" 
d="M348 0h-287q-13 0 -13 12v51q0 12 13 12h76v249h-68q-14 0 -14 13v42q0 14 14 14h68v250h-76q-13 0 -13 12v51q0 12 13 12h269q166 0 264 -95.5t98 -262.5t-92.5 -263.5t-251.5 -96.5zM224 75h100q136 1 207 72t71 208.5t-71.5 212.5t-209.5 75h-97v-250h153q13 0 13 -14
v-42q0 -13 -13 -13h-153v-249z" />
    <glyph glyph-name="dcroat" unicode="&#x111;" horiz-adv-x="597" 
d="M562 0h-87q-23 0 -33.5 9.5t-10.5 32.5v56h-1q-16 -42 -60 -73.5t-107 -31.5q-100 0 -162.5 70t-62.5 183.5t62.5 183t163.5 69.5q62 0 103 -28.5t59 -69.5h1q-1 20 -1 33v121h-128q-11 0 -11 11v16q0 11 11 11h128v58h-56q-13 0 -13 12v43q0 12 13 12h124q12 0 12 -12
v-113h56q11 0 11 -11v-16q0 -11 -11 -11h-56v-488h56q12 0 12 -12v-43q0 -12 -12 -12zM163.5 114q43.5 -51 110.5 -51t110 50.5t43 134.5t-44 132.5t-109 48.5t-109.5 -49t-44.5 -132t43.5 -134z" />
    <glyph glyph-name="Emacron" unicode="&#x112;" horiz-adv-x="653" 
d="M592 0h-531q-13 0 -13 12v51q0 12 13 12h76v568h-76q-13 0 -13 12v51q0 12 13 12h531q13 0 13 -12v-161q0 -13 -13 -13h-54q-12 0 -12 13v98h-302v-248h253q13 0 13 -12v-51q0 -12 -13 -12h-253v-245h301v98q0 12 13 12h54q13 0 13 -12v-161q0 -12 -13 -12zM466 780h-296
q-13 0 -13 13v42q0 14 13 14h296q13 0 13 -14v-42q0 -13 -13 -13z" />
    <glyph glyph-name="emacron" unicode="&#x113;" horiz-adv-x="538" 
d="M483 236h-360q4 -83 52.5 -128t109.5 -45t104.5 26t58.5 51q8 10 18 3l27 -27q6 -6 6 -10.5t-4.5 -11.5t-18.5 -22t-39.5 -34t-66 -32t-86.5 -13q-105 0 -175.5 69t-70.5 185.5t70 184t171.5 67.5t159.5 -65.5t58 -176.5v-8q0 -13 -14 -13zM375 396q-36 37 -96 37
t-103 -34t-51 -102h289q-3 62 -39 99zM417 554h-296q-13 0 -13 13v42q0 14 13 14h296q13 0 13 -14v-42q0 -13 -13 -13z" />
    <glyph glyph-name="Ebreve" unicode="&#x114;" horiz-adv-x="653" 
d="M592 0h-531q-13 0 -13 12v51q0 12 13 12h76v568h-76q-13 0 -13 12v51q0 12 13 12h531q13 0 13 -12v-161q0 -13 -13 -13h-54q-12 0 -12 13v98h-302v-248h253q13 0 13 -12v-51q0 -12 -13 -12h-253v-245h301v98q0 12 13 12h54q13 0 13 -12v-161q0 -12 -13 -12zM412 941h32
q13 0 13 -13q0 -67 -39 -103t-101.5 -36t-101 36t-38.5 103q0 13 13 13h32q13 0 13 -13q0 -41 23 -64.5t58 -23.5t59 23.5t24 64.5q0 13 13 13z" />
    <glyph glyph-name="ebreve" unicode="&#x115;" horiz-adv-x="538" 
d="M483 236h-360q4 -83 52.5 -128t109.5 -45t104.5 26t58.5 51q8 10 18 3l27 -27q6 -6 6 -10.5t-4.5 -11.5t-18.5 -22t-39.5 -34t-66 -32t-86.5 -13q-105 0 -175.5 69t-70.5 185.5t70 184t171.5 67.5t159.5 -65.5t58 -176.5v-8q0 -13 -14 -13zM375 396q-36 37 -96 37
t-103 -34t-51 -102h289q-3 62 -39 99zM381 715h32q13 0 13 -13q0 -67 -39 -103t-101.5 -36t-101 36t-38.5 103q0 13 13 13h32q13 0 13 -13q0 -41 23 -64.5t58 -23.5t59 23.5t24 64.5q0 13 13 13z" />
    <glyph glyph-name="Edotaccent" unicode="&#x116;" horiz-adv-x="653" 
d="M592 0h-531q-13 0 -13 12v51q0 12 13 12h76v568h-76q-13 0 -13 12v51q0 12 13 12h531q13 0 13 -12v-161q0 -13 -13 -13h-54q-12 0 -12 13v98h-302v-248h253q13 0 13 -12v-51q0 -12 -13 -12h-253v-245h301v98q0 12 13 12h54q13 0 13 -12v-161q0 -12 -13 -12zM376 844
q0 -22 -15 -37t-37 -15t-37 15t-15 37t15 37.5t37 15.5t37 -15.5t15 -37.5z" />
    <glyph glyph-name="edotaccent" unicode="&#x117;" horiz-adv-x="538" 
d="M483 236h-360q4 -83 52.5 -128t109.5 -45t104.5 26t58.5 51q8 10 18 3l27 -27q6 -6 6 -10.5t-4.5 -11.5t-18.5 -22t-39.5 -34t-66 -32t-86.5 -13q-105 0 -175.5 69t-70.5 185.5t70 184t171.5 67.5t159.5 -65.5t58 -176.5v-8q0 -13 -14 -13zM375 396q-36 37 -96 37
t-103 -34t-51 -102h289q-3 62 -39 99zM327 618q0 -22 -15 -37t-37 -15t-37 15t-15 37t15 37.5t37 15.5t37 -15.5t15 -37.5z" />
    <glyph glyph-name="Eogonek" unicode="&#x118;" horiz-adv-x="659" 
d="M539 0q-70 -35 -70 -82q0 -16 10.5 -25t29.5 -9t34.5 8.5t20.5 0.5l9 -13q8 -11 -4 -17q-34 -24 -71.5 -24t-59 20.5t-21.5 53t21.5 55t47.5 32.5h-425q-13 0 -13 12v51q0 12 13 12h76v568h-76q-13 0 -13 12v51q0 12 13 12h531q13 0 13 -12v-161q0 -13 -13 -13h-54
q-12 0 -12 13v98h-302v-248h253q13 0 13 -12v-51q0 -12 -13 -12h-253v-245h301v98q0 12 13 12h54q13 0 13 -12v-161q0 -12 -13 -12h-53z" />
    <glyph glyph-name="eogonek" unicode="&#x119;" horiz-adv-x="538" 
d="M483 236h-360q4 -83 52.5 -128t109.5 -45t104.5 26t58.5 51q8 10 18 3l27 -27q6 -6 6 -10q0 -18 -43 -53.5t-97 -49.5q-78 -39 -78 -86q0 -16 10.5 -25t29.5 -9t34.5 8.5t20.5 0.5l9 -13q8 -11 -4 -17q-34 -24 -71.5 -24t-59 20.5t-21.5 52.5q0 54 56 82h-1
q-105 0 -175.5 69t-70.5 185.5t70 184t171.5 67.5t159.5 -65.5t58 -176.5v-8q0 -13 -14 -13zM375 396q-36 37 -96 37t-103 -34t-51 -102h289q-3 62 -39 99z" />
    <glyph glyph-name="Ecaron" unicode="&#x11a;" horiz-adv-x="653" 
d="M333 804q-5 -5 -10.5 -5t-9.5 4l-155 136q-9 8 -2 19l25 28q4 6 9 6t10 -4l122 -105l124 105q5 4 10 4t9 -6l25 -28q6 -9 -2 -19zM592 0h-531q-13 0 -13 12v51q0 12 13 12h76v568h-76q-13 0 -13 12v51q0 12 13 12h531q13 0 13 -12v-161q0 -13 -13 -13h-54q-12 0 -12 13
v98h-302v-248h253q13 0 13 -12v-51q0 -12 -13 -12h-253v-245h301v98q0 12 13 12h54q13 0 13 -12v-161q0 -12 -13 -12z" />
    <glyph glyph-name="ecaron" unicode="&#x11b;" horiz-adv-x="538" 
d="M284 578q-5 -5 -10.5 -5t-9.5 4l-155 136q-9 8 -2 19l25 28q4 6 9 6t10 -4l122 -105l124 105q5 4 10 4t9 -6l25 -28q6 -9 -2 -19zM483 236h-360q4 -83 52.5 -128t109.5 -45t104.5 26t58.5 51q8 10 18 3l27 -27q6 -6 6 -10.5t-4.5 -11.5t-18.5 -22t-39.5 -34t-66 -32
t-86.5 -13q-105 0 -175.5 69t-70.5 185.5t70 184t171.5 67.5t159.5 -65.5t58 -176.5v-8q0 -13 -14 -13zM375 396q-36 37 -96 37t-103 -34t-51 -102h289q-3 62 -39 99z" />
    <glyph glyph-name="Gcircumflex" unicode="&#x11c;" horiz-adv-x="750" 
d="M381 985q4 4 9.5 4t10.5 -5l155 -135q8 -10 2 -19l-25 -29q-8 -10 -19 -2l-124 105l-122 -105q-10 -9 -19 2l-25 29q-7 11 2 19zM690 0h-53q-13 0 -13 12l1 69q-88 -88 -234.5 -88t-244.5 102t-98 268q0 111 49.5 195t126 125t165.5 41q153 0 220 -95l-1 77q-2 12 12 12
h56q13 0 13 -12v-206q0 -12 -13 -12h-63q-12 0 -12 12v12q0 44 -60.5 87t-154.5 43t-169.5 -77.5t-75.5 -207t76 -205t170 -75.5t148.5 30t81.5 71v78h-186q-12 0 -12 13v46q0 12 12 12h259q12 0 12 -12v-303q0 -12 -12 -12z" />
    <glyph glyph-name="gcircumflex" unicode="&#x11d;" horiz-adv-x="611" 
d="M287 759q4 4 9.5 4t10.5 -5l155 -135q8 -10 2 -19l-25 -29q-8 -10 -19 -2l-124 105l-122 -105q-10 -9 -19 2l-25 29q-7 11 2 19zM268 -234q-50 0 -75.5 7t-41 12.5t-26.5 11t-21 11.5q-44 29 -33 42l26 37q6 9 17 1q1 0 6.5 -4.5t11 -8.5t15 -9.5t21.5 -10t26 -8.5
q33 -9 73 -9q72 0 115.5 34.5t43.5 108.5v114q-18 -42 -59.5 -72t-103.5 -30q-102 0 -163.5 71t-61.5 184t62.5 182t162.5 69q62 0 104.5 -28.5t61.5 -69.5h2l-1 79q0 12 12 12h118q12 0 12 -12v-43q0 -12 -12 -12h-54v-444q0 -107 -65.5 -161t-172.5 -54zM164 113.5
q44 -50.5 110 -50.5t109.5 50t43.5 134t-43.5 133t-109.5 49t-110 -50t-44 -132.5t44 -133z" />
    <glyph glyph-name="Gbreve" unicode="&#x11e;" horiz-adv-x="750" 
d="M690 0h-53q-13 0 -13 12l1 69q-88 -88 -234.5 -88t-244.5 102t-98 268q0 111 49.5 195t126 125t165.5 41q153 0 220 -95l-1 77q-2 12 12 12h56q13 0 13 -12v-206q0 -12 -13 -12h-63q-12 0 -12 12v12q0 44 -60.5 87t-154.5 43t-169.5 -77.5t-75.5 -207t76 -205t170 -75.5
t148.5 30t81.5 71v78h-186q-12 0 -12 13v46q0 12 12 12h259q12 0 12 -12v-303q0 -12 -12 -12zM493 941h32q13 0 13 -13q0 -67 -39 -103t-101.5 -36t-101 36t-38.5 103q0 13 13 13h32q13 0 13 -13q0 -41 23 -64.5t58 -23.5t59 23.5t24 64.5q0 13 13 13z" />
    <glyph glyph-name="gbreve" unicode="&#x11f;" horiz-adv-x="611" 
d="M268 -234q-50 0 -75.5 7t-41 12.5t-26.5 11t-21 11.5q-44 29 -33 42l26 37q6 9 17 1q1 0 6.5 -4.5t11 -8.5t15 -9.5t21.5 -10t26 -8.5q33 -9 73 -9q72 0 115.5 34.5t43.5 108.5v114q-18 -42 -59.5 -72t-103.5 -30q-102 0 -163.5 71t-61.5 184t62.5 182t162.5 69
q62 0 104.5 -28.5t61.5 -69.5h2l-1 79q0 12 12 12h118q12 0 12 -12v-43q0 -12 -12 -12h-54v-444q0 -107 -65.5 -161t-172.5 -54zM164 113.5q44 -50.5 110 -50.5t109.5 50t43.5 134t-43.5 133t-109.5 49t-110 -50t-44 -132.5t44 -133zM393 715h32q13 0 13 -13q0 -67 -39 -103
t-101.5 -36t-101 36t-38.5 103q0 13 13 13h32q13 0 13 -13q0 -41 23 -64.5t58 -23.5t59 23.5t24 64.5q0 13 13 13z" />
    <glyph glyph-name="Gdotaccent" unicode="&#x120;" horiz-adv-x="750" 
d="M690 0h-53q-13 0 -13 12l1 69q-88 -88 -234.5 -88t-244.5 102t-98 268q0 111 49.5 195t126 125t165.5 41q153 0 220 -95l-1 77q-2 12 12 12h56q13 0 13 -12v-206q0 -12 -13 -12h-63q-12 0 -12 12v12q0 44 -60.5 87t-154.5 43t-169.5 -77.5t-75.5 -207t76 -205t170 -75.5
t148.5 30t81.5 71v78h-186q-12 0 -12 13v46q0 12 12 12h259q12 0 12 -12v-303q0 -12 -12 -12zM442 844q0 -22 -15 -37t-37 -15t-37 15t-15 37t15 37.5t37 15.5t37 -15.5t15 -37.5z" />
    <glyph glyph-name="gdotaccent" unicode="&#x121;" horiz-adv-x="611" 
d="M268 -234q-50 0 -75.5 7t-41 12.5t-26.5 11t-21 11.5q-44 29 -33 42l26 37q6 9 17 1q1 0 6.5 -4.5t11 -8.5t15 -9.5t21.5 -10t26 -8.5q33 -9 73 -9q72 0 115.5 34.5t43.5 108.5v114q-18 -42 -59.5 -72t-103.5 -30q-102 0 -163.5 71t-61.5 184t62.5 182t162.5 69
q62 0 104.5 -28.5t61.5 -69.5h2l-1 79q0 12 12 12h118q12 0 12 -12v-43q0 -12 -12 -12h-54v-444q0 -107 -65.5 -161t-172.5 -54zM164 113.5q44 -50.5 110 -50.5t109.5 50t43.5 134t-43.5 133t-109.5 49t-110 -50t-44 -132.5t44 -133zM353 618q0 -22 -15 -37t-37 -15t-37 15
t-15 37t15 37.5t37 15.5t37 -15.5t15 -37.5z" />
    <glyph glyph-name="Gcommaaccent" unicode="&#x122;" horiz-adv-x="750" 
d="M359 -222v17q0 6 11.5 6t24 13.5t12.5 39.5l-2 11q-5 -5 -21 -5t-28.5 13t-12.5 33t13.5 34t36.5 14t37.5 -19.5t14.5 -64.5t-22 -71.5t-57 -26.5q-7 0 -7 6zM690 0h-53q-13 0 -13 12l1 69q-88 -88 -234.5 -88t-244.5 102t-98 268q0 111 49.5 195t126 125t165.5 41
q153 0 220 -95l-1 77q-2 12 12 12h56q13 0 13 -12v-206q0 -12 -13 -12h-63q-12 0 -12 12v12q0 44 -60.5 87t-154.5 43t-169.5 -77.5t-75.5 -207t76 -205t170 -75.5t148.5 30t81.5 71v78h-186q-12 0 -12 13v46q0 12 12 12h259q12 0 12 -12v-303q0 -12 -12 -12z" />
    <glyph glyph-name="gcommaaccent" unicode="&#x123;" horiz-adv-x="611" 
d="M268 -234q-50 0 -75.5 7t-41 12.5t-26.5 11t-21 11.5q-44 29 -33 42l26 37q6 9 17 1q1 0 6.5 -4.5t11 -8.5t15 -9.5t21.5 -10t26 -8.5q33 -9 73 -9q72 0 115.5 34.5t43.5 108.5v114q-18 -42 -59.5 -72t-103.5 -30q-102 0 -163.5 71t-61.5 184t62.5 182t162.5 69
q62 0 104.5 -28.5t61.5 -69.5h2l-1 79q0 12 12 12h118q12 0 12 -12v-43q0 -12 -12 -12h-54v-444q0 -107 -65.5 -161t-172.5 -54zM164 113.5q44 -50.5 110 -50.5t109.5 50t43.5 134t-43.5 133t-109.5 49t-110 -50t-44 -132.5t44 -133zM321 709v-17q0 -6 -11.5 -6t-24 -13.5
t-12.5 -39.5l2 -12q6 5 21.5 5t28.5 -13t13 -33t-14 -33.5t-37 -13.5t-37.5 19t-14.5 64.5t22.5 72t56.5 26.5q7 0 7 -6z" />
    <glyph glyph-name="Hcircumflex" unicode="&#x124;" horiz-adv-x="820" 
d="M408 985q4 4 9.5 4t10.5 -5l155 -135q8 -10 2 -19l-25 -29q-8 -10 -19 -2l-124 105l-122 -105q-10 -9 -19 2l-25 29q-7 11 2 19zM760 0h-241q-12 0 -12 12v51q0 12 12 12h77v245h-372v-245h77q13 0 13 -12v-51q0 -12 -13 -12h-240q-13 0 -13 12v51q0 12 13 12h76v568h-76
q-13 0 -13 12v51q0 12 13 12h240q13 0 13 -12v-51q0 -12 -13 -12h-77v-250h372v250h-77q-12 0 -12 12v51q0 12 12 12h241q12 0 12 -12v-51q0 -12 -12 -12h-77v-568h77q12 0 12 -12v-51q0 -12 -12 -12z" />
    <glyph glyph-name="hcircumflex" unicode="&#x125;" horiz-adv-x="621" 
d="M295 950q4 4 9.5 4t10.5 -5l155 -135q8 -10 2 -19l-25 -29q-8 -10 -19 -2l-124 105l-122 -105q-10 -9 -19 2l-25 29q-7 11 2 19zM570 0h-95q-43 0 -43 42v263q0 58 -28 90t-82 32q-41 0 -62.5 -12.5t-32.5 -22t-18 -18.5q-12 -16 -20 -33v-274h53q13 0 13 -12v-43
q0 -12 -13 -12h-191q-13 0 -13 12v43q0 12 13 12h55v584h-55q-13 0 -13 12v43q0 12 13 12h126q12 0 12 -12v-223q0 -33 -4 -61h2q49 77 156 77q80 0 125 -47t46 -127v-258h56q13 0 13 -12v-43q0 -12 -13 -12z" />
    <glyph glyph-name="Hbar" unicode="&#x126;" horiz-adv-x="820" 
d="M760 0h-241q-12 0 -12 12v51q0 12 12 12h77v245h-372v-245h77q13 0 13 -12v-51q0 -12 -13 -12h-240q-13 0 -13 12v51q0 12 13 12h76v414h-60q-11 0 -11 11v29q0 11 11 11h60v103h-76q-13 0 -13 12v51q0 12 13 12h240q13 0 13 -12v-51q0 -12 -13 -12h-77v-103h372v103h-77
q-12 0 -12 12v51q0 12 12 12h241q12 0 12 -12v-51q0 -12 -12 -12h-77v-103h47q11 0 11 -11v-29q0 -11 -11 -11h-47v-414h77q12 0 12 -12v-51q0 -12 -12 -12zM596 393v96h-372v-96h372z" />
    <glyph glyph-name="hbar" unicode="&#x127;" horiz-adv-x="621" 
d="M570 0h-95q-43 0 -43 42v263q0 58 -28 90t-82 32q-41 0 -62.5 -12.5t-32.5 -22t-18 -18.5q-12 -16 -20 -33v-274h53q13 0 13 -12v-43q0 -12 -13 -12h-191q-13 0 -13 12v43q0 12 13 12h55v492h-58q-11 0 -11 11v16q0 11 11 11h58v54h-55q-13 0 -13 12v43q0 12 13 12h126
q12 0 12 -12v-109h123q11 0 11 -11v-16q0 -11 -11 -11h-123v-76q0 -33 -4 -61h2q49 77 156 77q80 0 125 -47t46 -127v-258h56q13 0 13 -12v-43q0 -12 -13 -12z" />
    <glyph glyph-name="Itilde" unicode="&#x128;" horiz-adv-x="383" 
d="M311 0h-240q-13 0 -13 12v51q0 12 13 12h76v568h-76q-13 0 -13 12v51q0 12 13 12h240q13 0 13 -12v-51q0 -12 -13 -12h-77v-568h77q13 0 13 -12v-51q0 -12 -13 -12zM312 910h24q12 0 12 -12q0 -113 -87 -113q-32 0 -56.5 15.5t-44 31.5t-39 16t-29.5 -12.5t-10 -44.5
q0 -12 -12 -12h-24q-12 0 -12 12q0 108 86 108q37 0 77 -33t62.5 -33t31.5 14t9 51q0 12 12 12z" />
    <glyph glyph-name="itilde" unicode="&#x129;" horiz-adv-x="333" 
d="M269 0h-192q-12 0 -12 12v43q0 12 12 12h56v358h-56q-12 0 -12 12v43q0 12 12 12h127q12 0 12 -12v-413h53q12 0 12 -12v-43q0 -12 -12 -12zM279 684h24q12 0 12 -12q0 -113 -87 -113q-32 0 -56.5 15.5t-44 31.5t-39 16t-29.5 -12.5t-10 -44.5q0 -12 -12 -12h-24
q-12 0 -12 12q0 108 86 108q37 0 77 -33t62.5 -33t31.5 14t9 51q0 12 12 12z" />
    <glyph glyph-name="Imacron" unicode="&#x12a;" horiz-adv-x="350" 
d="M301 0h-240q-13 0 -13 12v51q0 12 13 12h76v568h-76q-13 0 -13 12v51q0 12 13 12h240q13 0 13 -12v-51q0 -12 -13 -12h-77v-568h77q13 0 13 -12v-51q0 -12 -13 -12zM329 780h-296q-13 0 -13 13v42q0 14 13 14h296q13 0 13 -14v-42q0 -13 -13 -13z" />
    <glyph glyph-name="imacron" unicode="&#x12b;" horiz-adv-x="293" 
d="M242 0h-191q-13 0 -13 12v43q0 12 13 12h55v358h-55q-13 0 -13 12v43q0 12 13 12h126q12 0 12 -12v-413h53q13 0 13 -12v-43q0 -12 -13 -12zM282 554h-296q-13 0 -13 13v42q0 14 13 14h296q13 0 13 -14v-42q0 -13 -13 -13z" />
    <glyph glyph-name="Ibreve" unicode="&#x12c;" horiz-adv-x="362" 
d="M301 0h-240q-13 0 -13 12v51q0 12 13 12h76v568h-76q-13 0 -13 12v51q0 12 13 12h240q13 0 13 -12v-51q0 -12 -13 -12h-77v-568h77q13 0 13 -12v-51q0 -12 -13 -12zM278 941h32q13 0 13 -13q0 -67 -39 -103t-101.5 -36t-101 36t-38.5 103q0 13 13 13h32q13 0 13 -13
q0 -41 23 -64.5t58 -23.5t59 23.5t24 64.5q0 13 13 13z" />
    <glyph glyph-name="Iogonek" unicode="&#x12e;" horiz-adv-x="368" 
d="M281 0q-70 -35 -70 -82q0 -16 10.5 -25t29.5 -9t34.5 8.5t20.5 0.5l9 -13q3 -4 3 -8.5t-7 -8.5q-34 -24 -71.5 -24t-59 20.5t-21.5 53t21.5 55t47.5 32.5h-167q-13 0 -13 12v51q0 12 13 12h76v568h-76q-13 0 -13 12v51q0 12 13 12h240q13 0 13 -12v-51q0 -12 -13 -12h-77
v-568h77q13 0 13 -12v-51q0 -12 -13 -12h-20z" />
    <glyph glyph-name="iogonek" unicode="&#x12f;" horiz-adv-x="302" 
d="M213 0q-70 -35 -70 -82q0 -16 10.5 -25t29.5 -9t34.5 8.5t20.5 0.5l9 -13q8 -11 -4 -17q-34 -24 -71.5 -24t-59 20.5t-21.5 53t21.5 55t47.5 32.5h-109q-13 0 -13 12v43q0 12 13 12h55v358h-55q-13 0 -13 12v43q0 12 13 12h126q12 0 12 -12v-413h53q13 0 13 -12v-43
q0 -12 -13 -12h-29zM202 600q0 -23 -16.5 -39t-39.5 -16t-39.5 16t-16.5 39t16.5 40t39.5 17t39.5 -17t16.5 -40z" />
    <glyph glyph-name="Idotaccent" unicode="&#x130;" horiz-adv-x="362" 
d="M301 0h-240q-13 0 -13 12v51q0 12 13 12h76v568h-76q-13 0 -13 12v51q0 12 13 12h240q13 0 13 -12v-51q0 -12 -13 -12h-77v-568h77q13 0 13 -12v-51q0 -12 -13 -12zM234 844q0 -22 -15 -37t-37 -15t-37 15t-15 37t15 37.5t37 15.5t37 -15.5t15 -37.5z" />
    <glyph glyph-name="dotlessi" unicode="&#x131;" horiz-adv-x="293" 
d="M242 0h-191q-13 0 -13 12v43q0 12 13 12h55v358h-55q-13 0 -13 12v43q0 12 13 12h126q12 0 12 -12v-413h53q13 0 13 -12v-43q0 -12 -13 -12z" />
    <glyph glyph-name="Jcircumflex" unicode="&#x134;" horiz-adv-x="513" 
d="M272 985q4 4 9.5 4t10.5 -5l155 -135q8 -10 2 -19l-25 -29q-8 -10 -19 -2l-124 105l-122 -105q-10 -9 -19 2l-25 29q-7 11 2 19zM288 262v381h-76q-13 0 -13 12v51q0 12 13 12h240q13 0 13 -12v-51q0 -12 -13 -12h-77v-372q0 -147 -69 -209t-216 -62q-13 0 -13 12v51
q0 12 13 12q110 0 154 45.5t44 141.5z" />
    <glyph glyph-name="jcircumflex" unicode="&#x135;" horiz-adv-x="343" 
d="M189 -63v488h-56q-12 0 -12 12v43q0 12 12 12h127q12 0 12 -12v-544q0 -83 -42.5 -126.5t-118.5 -43.5q-56 0 -100 39q-6 5 -6 10t4 9l23 30q9 9 18 2q24 -19 54 -19q85 0 85 100zM364 575q-4 -6 -9 -6t-10 4l-124 105l-122 -105q-5 -4 -9.5 -4t-9.5 6l-25 29
q-3 5 -3 9.5t5 9.5l155 136q4 4 9.5 4t10.5 -5l155 -135q5 -6 5 -10.5t-3 -8.5z" />
    <glyph glyph-name="Kcommaaccent" unicode="&#x136;" horiz-adv-x="763" 
d="M314 -222v17q0 6 11.5 6t24 13.5t12.5 39.5l-2 11q-5 -5 -21 -5t-28.5 13t-12.5 33t14 34t36.5 14t37 -19.5t14.5 -64.5t-22 -71.5t-57 -26.5q-7 0 -7 6zM702 0h-87q-36 0 -60 48l-94 191q-8 16 -14.5 25t-28 18t-53.5 9h-141v-216h92q13 0 13 -12v-51q0 -12 -13 -12
h-255q-13 0 -13 12v51q0 12 13 12h76v568h-76q-13 0 -13 12v51q0 12 13 12h224q12 0 12 -12v-51q0 -12 -12 -12h-61v-281h105q106 0 157.5 62.5t51.5 218.5h-68q-12 0 -12 12v51q0 12 12 12h223q12 0 12 -12v-51q0 -12 -12 -12h-69q0 -241 -136 -315q23 -11 36 -28.5
t30 -51.5l87 -173h61q12 0 12 -12v-51q0 -12 -12 -12z" />
    <glyph glyph-name="kcommaaccent" unicode="&#x137;" horiz-adv-x="614" 
d="M273 -222v17q0 6 11.5 6t24 13.5t12.5 39.5l-2 11q-5 -5 -21 -5t-28.5 13t-12.5 33t13.5 34t36.5 14t37.5 -19.5t14.5 -64.5t-22 -71.5t-57 -26.5q-7 0 -7 6zM570 0h-54q-31 0 -53 31l-177 240l-97 -90v-114h53q13 0 13 -12v-43q0 -12 -13 -12h-191q-13 0 -13 12v43
q0 12 13 12h55v584h-55q-13 0 -13 12v43q0 12 13 12h126q12 0 12 -12v-448l182 167h-36q-12 0 -12 12v43q0 12 12 12h192q12 0 12 -12v-43q0 -12 -12 -12h-65l-122 -107l187 -251h43q12 0 12 -12v-43q0 -12 -12 -12z" />
    <glyph glyph-name="Lacute" unicode="&#x139;" horiz-adv-x="670" 
d="M376 990q4 4 9 4t10 -5l31 -38q8 -10 -1 -19l-168 -134q-12 -7 -19 3l-25 29q-9 11 2 19zM608 0h-547q-13 0 -13 12v51q0 12 13 12h76v568h-76q-13 0 -13 12v51q0 12 13 12h239q13 0 13 -13v-49q0 -13 -13 -13h-76v-568h318v98q0 12 13 12h54q12 0 12 -12v-160
q0 -13 -13 -13z" />
    <glyph glyph-name="lacute" unicode="&#x13a;" horiz-adv-x="293" 
d="M248 953q4 4 9 4t10 -5l31 -38q4 -5 4 -9.5t-5 -9.5l-168 -134q-12 -7 -19 3l-25 29q-9 11 2 19zM242 0h-191q-13 0 -13 12v43q0 12 13 12h55v584h-55q-13 0 -13 12v43q0 12 13 12h111q27 0 27 -25v-626h53q13 0 13 -12v-43q0 -12 -13 -12z" />
    <glyph glyph-name="Lcommaaccent" unicode="&#x13b;" horiz-adv-x="670" 
d="M282 -222v17q0 6 11.5 6t24 13.5t12.5 39.5l-2 11q-5 -5 -21 -5t-28.5 13t-12.5 33t14 34t36.5 14t37 -19.5t14.5 -64.5t-22 -71.5t-57 -26.5q-7 0 -7 6zM608 0h-547q-13 0 -13 12v51q0 12 13 12h76v568h-76q-13 0 -13 12v51q0 12 13 12h239q13 0 13 -13v-49
q0 -13 -13 -13h-76v-568h318v98q0 12 13 12h54q12 0 12 -12v-160q0 -13 -13 -13z" />
    <glyph glyph-name="lcommaaccent" unicode="&#x13c;" horiz-adv-x="293" 
d="M116 -222v17q0 6 11.5 6t24 13.5t12.5 39.5l-2 11q-5 -5 -21 -5t-28.5 13t-12.5 33t14 34t36.5 14t37 -19.5t14.5 -64.5t-22 -71.5t-57 -26.5q-7 0 -7 6zM242 0h-191q-13 0 -13 12v43q0 12 13 12h55v584h-55q-13 0 -13 12v43q0 12 13 12h111q27 0 27 -25v-626h53
q13 0 13 -12v-43q0 -12 -13 -12z" />
    <glyph glyph-name="Lcaron" unicode="&#x13d;" horiz-adv-x="670" 
d="M347 540v17q0 6 11 6t23.5 13.5t12.5 39.5l-2 12q-5 -5 -21 -5t-28.5 13t-12.5 33t13.5 33.5t36.5 13.5t38 -19t15 -64.5t-22.5 -72t-57.5 -26.5q-6 0 -6 6zM608 0h-547q-13 0 -13 12v51q0 12 13 12h76v568h-76q-13 0 -13 12v51q0 12 13 12h239q13 0 13 -13v-49
q0 -13 -13 -13h-76v-568h318v98q0 12 13 12h54q12 0 12 -12v-160q0 -13 -13 -13z" />
    <glyph glyph-name="lcaron" unicode="&#x13e;" horiz-adv-x="293" 
d="M251 567v17q0 6 11 6t23.5 13.5t12.5 39.5l-2 12q-5 -5 -21 -5t-28.5 13t-12.5 33t13.5 33.5t36.5 13.5t38 -19t15 -64.5t-22.5 -72t-57.5 -26.5q-6 0 -6 6zM242 0h-191q-13 0 -13 12v43q0 12 13 12h55v584h-55q-13 0 -13 12v43q0 12 13 12h111q27 0 27 -25v-626h53
q13 0 13 -12v-43q0 -12 -13 -12z" />
    <glyph glyph-name="Ldot" unicode="&#x13f;" horiz-adv-x="670" 
d="M309 199q-19 0 -32 12.5t-13 32t13 33t32 13.5t32 -13.5t13 -32.5t-13 -32t-32 -13zM608 0h-547q-13 0 -13 12v51q0 12 13 12h76v568h-76q-13 0 -13 12v51q0 12 13 12h239q13 0 13 -13v-49q0 -13 -13 -13h-76v-568h318v98q0 12 13 12h54q12 0 12 -12v-160q0 -13 -13 -13z
" />
    <glyph glyph-name="ldot" unicode="&#x140;" horiz-adv-x="293" 
d="M242 0h-191q-13 0 -13 12v43q0 12 13 12h55v584h-55q-13 0 -13 12v43q0 12 13 12h111q27 0 27 -25v-626h53q13 0 13 -12v-43q0 -12 -13 -12z" />
    <glyph glyph-name="Lslash" unicode="&#x141;" horiz-adv-x="677" 
d="M616 0h-548q-12 0 -12 12v51q0 12 12 12h77v189l-66 -66q-9 -10 -19 0l-20 21q-5 5 -5 9.5t5 9.5l105 104v301h-77q-12 0 -12 12v51q0 12 12 12h239q14 0 14 -13v-49q0 -13 -14 -13h-75v-214l111 112q9 8 19 0l20 -21q10 -10 0 -19l-150 -151v-275h318v98q0 12 12 12h55
q12 0 12 -12v-160q0 -13 -13 -13z" />
    <glyph glyph-name="lslash" unicode="&#x142;" horiz-adv-x="293" 
d="M242 0h-191q-13 0 -13 12v43q0 12 13 12h55v189l-88 -88q-9 -11 -18 0l-20 20q-5 5 -5 9.5t5 9.5l126 127v317h-55q-13 0 -13 12v43q0 12 13 12h111q27 0 27 -25v-277l94 94q9 10 19 0l20 -20q4 -5 4 -9.5t-4 -9.5l-133 -132v-272h53q13 0 13 -12v-43q0 -12 -13 -12z" />
    <glyph glyph-name="Nacute" unicode="&#x143;" horiz-adv-x="820" 
d="M471 990q4 4 9 4t10 -5l31 -38q8 -10 -1 -19l-168 -134q-12 -7 -19 3l-25 29q-9 11 2 19zM670 0h-54q-19 0 -30 7.5t-21 23.5l-289 452l-50 84h-2v-492h77q13 0 13 -12v-51q0 -12 -13 -12h-240q-13 0 -13 12v51q0 12 13 12h76v568h-76q-13 0 -13 12v51q0 12 13 12h140
q29 0 51 -34l285 -446l57 -97h2v502h-77q-12 0 -12 12v51q0 12 12 12h241q12 0 12 -12v-51q0 -12 -12 -12h-77v-631q0 -12 -13 -12z" />
    <glyph glyph-name="nacute" unicode="&#x144;" horiz-adv-x="621" 
d="M376 764q4 4 9 4t10 -5l31 -38q8 -10 -1 -19l-168 -134q-12 -7 -19 3l-25 29q-9 11 2 19zM570 0h-95q-43 0 -43 42v263q0 58 -28 90t-82 32q-77 0 -120 -63q-5 -6 -13 -22v-275h53q13 0 13 -12v-43q0 -12 -13 -12h-191q-13 0 -13 12v43q0 12 13 12h55v358h-55
q-13 0 -13 12v43q0 12 13 12h117q13 0 13 -12l-2 -68h3q52 87 161 87q80 0 125 -47t46 -127v-258h56q13 0 13 -12v-43q0 -12 -13 -12z" />
    <glyph glyph-name="Ncommaaccent" unicode="&#x145;" horiz-adv-x="820" 
d="M379 -222v17q0 6 11.5 6t24 13.5t12.5 39.5l-2 11q-5 -5 -21 -5t-28.5 13t-12.5 33t13.5 34t36.5 14t37.5 -19.5t14.5 -64.5t-22 -71.5t-57 -26.5q-7 0 -7 6zM670 0h-54q-19 0 -30 7.5t-21 23.5l-289 452l-50 84h-2v-492h77q13 0 13 -12v-51q0 -12 -13 -12h-240
q-13 0 -13 12v51q0 12 13 12h76v568h-76q-13 0 -13 12v51q0 12 13 12h140q29 0 51 -34l285 -446l57 -97h2v502h-77q-12 0 -12 12v51q0 12 12 12h241q12 0 12 -12v-51q0 -12 -12 -12h-77v-631q0 -12 -13 -12z" />
    <glyph glyph-name="ncommaaccent" unicode="&#x146;" horiz-adv-x="621" 
d="M272 -222v17q0 6 11.5 6t24 13.5t12.5 39.5l-2 11q-5 -5 -21 -5t-28.5 13t-12.5 33t14 34t36.5 14t37 -19.5t14.5 -64.5t-22 -71.5t-57 -26.5q-7 0 -7 6zM570 0h-95q-43 0 -43 42v263q0 58 -28 90t-82 32q-77 0 -120 -63q-5 -6 -13 -22v-275h53q13 0 13 -12v-43
q0 -12 -13 -12h-191q-13 0 -13 12v43q0 12 13 12h55v358h-55q-13 0 -13 12v43q0 12 13 12h117q13 0 13 -12l-2 -68h3q52 87 161 87q80 0 125 -47t46 -127v-258h56q13 0 13 -12v-43q0 -12 -13 -12z" />
    <glyph glyph-name="Ncaron" unicode="&#x147;" horiz-adv-x="820" 
d="M423 804q-5 -5 -10.5 -5t-9.5 4l-155 136q-9 8 -2 19l25 28q4 6 9 6t10 -4l122 -105l124 105q5 4 10 4t9 -6l25 -28q6 -9 -2 -19zM670 0h-54q-19 0 -30 7.5t-21 23.5l-289 452l-50 84h-2v-492h77q13 0 13 -12v-51q0 -12 -13 -12h-240q-13 0 -13 12v51q0 12 13 12h76v568
h-76q-13 0 -13 12v51q0 12 13 12h140q29 0 51 -34l285 -446l57 -97h2v502h-77q-12 0 -12 12v51q0 12 12 12h241q12 0 12 -12v-51q0 -12 -12 -12h-77v-631q0 -12 -13 -12z" />
    <glyph glyph-name="ncaron" unicode="&#x148;" horiz-adv-x="621" 
d="M317 578q-5 -5 -10.5 -5t-9.5 4l-155 136q-9 8 -2 19l25 28q4 6 9 6t10 -4l122 -105l124 105q5 4 10 4t9 -6l25 -28q6 -9 -2 -19zM570 0h-95q-43 0 -43 42v263q0 58 -28 90t-82 32q-77 0 -120 -63q-5 -6 -13 -22v-275h53q13 0 13 -12v-43q0 -12 -13 -12h-191
q-13 0 -13 12v43q0 12 13 12h55v358h-55q-13 0 -13 12v43q0 12 13 12h117q13 0 13 -12l-2 -68h3q52 87 161 87q80 0 125 -47t46 -127v-258h56q13 0 13 -12v-43q0 -12 -13 -12z" />
    <glyph glyph-name="Eng" unicode="&#x14a;" horiz-adv-x="801" 
d="M375 -219v50q0 13 12 13q110 0 154.5 37t44.5 118v4q-19 6 -31 28l-289 452l-50 84h-2v-492h77q13 0 13 -12v-51q0 -12 -13 -12h-240q-13 0 -13 12v51q0 12 13 12h76v568h-76q-13 0 -13 12v51q0 12 13 12h140q31 0 51 -34l285 -446l57 -97h2v502h-77q-12 0 -12 12v51
q0 12 12 12h241q12 0 12 -12v-51q0 -12 -12 -12h-77v-629q-1 -125 -68 -185.5t-218 -60.5q-12 0 -12 13z" />
    <glyph glyph-name="eng" unicode="&#x14b;" horiz-adv-x="552" 
d="M432 -63v368q0 58 -28 90t-82 32q-77 0 -120 -63q-5 -6 -13 -22v-275h53q13 0 13 -12v-43q0 -12 -13 -12h-191q-13 0 -13 12v43q0 12 13 12h55v358h-55q-13 0 -13 12v43q0 12 13 12h98q17 0 24.5 -6.5t7.5 -23.5l-2 -50h3q52 87 161 87q80 0 125 -47t46 -127v-389
q1 -83 -41.5 -126.5t-109 -43.5t-110.5 39q-10 9 -2 19l23 30q9 9 18 2q24 -19 59.5 -19t58 25.5t22.5 74.5z" />
    <glyph glyph-name="Omacron" unicode="&#x14c;" horiz-adv-x="793" 
d="M546 780h-296q-13 0 -13 13v42q0 14 13 14h296q13 0 13 -14v-42q0 -13 -13 -13zM645.5 95.5q-98.5 -102.5 -248 -102.5t-249.5 103.5t-100 267t103 262t246 98.5t245 -98.5t102 -263t-98.5 -267zM397 74q102 0 178 76.5t76 210t-77.5 209t-176.5 75.5t-177 -75.5
t-78 -209t76.5 -210t178.5 -76.5z" />
    <glyph glyph-name="omacron" unicode="&#x14d;" horiz-adv-x="575" 
d="M436 554h-296q-13 0 -13 13v42q0 14 13 14h296q13 0 13 -14v-42q0 -13 -13 -13zM287 -7q-109 0 -179 69.5t-70 185t71 183.5t178.5 68t178 -68.5t70.5 -183t-70 -184.5t-179 -70zM170 114q48 -51 117.5 -51t117.5 51t48 133t-48.5 132t-116.5 50t-117 -50t-49 -132
t48 -133z" />
    <glyph glyph-name="Obreve" unicode="&#x14e;" horiz-adv-x="793" 
d="M645.5 95.5q-98.5 -102.5 -248 -102.5t-249.5 103.5t-100 267t103 262t246 98.5t245 -98.5t102 -263t-98.5 -267zM397 74q102 0 178 76.5t76 210t-77.5 209t-176.5 75.5t-177 -75.5t-78 -209t76.5 -210t178.5 -76.5zM493 941h32q13 0 13 -13q0 -67 -39 -103t-101.5 -36
t-101 36t-38.5 103q0 13 13 13h32q13 0 13 -13q0 -41 23 -64.5t58 -23.5t59 23.5t24 64.5q0 13 13 13z" />
    <glyph glyph-name="obreve" unicode="&#x14f;" horiz-adv-x="575" 
d="M287 -7q-109 0 -179 69.5t-70 185t71 183.5t178.5 68t178 -68.5t70.5 -183t-70 -184.5t-179 -70zM170 114q48 -51 117.5 -51t117.5 51t48 133t-48.5 132t-116.5 50t-117 -50t-49 -132t48 -133zM386 715h32q13 0 13 -13q0 -67 -39 -103t-101.5 -36t-101 36t-38.5 103
q0 13 13 13h32q13 0 13 -13q0 -41 23 -64.5t58 -23.5t59 23.5t24 64.5q0 13 13 13z" />
    <glyph glyph-name="Ohungarumlaut" unicode="&#x150;" horiz-adv-x="793" 
d="M429 999q4 5 8.5 5t10.5 -6l31 -38q8 -11 -1 -19l-168 -134q-12 -7 -19 3l-25 29q-9 11 2 19zM601 999q5 5 9.5 5t9.5 -6l32 -38q7 -12 -2 -19l-168 -134q-10 -7 -19 3l-25 29q-9 11 2 19zM645.5 95.5q-98.5 -102.5 -248 -102.5t-249.5 103.5t-100 267t103 262t246 98.5
t245 -98.5t102 -263t-98.5 -267zM397 74q102 0 178 76.5t76 210t-77.5 209t-176.5 75.5t-177 -75.5t-78 -209t76.5 -210t178.5 -76.5z" />
    <glyph glyph-name="ohungarumlaut" unicode="&#x151;" horiz-adv-x="575" 
d="M273 773q4 5 8.5 5t10.5 -6l31 -38q8 -11 -1 -19l-168 -134q-12 -7 -19 3l-25 29q-9 11 2 19zM445 773q5 5 9.5 5t9.5 -6l32 -38q7 -12 -2 -19l-168 -134q-10 -7 -19 3l-25 29q-9 11 2 19zM287 -7q-109 0 -179 69.5t-70 185t71 183.5t178.5 68t178 -68.5t70.5 -183
t-70 -184.5t-179 -70zM170 114q48 -51 117.5 -51t117.5 51t48 133t-48.5 132t-116.5 50t-117 -50t-49 -132t48 -133z" />
    <glyph glyph-name="OE" unicode="&#x152;" horiz-adv-x="907" 
d="M847 0h-454q-148 0 -246.5 101t-98.5 263t101 257.5t243 96.5h455q12 0 12 -12v-161q0 -13 -12 -13h-55q-12 0 -12 13v98h-301v-248h253q12 0 12 -12v-51q0 -12 -12 -12h-253v-245h301v98q0 12 12 12h55q12 0 12 -12v-161q0 -12 -12 -12zM142 360q0 -132 74 -205.5
t176 -75.5v560q-99 -3 -174.5 -75t-75.5 -204z" />
    <glyph glyph-name="oe" unicode="&#x153;" horiz-adv-x="954" 
d="M786 6q-40 -13 -96.5 -13t-110.5 31t-83 88q-30 -57 -85 -88t-124 -31q-109 0 -179 69.5t-70 185t71 183.5t179 68q67 0 122 -30.5t85 -85.5q29 55 81.5 85.5t113.5 30.5q107 0 165 -65.5t58 -175.5v-8q0 -14 -14 -14h-360q4 -83 52.5 -128t109.5 -45t104.5 26t58.5 51
q8 10 18 3l27 -27q6 -5 6 -9.5t-4.5 -12t-19 -22.5t-40 -34t-65.5 -32zM170 114q48 -51 117.5 -51t117.5 50.5t48 133t-48.5 132.5t-116.5 50t-117 -50t-49 -132t48 -133zM791 396q-36 37 -96 37t-102.5 -34.5t-51.5 -102.5h289q-3 63 -39 100z" />
    <glyph glyph-name="Racute" unicode="&#x154;" horiz-adv-x="715" 
d="M393 990q4 4 9 4t10 -5l31 -38q8 -10 -1 -19l-168 -134q-12 -7 -19 3l-25 29q-9 11 2 19zM655 0h-87q-36 0 -60 48l-94 191q-12 25 -25.5 37t-37.5 13h-127v-214h90q12 0 12 -12v-51q0 -12 -12 -12h-253q-13 0 -13 12v51q0 12 13 12h76v568h-76q-13 0 -13 12v51
q0 12 13 12h308q107 0 174 -56.5t67 -159.5q0 -157 -147 -196q19 -15 47 -67l84 -164h61q12 0 12 -12v-51q0 -12 -12 -12zM224 360h128q170 0 170 139q0 144 -170 144h-128v-283z" />
    <glyph glyph-name="racute" unicode="&#x155;" horiz-adv-x="421" 
d="M315 764q4 4 9 4t10 -5l31 -38q8 -10 -1 -19l-168 -134q-12 -7 -19 3l-25 29q-9 11 2 19zM242 0h-191q-13 0 -13 12v43q0 12 13 12h55v358h-55q-13 0 -13 12v43q0 12 13 12h117q13 0 13 -12v-125h3q3 16 21 44t39.5 46.5t62 33.5t91.5 15q13 0 13 -13v-53q0 -13 -13 -13
h-21q-86 0 -137 -55t-51 -125v-168h53q13 0 13 -12v-43q0 -12 -13 -12z" />
    <glyph glyph-name="Rcommaaccent" unicode="&#x156;" horiz-adv-x="715" 
d="M310 -222v17q0 6 11.5 6t24 13.5t12.5 39.5l-2 11q-5 -5 -21 -5t-28.5 13t-12.5 33t14 34t36.5 14t37 -19.5t14.5 -64.5t-22 -71.5t-57 -26.5q-7 0 -7 6zM655 0h-87q-36 0 -60 48l-94 191q-12 25 -25.5 37t-37.5 13h-127v-214h90q12 0 12 -12v-51q0 -12 -12 -12h-253
q-13 0 -13 12v51q0 12 13 12h76v568h-76q-13 0 -13 12v51q0 12 13 12h308q107 0 174 -56.5t67 -159.5q0 -157 -147 -196q19 -15 47 -67l84 -164h61q12 0 12 -12v-51q0 -12 -12 -12zM224 360h128q170 0 170 139q0 144 -170 144h-128v-283z" />
    <glyph glyph-name="rcommaaccent" unicode="&#x157;" horiz-adv-x="421" 
d="M118 -222v17q0 6 11.5 6t24 13.5t12.5 39.5l-2 11q-5 -5 -21 -5t-28.5 13t-12.5 33t14 34t36.5 14t37 -19.5t14.5 -64.5t-22 -71.5t-57 -26.5q-7 0 -7 6zM242 0h-191q-13 0 -13 12v43q0 12 13 12h55v358h-55q-13 0 -13 12v43q0 12 13 12h117q13 0 13 -12v-125h3
q3 16 21 44t39.5 46.5t62 33.5t91.5 15q13 0 13 -13v-53q0 -13 -13 -13h-21q-86 0 -137 -55t-51 -125v-168h53q13 0 13 -12v-43q0 -12 -13 -12z" />
    <glyph glyph-name="Rcaron" unicode="&#x158;" horiz-adv-x="715" 
d="M342 804q-5 -5 -10.5 -5t-9.5 4l-155 136q-9 8 -2 19l25 28q4 6 9 6t10 -4l122 -105l124 105q5 4 10 4t9 -6l25 -28q6 -9 -2 -19zM655 0h-87q-36 0 -60 48l-94 191q-12 25 -25.5 37t-37.5 13h-127v-214h90q12 0 12 -12v-51q0 -12 -12 -12h-253q-13 0 -13 12v51
q0 12 13 12h76v568h-76q-13 0 -13 12v51q0 12 13 12h308q107 0 174 -56.5t67 -159.5q0 -157 -147 -196q19 -15 47 -67l84 -164h61q12 0 12 -12v-51q0 -12 -12 -12zM224 360h128q170 0 170 139q0 144 -170 144h-128v-283z" />
    <glyph glyph-name="rcaron" unicode="&#x159;" horiz-adv-x="435" 
d="M222 578q-5 -5 -10.5 -5t-9.5 4l-155 136q-5 5 -5 9.5t3 9.5l25 28q4 6 9 6t10 -4l122 -105l124 105q5 4 10 4t9 -6l25 -28q6 -9 -2 -19zM256 0h-191q-13 0 -13 12v43q0 12 13 12h55v358h-55q-13 0 -13 12v43q0 12 13 12h117q13 0 13 -12v-125h3q3 16 21 44t39.5 46.5
t62 33.5t91.5 15q13 0 13 -13v-53q0 -13 -13 -13h-21q-86 0 -137 -55t-51 -125v-168h53q13 0 13 -12v-43q0 -12 -13 -12z" />
    <glyph glyph-name="Sacute" unicode="&#x15a;" horiz-adv-x="666" 
d="M411 990q4 4 9 4t10 -5l31 -38q8 -10 -1 -19l-168 -134q-12 -7 -19 3l-25 29q-9 11 2 19zM117 0h-56q-13 0 -13 12v234q0 13 13 13h63q12 0 12 -13v-21q0 -19 23 -50.5t46 -51.5t61.5 -34.5t83.5 -14.5q77 0 120.5 32t43.5 89q0 33 -24.5 56.5t-63.5 37.5t-86.5 26
t-95 27.5t-86.5 37t-63.5 60t-24.5 90.5q0 84 63.5 139t170.5 55q135 0 198 -79l-2 62q0 12 13 12h56q12 0 12 -12v-218q0 -12 -12 -12h-63q-12 0 -12 12v28q0 41 -46 83t-135 42q-66 0 -106.5 -31.5t-40.5 -80.5q0 -35 25 -60t65 -40t88 -27.5t96 -27.5t88 -36t65 -57.5
t25 -86.5q0 -88 -63 -145t-188 -57q-92 0 -152 37t-87 80l1 -98q0 -12 -12 -12z" />
    <glyph glyph-name="sacute" unicode="&#x15b;" horiz-adv-x="486" 
d="M317 764q4 4 9 4t10 -5l31 -38q8 -10 -1 -19l-168 -134q-12 -7 -19 3l-25 29q-9 11 2 19zM260 -7q-67 0 -107 25t-50 47h-2q2 -49 2 -52q0 -13 -14 -13h-34q-13 0 -13 13v150q0 13 13 13h39q14 0 14 -13v-20q10 -30 42 -55q38 -30 95 -30q112 0 112 78q0 27 -31 43.5
t-75.5 27.5t-88.5 25t-75 45.5t-31 79.5q0 65 47 103.5t120 38.5q99 0 142 -58h2q-2 36 -2 37q0 13 13 13h32q13 0 13 -13v-139q0 -13 -13 -13h-39q-14 0 -14 13v14q0 27 -31.5 53.5t-81.5 26.5t-78 -21t-28 -54.5t31.5 -52t76.5 -29t90 -23.5t76.5 -43t31.5 -83
t-45.5 -93.5t-138.5 -40.5z" />
    <glyph glyph-name="Scircumflex" unicode="&#x15c;" horiz-adv-x="666" 
d="M322 985q4 4 9.5 4t10.5 -5l155 -135q8 -10 2 -19l-25 -29q-8 -10 -19 -2l-124 105l-122 -105q-10 -9 -19 2l-25 29q-7 11 2 19zM117 0h-56q-13 0 -13 12v234q0 13 13 13h63q12 0 12 -13v-21q0 -19 23 -50.5t46 -51.5t61.5 -34.5t83.5 -14.5q77 0 120.5 32t43.5 89
q0 33 -24.5 56.5t-63.5 37.5t-86.5 26t-95 27.5t-86.5 37t-63.5 60t-24.5 90.5q0 84 63.5 139t170.5 55q135 0 198 -79l-2 62q0 12 13 12h56q12 0 12 -12v-218q0 -12 -12 -12h-63q-12 0 -12 12v28q0 41 -46 83t-135 42q-66 0 -106.5 -31.5t-40.5 -80.5q0 -35 25 -60t65 -40
t88 -27.5t96 -27.5t88 -36t65 -57.5t25 -86.5q0 -88 -63 -145t-188 -57q-92 0 -152 37t-87 80l1 -98q0 -12 -12 -12z" />
    <glyph glyph-name="scircumflex" unicode="&#x15d;" horiz-adv-x="486" 
d="M223 759q4 4 9.5 4t10.5 -5l155 -135q8 -10 2 -19l-25 -29q-8 -10 -19 -2l-124 105l-122 -105q-10 -9 -19 2l-25 29q-7 11 2 19zM260 -7q-67 0 -107 25t-50 47h-2q2 -49 2 -52q0 -13 -14 -13h-34q-13 0 -13 13v150q0 13 13 13h39q14 0 14 -13v-20q10 -30 42 -55
q38 -30 95 -30q112 0 112 78q0 27 -31 43.5t-75.5 27.5t-88.5 25t-75 45.5t-31 79.5q0 65 47 103.5t120 38.5q99 0 142 -58h2q-2 36 -2 37q0 13 13 13h32q13 0 13 -13v-139q0 -13 -13 -13h-39q-14 0 -14 13v14q0 27 -31.5 53.5t-81.5 26.5t-78 -21t-28 -54.5t31.5 -52
t76.5 -29t90 -23.5t76.5 -43t31.5 -83t-45.5 -93.5t-138.5 -40.5z" />
    <glyph glyph-name="Scedilla" unicode="&#x15e;" horiz-adv-x="666" 
d="M400.5 -136q-23.5 -20 -63 -20t-73.5 23q-11 7 -3 16l10 12q8 8 17 3q20 -13 44 -13q43 0 43 33q0 26 -49 26q-13 0 -17.5 4t-1.5 13l12 35q-72 9 -120 43t-71 71l1 -98q0 -12 -12 -12h-56q-13 0 -13 12v234q0 13 13 13h63q12 0 12 -13v-21q0 -19 23 -50.5t46 -51.5
t61.5 -34.5t83.5 -14.5q77 0 120.5 32t43.5 89q0 33 -24.5 56.5t-63.5 37.5t-86.5 26t-95 27.5t-86.5 37t-63.5 60t-24.5 90.5q0 84 63.5 139t170.5 55q135 0 198 -79l-2 62q0 12 13 12h56q12 0 12 -12v-218q0 -12 -12 -12h-63q-12 0 -12 12v28q0 41 -46 83t-135 42
q-66 0 -106.5 -31.5t-40.5 -80.5q0 -35 25 -60t65 -40t88 -27.5t96 -27.5t88 -36t65 -57.5t25 -86.5q0 -88 -63 -145t-188 -57h-7l-6 -18q14 0 33 -5q37 -12 37 -49t-23.5 -57z" />
    <glyph glyph-name="scedilla" unicode="&#x15f;" horiz-adv-x="486" 
d="M302.5 -136q-23.5 -20 -63 -20t-73.5 23q-11 7 -3 16l10 12q8 8 17 3q20 -13 44 -13q43 0 43 33q0 26 -49 26q-13 0 -17.5 4t-1.5 13l12 35q-50 7 -80 29t-38 40h-2q2 -49 2 -52q0 -13 -14 -13h-34q-13 0 -13 13v150q0 13 13 13h39q14 0 14 -13v-20q10 -30 42 -55
q38 -30 95 -30q112 0 112 78q0 27 -31 43.5t-75.5 27.5t-88.5 25t-75 45.5t-31 79.5q0 65 47 103.5t120 38.5q99 0 142 -58h2q-2 36 -2 37q0 13 13 13h32q13 0 13 -13v-139q0 -13 -13 -13h-39q-14 0 -14 13v14q0 27 -31.5 53.5t-81.5 26.5t-78 -21t-28 -54.5t31.5 -52
t76.5 -29t90 -23.5t76.5 -43t31.5 -83t-45 -93t-137 -41l-6 -18q14 0 33 -5q37 -12 37 -49t-23.5 -57z" />
    <glyph glyph-name="Scaron" unicode="&#x160;" horiz-adv-x="666" 
d="M345 804q-5 -5 -10.5 -5t-9.5 4l-155 136q-9 8 -2 19l25 28q4 6 9 6t10 -4l122 -105l124 105q5 4 10 4t9 -6l25 -28q6 -9 -2 -19zM117 0h-56q-13 0 -13 12v234q0 13 13 13h63q12 0 12 -13v-21q0 -19 23 -50.5t46 -51.5t61.5 -34.5t83.5 -14.5q77 0 120.5 32t43.5 89
q0 33 -24.5 56.5t-63.5 37.5t-86.5 26t-95 27.5t-86.5 37t-63.5 60t-24.5 90.5q0 84 63.5 139t170.5 55q135 0 198 -79l-2 62q0 12 13 12h56q12 0 12 -12v-218q0 -12 -12 -12h-63q-12 0 -12 12v28q0 41 -46 83t-135 42q-66 0 -106.5 -31.5t-40.5 -80.5q0 -35 25 -60t65 -40
t88 -27.5t96 -27.5t88 -36t65 -57.5t25 -86.5q0 -88 -63 -145t-188 -57q-92 0 -152 37t-87 80l1 -98q0 -12 -12 -12z" />
    <glyph glyph-name="scaron" unicode="&#x161;" horiz-adv-x="486" 
d="M248 578q-5 -5 -10.5 -5t-9.5 4l-155 136q-9 8 -2 19l25 28q4 6 9 6t10 -4l122 -105l124 105q5 4 10 4t9 -6l25 -28q6 -9 -2 -19zM260 -7q-67 0 -107 25t-50 47h-2q2 -49 2 -52q0 -13 -14 -13h-34q-13 0 -13 13v150q0 13 13 13h39q14 0 14 -13v-20q10 -30 42 -55
q38 -30 95 -30q112 0 112 78q0 27 -31 43.5t-75.5 27.5t-88.5 25t-75 45.5t-31 79.5q0 65 47 103.5t120 38.5q99 0 142 -58h2q-2 36 -2 37q0 13 13 13h32q13 0 13 -13v-139q0 -13 -13 -13h-39q-14 0 -14 13v14q0 27 -31.5 53.5t-81.5 26.5t-78 -21t-28 -54.5t31.5 -52
t76.5 -29t90 -23.5t76.5 -43t31.5 -83t-45.5 -93.5t-138.5 -40.5z" />
    <glyph glyph-name="Tcommaaccent" unicode="&#x162;" horiz-adv-x="727" 
d="M330 -222v17q0 6 11.5 6t24 13.5t12.5 39.5l-2 11q-5 -5 -21 -5t-28.5 13t-12.5 33t14 34t36.5 14t37 -19.5t14.5 -64.5t-22 -71.5t-57 -26.5q-7 0 -7 6zM478 0h-233q-13 0 -13 13v49q0 13 13 13h76v568h-189v-106q0 -14 -14 -14h-56q-14 0 -14 14v168q0 13 14 13h603
q14 0 14 -13v-168q0 -14 -14 -14h-57q-13 0 -13 14v106h-187v-568h70q14 0 14 -13v-49q0 -13 -14 -13z" />
    <glyph glyph-name="tcommaaccent" unicode="&#x163;" horiz-adv-x="401" 
d="M176 -222v17q0 6 11.5 6t24 13.5t12.5 39.5l-2 11q-5 -5 -21 -5t-28.5 13t-12.5 33t14 34t36.5 14t37 -19.5t14.5 -64.5t-22 -71.5t-57 -26.5q-7 0 -7 6zM372 51q4 -4 4 -8.5t-6 -10.5q-44 -39 -110.5 -39t-109 43.5t-42.5 126.5v262h-56q-14 0 -14 13v41q0 13 14 13h56
v101q0 14 14 14h56q13 0 13 -14v-101h127q14 0 14 -13v-41q0 -13 -14 -13h-127v-260q0 -50 22.5 -75.5t60 -25.5t56.5 19q10 9 18 -1z" />
    <glyph glyph-name="Tcaron" unicode="&#x164;" horiz-adv-x="727" 
d="M352 804q-5 -5 -10.5 -5t-9.5 4l-155 136q-9 8 -2 19l25 28q4 6 9 6t10 -4l122 -105l124 105q5 4 10 4t9 -6l25 -28q6 -9 -2 -19zM478 0h-233q-13 0 -13 13v49q0 13 13 13h76v568h-189v-106q0 -14 -14 -14h-56q-14 0 -14 14v168q0 13 14 13h603q14 0 14 -13v-168
q0 -14 -14 -14h-57q-13 0 -13 14v106h-187v-568h70q14 0 14 -13v-49q0 -13 -14 -13z" />
    <glyph glyph-name="tcaron" unicode="&#x165;" horiz-adv-x="401" 
d="M240 547v17q0 6 11 6t23.5 13.5t12.5 39.5l-2 12q-5 -5 -21 -5t-28.5 13t-12.5 33t13.5 33.5t36.5 13.5t38 -19t15 -64.5t-22.5 -72t-57.5 -26.5q-6 0 -6 6zM372 51q4 -4 4 -8.5t-6 -10.5q-44 -39 -110.5 -39t-109 43.5t-42.5 126.5v262h-56q-14 0 -14 13v41q0 13 14 13
h56v101q0 14 14 14h56q13 0 13 -14v-101h127q14 0 14 -13v-41q0 -13 -14 -13h-127v-260q0 -50 22.5 -75.5t60 -25.5t56.5 19q10 9 18 -1z" />
    <glyph glyph-name="Tbar" unicode="&#x166;" horiz-adv-x="727" 
d="M478 0h-233q-13 0 -13 13v49q0 13 13 13h76v325h-103q-14 0 -14 14v42q0 13 14 13h103v174h-189v-106q0 -14 -14 -14h-56q-14 0 -14 14v168q0 13 14 13h603q14 0 14 -13v-168q0 -14 -14 -14h-57q-13 0 -13 14v106h-187v-174h105q13 0 13 -13v-42q0 -14 -13 -14h-105v-325
h70q14 0 14 -13v-49q0 -13 -14 -13z" />
    <glyph glyph-name="tbar" unicode="&#x167;" horiz-adv-x="428" 
d="M399 51q4 -4 4 -8.5t-6 -10.5q-44 -39 -110.5 -39t-108.5 43t-42 127v262h-57q-14 0 -14 13v41q0 13 14 13h57v29h-54q-11 0 -11 11v16q0 11 11 11h54v34q0 14 13 14h56q14 0 14 -14v-34h73q11 0 11 -11v-16q0 -11 -11 -11h-73v-29h126q14 0 14 -13v-41q0 -13 -14 -13
h-126v-260q0 -101 85 -101q34 0 53 19q10 9 18 -1z" />
    <glyph glyph-name="Utilde" unicode="&#x168;" horiz-adv-x="814" 
d="M590 260v383h-77q-12 0 -12 12v51q0 12 12 12h241q12 0 12 -12v-51q0 -12 -12 -12h-77v-374q0 -135 -70.5 -205.5t-199 -70.5t-199.5 70.5t-71 205.5v374h-76q-13 0 -13 12v51q0 12 13 12h240q13 0 13 -12v-51q0 -12 -13 -12h-77v-377q0 -192 184 -192q94 0 138 49.5
t44 136.5zM540 910h24q12 0 12 -12q0 -113 -87 -113q-32 0 -56.5 15.5t-44 31.5t-39 16t-29.5 -12.5t-10 -44.5q0 -12 -12 -12h-24q-12 0 -12 12q0 108 86 108q37 0 77 -33t62.5 -33t31.5 14t9 51q0 12 12 12z" />
    <glyph glyph-name="utilde" unicode="&#x169;" horiz-adv-x="608" 
d="M557 0h-87q-43 0 -43 42v37h-3q-41 -86 -156 -86q-80 0 -126.5 47.5t-47.5 126.5v258h-57q-12 0 -12 12v43q0 12 12 12h96q43 0 43 -42v-263q0 -58 28 -90t82 -32q73 0 115 54q18 23 18 31v275h-54q-12 0 -12 12v43q0 12 12 12h124q12 0 12 -12v-413h56q13 0 13 -12v-43
q0 -12 -13 -12zM411 684h24q12 0 12 -12q0 -113 -87 -113q-32 0 -56.5 15.5t-44 31.5t-39 16t-29.5 -12.5t-10 -44.5q0 -12 -12 -12h-24q-12 0 -12 12q0 108 86 108q37 0 77 -33t62.5 -33t31.5 14t9 51q0 12 12 12z" />
    <glyph glyph-name="Umacron" unicode="&#x16a;" horiz-adv-x="814" 
d="M590 260v383h-77q-12 0 -12 12v51q0 12 12 12h241q12 0 12 -12v-51q0 -12 -12 -12h-77v-374q0 -135 -70.5 -205.5t-199 -70.5t-199.5 70.5t-71 205.5v374h-76q-13 0 -13 12v51q0 12 13 12h240q13 0 13 -12v-51q0 -12 -13 -12h-77v-377q0 -192 184 -192q94 0 138 49.5
t44 136.5zM550 780h-296q-13 0 -13 13v42q0 14 13 14h296q13 0 13 -14v-42q0 -13 -13 -13z" />
    <glyph glyph-name="umacron" unicode="&#x16b;" horiz-adv-x="608" 
d="M557 0h-87q-43 0 -43 42v37h-3q-41 -86 -156 -86q-80 0 -126.5 47.5t-47.5 126.5v258h-57q-12 0 -12 12v43q0 12 12 12h96q43 0 43 -42v-263q0 -58 28 -90t82 -32q73 0 115 54q18 23 18 31v275h-54q-12 0 -12 12v43q0 12 12 12h124q12 0 12 -12v-413h56q13 0 13 -12v-43
q0 -12 -13 -12zM435 554h-296q-13 0 -13 13v42q0 14 13 14h296q13 0 13 -14v-42q0 -13 -13 -13z" />
    <glyph glyph-name="Ubreve" unicode="&#x16c;" horiz-adv-x="814" 
d="M590 260v383h-77q-12 0 -12 12v51q0 12 12 12h241q12 0 12 -12v-51q0 -12 -12 -12h-77v-374q0 -135 -70.5 -205.5t-199 -70.5t-199.5 70.5t-71 205.5v374h-76q-13 0 -13 12v51q0 12 13 12h240q13 0 13 -12v-51q0 -12 -13 -12h-77v-377q0 -192 184 -192q94 0 138 49.5
t44 136.5zM508 941h32q13 0 13 -13q0 -67 -39 -103t-101.5 -36t-101 36t-38.5 103q0 13 13 13h32q13 0 13 -13q0 -41 23 -64.5t58 -23.5t59 23.5t24 64.5q0 13 13 13z" />
    <glyph glyph-name="ubreve" unicode="&#x16d;" horiz-adv-x="608" 
d="M557 0h-87q-43 0 -43 42v37h-3q-41 -86 -156 -86q-80 0 -126.5 47.5t-47.5 126.5v258h-57q-12 0 -12 12v43q0 12 12 12h96q43 0 43 -42v-263q0 -58 28 -90t82 -32q73 0 115 54q18 23 18 31v275h-54q-12 0 -12 12v43q0 12 12 12h124q12 0 12 -12v-413h56q13 0 13 -12v-43
q0 -12 -13 -12zM380 715h32q13 0 13 -13q0 -67 -39 -103t-101.5 -36t-101 36t-38.5 103q0 13 13 13h32q13 0 13 -13q0 -41 23 -64.5t58 -23.5t59 23.5t24 64.5q0 13 13 13z" />
    <glyph glyph-name="Uring" unicode="&#x16e;" horiz-adv-x="814" 
d="M459 829q-17 -29 -54 -29q-11 0 -28 10q-25 15 -25 50q0 14 10 31q15 25 49 25q14 0 31 -10q25 -15 25 -50q0 -14 -8 -27zM434.5 870.5q-5.5 10.5 -13.5 13.5t-13 3q-19 0 -26 -20q-4 -11 1.5 -21.5t17 -14.5t21.5 1t14 16.5t-1.5 22zM590 260v383h-77q-12 0 -12 12v51
q0 12 12 12h241q12 0 12 -12v-51q0 -12 -12 -12h-77v-374q0 -135 -70.5 -205.5t-199 -70.5t-199.5 70.5t-71 205.5v374h-76q-13 0 -13 12v51q0 12 13 12h240q13 0 13 -12v-51q0 -12 -13 -12h-77v-377q0 -192 184 -192q94 0 138 49.5t44 136.5z" />
    <glyph glyph-name="uring" unicode="&#x16f;" horiz-adv-x="608" 
d="M340 603q-17 -29 -54 -29q-11 0 -28 10q-25 15 -25 50q0 14 10 31q15 25 49 25q14 0 31 -10q25 -15 25 -50q0 -14 -8 -27zM315.5 644.5q-5.5 10.5 -13.5 13.5t-13 3q-19 0 -26 -20q-4 -11 1.5 -21.5t17 -14.5t21.5 1t14 16.5t-1.5 22zM557 0h-87q-43 0 -43 42v37h-3
q-41 -86 -156 -86q-80 0 -126.5 47.5t-47.5 126.5v258h-57q-12 0 -12 12v43q0 12 12 12h96q43 0 43 -42v-263q0 -58 28 -90t82 -32q73 0 115 54q18 23 18 31v275h-54q-12 0 -12 12v43q0 12 12 12h124q12 0 12 -12v-413h56q13 0 13 -12v-43q0 -12 -13 -12z" />
    <glyph glyph-name="Uhungarumlaut" unicode="&#x170;" horiz-adv-x="814" 
d="M590 260v383h-77q-12 0 -12 12v51q0 12 12 12h241q12 0 12 -12v-51q0 -12 -12 -12h-77v-374q0 -135 -70.5 -205.5t-199 -70.5t-199.5 70.5t-71 205.5v374h-76q-13 0 -13 12v51q0 12 13 12h240q13 0 13 -12v-51q0 -12 -13 -12h-77v-377q0 -192 184 -192q94 0 138 49.5
t44 136.5zM297 807q-5 -3 -10 -3t-9 6l-25 29q-4 5 -4 10t6 9l161 141q4 5 8.5 5t10.5 -6l31 -38q8 -11 -1 -19zM469 807q-4 -3 -9 -3t-10 6l-25 29q-4 5 -4 10t6 9l161 141q5 5 9.5 5t9.5 -6l32 -38q3 -5 3 -10t-5 -9z" />
    <glyph glyph-name="uhungarumlaut" unicode="&#x171;" horiz-adv-x="608" 
d="M557 0h-87q-43 0 -43 42v37h-3q-41 -86 -156 -86q-80 0 -126.5 47.5t-47.5 126.5v258h-57q-12 0 -12 12v43q0 12 12 12h96q43 0 43 -42v-263q0 -58 28 -90t82 -32q73 0 115 54q18 23 18 31v275h-54q-12 0 -12 12v43q0 12 12 12h124q12 0 12 -12v-413h56q13 0 13 -12v-43
q0 -12 -13 -12zM159 581q-5 -3 -10 -3t-9 6l-25 29q-4 5 -4 10t6 9l161 141q4 5 8.5 5t10.5 -6l31 -38q8 -11 -1 -19zM331 581q-4 -3 -9 -3t-10 6l-25 29q-4 5 -4 10t6 9l161 141q5 5 9.5 5t9.5 -6l32 -38q3 -5 3 -10t-5 -9z" />
    <glyph glyph-name="Uogonek" unicode="&#x172;" horiz-adv-x="814" 
d="M590 260v383h-77q-12 0 -12 12v51q0 12 12 12h241q12 0 12 -12v-51q0 -12 -12 -12h-77v-374q0 -130 -64.5 -200t-183.5 -75q-58 -34 -58 -76q0 -16 10.5 -25t29.5 -9t34.5 8.5t20.5 0.5l9 -13q8 -11 -4 -17q-34 -24 -71.5 -24t-59 20.5t-21.5 52.5q0 54 56 82
q-114 8 -176 78t-62 197v374h-76q-13 0 -13 12v51q0 12 13 12h240q13 0 13 -12v-51q0 -12 -13 -12h-77v-377q0 -192 184 -192q94 0 138 49.5t44 136.5z" />
    <glyph glyph-name="uogonek" unicode="&#x173;" horiz-adv-x="608" 
d="M543 0q-70 -35 -70 -82q0 -16 10.5 -25t29.5 -9t34.5 8.5t20.5 0.5l9 -13q3 -4 3 -8.5t-7 -8.5q-34 -24 -71.5 -24t-59 20.5t-21.5 53t21.5 55t47.5 32.5h-20q-43 0 -43 42v37h-3q-41 -86 -156 -86q-80 0 -126.5 47.5t-47.5 126.5v258h-57q-12 0 -12 12v43q0 12 12 12h96
q43 0 43 -42v-263q0 -58 28 -90t82 -32q73 0 115 54q18 23 18 31v275h-54q-12 0 -12 12v43q0 12 12 12h124q12 0 12 -12v-413h56q13 0 13 -12v-43q0 -12 -13 -12h-14z" />
    <glyph glyph-name="Wcircumflex" unicode="&#x174;" horiz-adv-x="1093" 
d="M518 985q4 4 9.5 4t10.5 -5l155 -135q8 -10 2 -19l-25 -29q-8 -10 -19 -2l-124 105l-122 -105q-10 -9 -19 2l-25 29q-7 11 2 19zM748 0h-38q-37 0 -47 40l-116 508h-3l-114 -508q-10 -40 -48 -40h-37q-35 0 -48 40l-183 603h-63q-13 0 -13 12v51q0 12 13 12h225
q13 0 13 -12v-51q0 -12 -13 -12h-70l155 -537h6l139 612h80l140 -612h6l155 537h-71q-12 0 -12 12v51q0 12 12 12h226q12 0 12 -12v-51q0 -12 -12 -12h-64l-183 -603q-12 -40 -47 -40z" />
    <glyph glyph-name="wcircumflex" unicode="&#x175;" horiz-adv-x="812" 
d="M400 759q4 4 9.5 4t10.5 -5l155 -135q8 -10 2 -19l-25 -29q-8 -10 -19 -2l-124 105l-122 -105q-10 -9 -19 2l-25 29q-7 11 2 19zM576 0h-59q-21 0 -24 21l-85 335h-2l-85 -335q-4 -21 -25 -21h-58q-18 0 -24 21l-132 404h-56q-12 0 -12 12v43q0 12 12 12h187q12 0 12 -12
v-43q0 -12 -12 -12h-46l101 -337h2l88 337h-39q-12 0 -12 12v43q0 12 12 12h176q12 0 12 -12v-43q0 -12 -12 -12h-39l88 -337h2l100 337h-45q-13 0 -13 12v43q0 12 13 12h186q12 0 12 -12v-43q0 -12 -12 -12h-55l-132 -404q-8 -21 -24 -21z" />
    <glyph glyph-name="Ycircumflex" unicode="&#x176;" horiz-adv-x="759" 
d="M500 0h-241q-12 0 -12 12v51q0 12 12 12h77v214l-40 69q-130 231 -167 285h-68q-13 0 -13 12v51q0 12 13 12h225q12 0 12 -12v-51q0 -12 -12 -12h-66l157 -278h6l156 278h-66q-12 0 -12 12v51q0 12 12 12h226q12 0 12 -12v-51q0 -12 -12 -12h-69q-49 -72 -127.5 -212
t-79.5 -141v-215h77q12 0 12 -12v-51q0 -12 -12 -12zM505 801q-4 -6 -9 -6t-10 4l-124 105l-122 -105q-4 -4 -9 -4t-10 6l-25 29q-3 5 -3 9.5t5 9.5l155 136q4 4 9.5 4t10.5 -5l155 -135q5 -6 5 -10.5t-3 -8.5z" />
    <glyph glyph-name="ycircumflex" unicode="&#x177;" horiz-adv-x="590" 
d="M261 11q-16 0 -26 25l-153 389h-55q-12 0 -12 12v43q0 12 12 12h181q13 0 13 -12v-43q0 -12 -13 -12h-41l129 -339h2l120 339h-45q-12 0 -12 12v43q0 12 12 12h186q12 0 12 -12v-43q0 -12 -12 -12h-56l-178 -489q-33 -89 -68.5 -129.5t-97 -40.5t-105.5 39q-10 10 -3 18
l25 32q9 7 18 1q24 -19 57 -19t54.5 22.5t41.5 77.5l27 74h-13zM442 575q-4 -6 -9 -6t-10 4l-124 105l-122 -105q-5 -4 -9.5 -4t-9.5 6l-25 29q-3 5 -3 9.5t5 9.5l155 136q4 4 9.5 4t10.5 -5l155 -135q5 -6 5 -10.5t-3 -8.5z" />
    <glyph glyph-name="Ydieresis" unicode="&#x178;" horiz-adv-x="759" 
d="M500 0h-241q-12 0 -12 12v51q0 12 12 12h77v214l-40 69q-130 231 -167 285h-68q-13 0 -13 12v51q0 12 13 12h225q12 0 12 -12v-51q0 -12 -12 -12h-66l157 -278h6l156 278h-66q-12 0 -12 12v51q0 12 12 12h226q12 0 12 -12v-51q0 -12 -12 -12h-69q-49 -72 -127.5 -212
t-79.5 -141v-215h77q12 0 12 -12v-51q0 -12 -12 -12zM342 824q0 -18 -12.5 -30t-30.5 -12t-30 12t-12 30t12 30.5t30 12.5t30.5 -12.5t12.5 -30.5zM500 824q0 -18 -12.5 -30t-30.5 -12t-30 12t-12 30t12 30.5t30 12.5t30.5 -12.5t12.5 -30.5z" />
    <glyph glyph-name="Zacute" unicode="&#x179;" horiz-adv-x="641" 
d="M393 990q4 4 9 4t10 -5l31 -38q8 -10 -1 -19l-168 -134q-12 -7 -19 3l-25 29q-9 11 2 19zM580 0h-518q-14 0 -14 13v43q0 10 20 34l406 553h-342v-81q0 -14 -14 -14h-56q-14 0 -14 14v143q0 13 14 13h518q13 0 13 -13v-37q0 -17 -20 -41l-406 -552h343v81q0 14 13 14h57
q13 0 13 -14v-143q0 -13 -13 -13z" />
    <glyph glyph-name="zacute" unicode="&#x17a;" horiz-adv-x="519" 
d="M344 764q4 4 9 4t10 -5l31 -38q8 -10 -1 -19l-168 -134q-12 -7 -19 3l-25 29q-9 11 2 19zM468 0h-417q-13 0 -13 12v41q0 19 15 34l324 338h-271v-77q0 -12 -12 -12h-43q-13 0 -13 12v132q0 12 13 12h417q13 0 13 -12v-35q0 -18 -16 -32l-328 -346h275v79q0 12 13 12h43
q13 0 13 -12v-134q0 -12 -13 -12z" />
    <glyph glyph-name="Zdotaccent" unicode="&#x17b;" horiz-adv-x="641" 
d="M580 0h-518q-14 0 -14 13v43q0 10 20 34l406 553h-342v-81q0 -14 -14 -14h-56q-14 0 -14 14v143q0 13 14 13h518q13 0 13 -13v-37q0 -17 -20 -41l-406 -552h343v81q0 14 13 14h57q13 0 13 -14v-143q0 -13 -13 -13zM387 844q0 -22 -15 -37t-37 -15t-37 15t-15 37t15 37.5
t37 15.5t37 -15.5t15 -37.5z" />
    <glyph glyph-name="zdotaccent" unicode="&#x17c;" horiz-adv-x="519" 
d="M468 0h-417q-13 0 -13 12v41q0 19 15 34l324 338h-271v-77q0 -12 -12 -12h-43q-13 0 -13 12v132q0 12 13 12h417q13 0 13 -12v-35q0 -18 -16 -32l-328 -346h275v79q0 12 13 12h43q13 0 13 -12v-134q0 -12 -13 -12zM319 618q0 -22 -15 -37t-37 -15t-37 15t-15 37t15 37.5
t37 15.5t37 -15.5t15 -37.5z" />
    <glyph glyph-name="Zcaron" unicode="&#x17d;" horiz-adv-x="641" 
d="M345 804q-5 -5 -10.5 -5t-9.5 4l-155 136q-9 8 -2 19l25 28q4 6 9 6t10 -4l122 -105l124 105q5 4 10 4t9 -6l25 -28q6 -9 -2 -19zM580 0h-518q-14 0 -14 13v43q0 10 20 34l406 553h-342v-81q0 -14 -14 -14h-56q-14 0 -14 14v143q0 13 14 13h518q13 0 13 -13v-37
q0 -17 -20 -41l-406 -552h343v81q0 14 13 14h57q13 0 13 -14v-143q0 -13 -13 -13z" />
    <glyph glyph-name="zcaron" unicode="&#x17e;" horiz-adv-x="519" 
d="M275 578q-5 -5 -10.5 -5t-9.5 4l-155 136q-9 8 -2 19l25 28q4 6 9 6t10 -4l122 -105l124 105q5 4 10 4t9 -6l25 -28q6 -9 -2 -19zM468 0h-417q-13 0 -13 12v41q0 19 15 34l324 338h-271v-77q0 -12 -12 -12h-43q-13 0 -13 12v132q0 12 13 12h417q13 0 13 -12v-35
q0 -18 -16 -32l-328 -346h275v79q0 12 13 12h43q13 0 13 -12v-134q0 -12 -13 -12z" />
    <glyph glyph-name="florin" unicode="&#x192;" horiz-adv-x="507" 
d="M223 -62v488h-58q-12 0 -12 12v43q0 12 12 12h58v61q0 83 42.5 126.5t118.5 43.5q56 0 101 -40q6 -5 6 -9.5t-3 -7.5l-24 -31q-9 -9 -17 -2q-24 19 -60 19t-58.5 -25.5t-22.5 -74.5v-60h128q12 0 12 -12v-43q0 -12 -12 -12h-128v-489q0 -84 -42 -127.5t-110.5 -43.5
t-108.5 40q-6 5 -6 9.5t3 8.5l24 30q9 10 17 2q23 -18 55 -18q85 0 85 100z" />
    <glyph glyph-name="AEacute" unicode="&#x1fc;" horiz-adv-x="1044" 
d="M715 990q4 4 9 4t10 -5l31 -38q8 -10 -1 -19l-168 -134q-12 -7 -19 3l-25 29q-9 11 2 19zM984 0h-532q-12 0 -12 12v51q0 12 12 12h77v245h-209l-104 -245h69q13 0 13 -12v-51q0 -12 -13 -12h-224q-13 0 -13 12v51q0 12 13 12h67l242 568h-55q-12 0 -12 12v51q0 12 12 12
h669q12 0 12 -12v-161q0 -13 -12 -13h-54q-13 0 -13 13v98h-301v-248h253q12 0 12 -12v-51q0 -12 -12 -12h-253v-245h301v98q0 12 12 12h55q12 0 12 -12v-161q0 -12 -12 -12zM529 395v248h-71l-108 -248h179z" />
    <glyph glyph-name="aeacute" unicode="&#x1fd;" horiz-adv-x="890" 
d="M555 764q4 4 9 4t10 -5l31 -38q8 -10 -1 -19l-168 -134q-12 -7 -19 3l-25 29q-9 11 2 19zM722.5 5q-40.5 -13 -98 -13t-113.5 31t-87 88q-31 -46 -86 -82.5t-131.5 -36.5t-122.5 37.5t-46 101.5q0 82 71.5 120.5t196.5 38.5h84v13q0 67 -34 95.5t-96 28.5
q-61 0 -88 -11.5t-38.5 -18.5t-17.5 -11q-15 -12 -22 -2l-28 35q-7 8 2 16q17 22 70 43t125 21q142 0 183 -95q30 45 78 69.5t102 24.5q107 0 165 -65t58 -176v-8q0 -14 -14 -14h-360q4 -83 52.5 -128t109.5 -45t104.5 26t58.5 51q8 11 18 3l27 -27q6 -6 6 -10.5t-4.5 -11.5
t-18.5 -22t-39.5 -34t-66 -32zM390 236h-79q-187 0 -187 -94q0 -34 28.5 -56.5t65 -22.5t61.5 7.5t42 18.5t32 25q15 13 37 44l7 9q-7 28 -7 69zM727 393q-36 39 -95.5 39t-102.5 -36.5t-52 -105.5h289q-3 64 -39 103z" />
    <glyph glyph-name="Oslashacute" unicode="&#x1fe;" horiz-adv-x="793" 
d="M308 -51h-60q-12 0 -9 12l18 60q-96 41 -152.5 131t-56.5 211q0 164 103 262.5t246 98.5q33 0 68 -8l17 55q3 12 16 12h59q12 0 9 -12l-23 -78q91 -40 146 -125.5t55 -204.5q0 -165 -98.5 -267.5t-248.5 -102.5q-30 0 -62 8l-12 -40q-3 -12 -15 -12zM142 360
q0 -92 39 -156.5t101 -96.5l160 529q-25 8 -54 8q-96 -3 -171 -78t-75 -206zM651 360q0 89 -37.5 151.5t-96.5 94.5l-158 -525q24 -6 50 -6q98 5 170 80t72 205zM398 802q-5 -3 -10 -3t-9 6l-25 29q-4 5 -4 10t6 9l161 141q4 4 9 4t10 -5l31 -38q4 -5 4 -9.5t-5 -9.5z" />
    <glyph glyph-name="oslashacute" unicode="&#x1ff;" horiz-adv-x="575" 
d="M177 -29h-42q-14 0 -9 12l24 47q-52 32 -82 88.5t-30 129.5q0 115 71 183t179 68q48 0 91 -17l7 15q5 13 17 13h42q14 0 9 -13l-21 -40q103 -69 103 -209q0 -115 -70 -185t-179 -70q-41 0 -82 13l-12 -23q-6 -12 -16 -12zM288 429q-68 0 -117 -50t-49 -137.5t64 -138.5
l159 313q-29 13 -57 13zM289 63q69 0 116.5 51t47.5 134t-57 135l-157 -310q21 -10 50 -10zM250 572q-5 -3 -10 -3t-9 6l-25 29q-4 5 -4 10t6 9l161 141q4 4 9 4t10 -5l31 -38q4 -5 4 -9.5t-5 -9.5z" />
    <glyph glyph-name="Scommaaccent" unicode="&#x218;" horiz-adv-x="666" 
d="M310 -222v17q0 6 11.5 6t24 13.5t12.5 39.5l-2 11q-5 -5 -21 -5t-28.5 13t-12.5 33t14 34t36.5 14t37 -19.5t14.5 -64.5t-22 -71.5t-57 -26.5q-7 0 -7 6zM117 0h-56q-13 0 -13 12v234q0 13 13 13h63q12 0 12 -13v-21q0 -19 23 -50.5t46 -51.5t61.5 -34.5t83.5 -14.5
q77 0 120.5 32t43.5 89q0 33 -24.5 56.5t-63.5 37.5t-86.5 26t-95 27.5t-86.5 37t-63.5 60t-24.5 90.5q0 84 63.5 139t170.5 55q135 0 198 -79l-2 62q0 12 13 12h56q12 0 12 -12v-218q0 -12 -12 -12h-63q-12 0 -12 12v28q0 41 -46 83t-135 42q-66 0 -106.5 -31.5
t-40.5 -80.5q0 -35 25 -60t65 -40t88 -27.5t96 -27.5t88 -36t65 -57.5t25 -86.5q0 -88 -63 -145t-188 -57q-92 0 -152 37t-87 80l1 -98q0 -12 -12 -12z" />
    <glyph glyph-name="scommaaccent" unicode="&#x219;" horiz-adv-x="486" 
d="M216 -222v17q0 6 11.5 6t24 13.5t12.5 39.5l-2 11q-5 -5 -21 -5t-28.5 13t-12.5 33t14 34t36.5 14t37 -19.5t14.5 -64.5t-22 -71.5t-57 -26.5q-7 0 -7 6zM260 -7q-67 0 -107 25t-50 47h-2q2 -49 2 -52q0 -13 -14 -13h-34q-13 0 -13 13v150q0 13 13 13h39q14 0 14 -13v-20
q10 -30 42 -55q38 -30 95 -30q112 0 112 78q0 27 -31 43.5t-75.5 27.5t-88.5 25t-75 45.5t-31 79.5q0 65 47 103.5t120 38.5q99 0 142 -58h2q-2 36 -2 37q0 13 13 13h32q13 0 13 -13v-139q0 -13 -13 -13h-39q-14 0 -14 13v14q0 27 -31.5 53.5t-81.5 26.5t-78 -21t-28 -54.5
t31.5 -52t76.5 -29t90 -23.5t76.5 -43t31.5 -83t-45.5 -93.5t-138.5 -40.5z" />
    <glyph glyph-name="circumflex" unicode="&#x2c6;" horiz-adv-x="410" 
d="M347 575q-4 -6 -9 -6t-10 4l-124 105l-122 -105q-4 -4 -9 -4t-10 6l-25 29q-3 5 -3 9.5t5 9.5l155 136q4 4 9.5 4t10.5 -5l155 -135q5 -6 5 -10.5t-3 -8.5z" />
    <glyph glyph-name="caron" unicode="&#x2c7;" horiz-adv-x="410" 
d="M215 578q-5 -5 -10.5 -5t-9.5 4l-155 136q-5 5 -5 9.5t3 9.5l25 28q4 6 9 6t10 -4l122 -105l124 105q5 4 10 4t9 -6l25 -28q3 -4 3 -8.5t-5 -10.5z" />
    <glyph glyph-name="breve" unicode="&#x2d8;" horiz-adv-x="350" 
d="M270 715h32q13 0 13 -13q0 -67 -39 -103t-101.5 -36t-101 36t-38.5 103q0 13 13 13h32q13 0 13 -13q0 -41 23 -64.5t58 -23.5t59 23.5t24 64.5q0 13 13 13z" />
    <glyph glyph-name="dotaccent" unicode="&#x2d9;" horiz-adv-x="173" 
d="M139 618q0 -22 -15 -37t-37 -15t-37 15t-15 37t15 37.5t37 15.5t37 -15.5t15 -37.5z" />
    <glyph glyph-name="ring" unicode="&#x2da;" horiz-adv-x="225" 
d="M162 603q-17 -29 -54 -29q-11 0 -28 10q-25 15 -25 50q0 14 10 31q15 25 49 25q14 0 31 -10q25 -15 25 -50q0 -14 -8 -27zM125 606q16 8 16 27t-20 26q-5 2 -10 2q-19 0 -26 -20q-2 -5 -2 -10q0 -19 21 -26q5 -2 10 -2t11 3z" />
    <glyph glyph-name="ogonek" unicode="&#x2db;" horiz-adv-x="229" 
d="M191 -120q3 -4 3 -8.5t-7 -8.5q-34 -24 -71.5 -24t-59 20.5t-21.5 57t32.5 62t54.5 25.5h43q-78 -39 -78 -86q0 -16 10.5 -25t29.5 -9t34.5 8.5t20.5 0.5z" />
    <glyph glyph-name="tilde" unicode="&#x2dc;" horiz-adv-x="384" 
d="M313 684h24q12 0 12 -12q0 -113 -87 -113q-32 0 -56.5 15.5t-44 31.5t-39 16t-29.5 -12.5t-10 -44.5q0 -12 -12 -12h-24q-12 0 -12 12q0 108 86 108q37 0 77 -33t62.5 -33t31.5 14t9 51q0 12 12 12z" />
    <glyph glyph-name="hungarumlaut" unicode="&#x2dd;" horiz-adv-x="463" 
d="M83 581q-5 -3 -10 -3t-9 6l-25 29q-4 5 -4 10t6 9l161 141q4 5 8.5 5t10.5 -6l31 -38q8 -11 -1 -19zM255 581q-4 -3 -9 -3t-10 6l-25 29q-4 5 -4 10t6 9l161 141q5 5 9.5 5t9.5 -6l32 -38q3 -5 3 -10t-5 -9z" />
    <glyph glyph-name="Wgrave" unicode="&#x1e80;" horiz-adv-x="1093" 
d="M748 0h-38q-37 0 -47 40l-116 508h-3l-114 -508q-10 -40 -48 -40h-37q-35 0 -48 40l-183 603h-63q-13 0 -13 12v51q0 12 13 12h225q13 0 13 -12v-51q0 -12 -13 -12h-70l155 -537h6l139 612h80l140 -612h6l155 537h-71q-12 0 -12 12v51q0 12 12 12h226q12 0 12 -12v-51
q0 -12 -12 -12h-64l-183 -603q-12 -40 -47 -40zM592 801q-5 -6 -10 -6t-9 4l-168 134q-5 4 -5 9t3 10l32 37q5 6 10 6t9 -4l161 -142q6 -4 6 -9t-4 -10z" />
    <glyph glyph-name="wgrave" unicode="&#x1e81;" horiz-adv-x="812" 
d="M576 0h-59q-21 0 -24 21l-85 335h-2l-85 -335q-4 -21 -25 -21h-58q-18 0 -24 21l-132 404h-56q-12 0 -12 12v43q0 12 12 12h187q12 0 12 -12v-43q0 -12 -12 -12h-46l101 -337h2l88 337h-39q-12 0 -12 12v43q0 12 12 12h176q12 0 12 -12v-43q0 -12 -12 -12h-39l88 -337h2
l100 337h-45q-13 0 -13 12v43q0 12 13 12h186q12 0 12 -12v-43q0 -12 -12 -12h-55l-132 -404q-8 -21 -24 -21zM459 575q-5 -6 -10 -6t-9 4l-168 134q-5 4 -5 9t3 10l32 37q5 6 9.5 6t9.5 -4l161 -142q6 -4 6 -9t-4 -10z" />
    <glyph glyph-name="Wacute" unicode="&#x1e82;" horiz-adv-x="1093" 
d="M661 990q4 4 9 4t10 -5l31 -38q8 -10 -1 -19l-168 -134q-12 -7 -19 3l-25 29q-9 11 2 19zM748 0h-38q-37 0 -47 40l-116 508h-3l-114 -508q-10 -40 -48 -40h-37q-35 0 -48 40l-183 603h-63q-13 0 -13 12v51q0 12 13 12h225q13 0 13 -12v-51q0 -12 -13 -12h-70l155 -537h6
l139 612h80l140 -612h6l155 537h-71q-12 0 -12 12v51q0 12 12 12h226q12 0 12 -12v-51q0 -12 -12 -12h-64l-183 -603q-12 -40 -47 -40z" />
    <glyph glyph-name="wacute" unicode="&#x1e83;" horiz-adv-x="812" 
d="M487 764q4 4 9 4t10 -5l31 -38q8 -10 -1 -19l-168 -134q-12 -7 -19 3l-25 29q-9 11 2 19zM576 0h-59q-21 0 -24 21l-85 335h-2l-85 -335q-4 -21 -25 -21h-58q-18 0 -24 21l-132 404h-56q-12 0 -12 12v43q0 12 12 12h187q12 0 12 -12v-43q0 -12 -12 -12h-46l101 -337h2
l88 337h-39q-12 0 -12 12v43q0 12 12 12h176q12 0 12 -12v-43q0 -12 -12 -12h-39l88 -337h2l100 337h-45q-13 0 -13 12v43q0 12 13 12h186q12 0 12 -12v-43q0 -12 -12 -12h-55l-132 -404q-8 -21 -24 -21z" />
    <glyph glyph-name="Wdieresis" unicode="&#x1e84;" horiz-adv-x="1093" 
d="M508 824q0 -18 -12.5 -30t-30.5 -12t-30 12t-12 30t12 30.5t30 12.5t30.5 -12.5t12.5 -30.5zM666 824q0 -18 -12.5 -30t-30.5 -12t-30 12t-12 30t12 30.5t30 12.5t30.5 -12.5t12.5 -30.5zM748 0h-38q-37 0 -47 40l-116 508h-3l-114 -508q-10 -40 -48 -40h-37
q-35 0 -48 40l-183 603h-63q-13 0 -13 12v51q0 12 13 12h225q13 0 13 -12v-51q0 -12 -13 -12h-70l155 -537h6l139 612h80l140 -612h6l155 537h-71q-12 0 -12 12v51q0 12 12 12h226q12 0 12 -12v-51q0 -12 -12 -12h-64l-183 -603q-12 -40 -47 -40z" />
    <glyph glyph-name="wdieresis" unicode="&#x1e85;" horiz-adv-x="812" 
d="M375 598q0 -18 -12.5 -30t-30.5 -12t-30 12t-12 30t12 30.5t30 12.5t30.5 -12.5t12.5 -30.5zM533 598q0 -18 -12.5 -30t-30.5 -12t-30 12t-12 30t12 30.5t30 12.5t30.5 -12.5t12.5 -30.5zM576 0h-59q-21 0 -24 21l-85 335h-2l-85 -335q-4 -21 -25 -21h-58q-18 0 -24 21
l-132 404h-56q-12 0 -12 12v43q0 12 12 12h187q12 0 12 -12v-43q0 -12 -12 -12h-46l101 -337h2l88 337h-39q-12 0 -12 12v43q0 12 12 12h176q12 0 12 -12v-43q0 -12 -12 -12h-39l88 -337h2l100 337h-45q-13 0 -13 12v43q0 12 13 12h186q12 0 12 -12v-43q0 -12 -12 -12h-55
l-132 -404q-8 -21 -24 -21z" />
    <glyph glyph-name="Ygrave" unicode="&#x1ef2;" horiz-adv-x="759" 
d="M500 0h-241q-12 0 -12 12v51q0 12 12 12h77v214l-40 69q-130 231 -167 285h-68q-13 0 -13 12v51q0 12 13 12h225q12 0 12 -12v-51q0 -12 -12 -12h-66l157 -278h6l156 278h-66q-12 0 -12 12v51q0 12 12 12h226q12 0 12 -12v-51q0 -12 -12 -12h-69q-49 -72 -127.5 -212
t-79.5 -141v-215h77q12 0 12 -12v-51q0 -12 -12 -12zM464 801q-5 -6 -10 -6t-9 4l-168 134q-5 4 -5 9t3 10l32 37q5 6 10 6t9 -4l161 -142q6 -4 6 -9t-4 -10z" />
    <glyph glyph-name="ygrave" unicode="&#x1ef3;" horiz-adv-x="590" 
d="M261 11q-16 0 -26 25l-153 389h-55q-12 0 -12 12v43q0 12 12 12h181q13 0 13 -12v-43q0 -12 -13 -12h-41l129 -339h2l120 339h-45q-12 0 -12 12v43q0 12 12 12h186q12 0 12 -12v-43q0 -12 -12 -12h-56l-178 -489q-33 -89 -68.5 -129.5t-97 -40.5t-105.5 39q-10 10 -3 18
l25 32q9 7 18 1q24 -19 57 -19t54.5 22.5t41.5 77.5l27 74h-13zM364 575q-5 -6 -10 -6t-9 4l-168 134q-5 4 -5 9t3 10l32 37q5 6 10 6t9 -4l161 -142q6 -4 6 -9t-4 -10z" />
    <glyph glyph-name="endash" unicode="&#x2013;" horiz-adv-x="554" 
d="M503 222h-451q-14 0 -14 13v51q0 13 14 13h451q13 0 13 -13v-51q0 -13 -13 -13z" />
    <glyph glyph-name="emdash" unicode="&#x2014;" horiz-adv-x="879" 
d="M828 222h-776q-14 0 -14 13v51q0 13 14 13h776q13 0 13 -13v-51q0 -13 -13 -13z" />
    <glyph glyph-name="quoteleft" unicode="&#x2018;" horiz-adv-x="179" 
d="M124 770v-17q0 -6 -11.5 -6t-24 -13.5t-12.5 -39.5l2 -12q6 5 22 5t28.5 -12.5t12.5 -33t-14 -34t-37 -13.5t-37.5 19t-14.5 64.5t22.5 72t56.5 26.5q7 0 7 -6z" />
    <glyph glyph-name="quoteright" unicode="&#x2019;" horiz-adv-x="179" 
d="M55 567v17q0 6 11 6t23.5 13.5t12.5 39.5l-2 12q-5 -5 -21 -5t-28.5 13t-12.5 33t13.5 33.5t36.5 13.5t38 -19t15 -64.5t-22.5 -72t-57.5 -26.5q-6 0 -6 6z" />
    <glyph glyph-name="quotesinglbase" unicode="&#x201a;" horiz-adv-x="179" 
d="M55 -90v17q0 6 11 6t23.5 13.5t12.5 39.5l-2 12q-5 -5 -21 -5t-28.5 13t-12.5 33t13.5 33.5t36.5 13.5t38 -19t15 -64.5t-22.5 -71.5t-57.5 -26q-6 0 -6 5z" />
    <glyph glyph-name="quotedblleft" unicode="&#x201c;" horiz-adv-x="341" 
d="M287 770v-17q0 -6 -11.5 -6t-24 -13.5t-12.5 -39.5l2 -12q5 5 21 5t28.5 -13t12.5 -33t-13.5 -33.5t-36.5 -13.5t-37.5 19t-14.5 64.5t22 72t57 26.5q7 0 7 -6zM124 770v-17q0 -6 -11.5 -6t-24 -13.5t-12.5 -39.5l2 -12q6 5 22 5t28.5 -12.5t12.5 -33t-14 -34t-37 -13.5
t-37.5 19t-14.5 64.5t22.5 72t56.5 26.5q7 0 7 -6z" />
    <glyph glyph-name="quotedblright" unicode="&#x201d;" horiz-adv-x="341" 
d="M55 567v17q0 6 11 6t23.5 13.5t12.5 39.5l-2 12q-5 -5 -21 -5t-28.5 13t-12.5 33t13.5 33.5t36.5 13.5t38 -19t15 -64.5t-22.5 -72t-57.5 -26.5q-6 0 -6 6zM217 567v17q0 6 11.5 6t24 13.5t12.5 39.5l-2 12q-5 -5 -21 -5t-28.5 13t-12.5 33t13.5 33.5t36.5 13.5t37.5 -19
t14.5 -64.5t-22 -72t-57 -26.5q-7 0 -7 6z" />
    <glyph glyph-name="quotedblbase" unicode="&#x201e;" horiz-adv-x="330" 
d="M55 -90v17q0 6 11 6t23.5 13.5t12.5 39.5l-2 12q-5 -5 -21 -5t-28.5 13t-12.5 33t13.5 33.5t36.5 13.5t38 -19t15 -64.5t-22.5 -71.5t-57.5 -26q-6 0 -6 5zM205 -90v17q0 6 11.5 6t24 13.5t12.5 39.5l-2 12q-5 -5 -21 -5t-28.5 13t-12.5 33t13.5 33.5t36.5 13.5t37.5 -19
t14.5 -64.5t-22 -71.5t-57 -26q-7 0 -7 5z" />
    <glyph glyph-name="dagger" unicode="&#x2020;" horiz-adv-x="425" 
d="M245 -131h-59q-13 0 -13 12v615h-121q-14 0 -14 13v51q0 13 14 13h121v175q0 12 13 12h59q12 0 12 -12v-175h116q13 0 13 -13v-51q0 -13 -13 -13h-116v-615q0 -12 -12 -12z" />
    <glyph glyph-name="daggerdbl" unicode="&#x2021;" horiz-adv-x="425" 
d="M245 -131h-59q-13 0 -13 12v190h-121q-14 0 -14 14v50q0 14 14 14h121v347h-121q-14 0 -14 13v51q0 13 14 13h121v175q0 12 13 12h59q12 0 12 -12v-175h116q13 0 13 -13v-51q0 -13 -13 -13h-116v-347h116q13 0 13 -14v-50q0 -14 -13 -14h-116v-190q0 -12 -12 -12z" />
    <glyph glyph-name="bullet" unicode="&#x2022;" horiz-adv-x="263" 
d="M199.5 265q-25.5 -26 -69 -26t-68 25.5t-24.5 70t24.5 71t67.5 26.5t69 -27t26 -70.5t-25.5 -69.5z" />
    <glyph glyph-name="ellipsis" unicode="&#x2026;" horiz-adv-x="397" 
d="M123 40q0 -20 -13.5 -33.5t-33.5 -13.5t-34 13.5t-14 33.5t14 33.5t34 13.5t33.5 -13.5t13.5 -33.5zM247 40q0 -20 -14 -33.5t-34 -13.5t-33.5 13.5t-13.5 33.5t14 33.5t33.5 13.5t33.5 -13.5t14 -33.5zM369 40q0 -20 -14 -33.5t-34 -13.5t-33.5 13.5t-13.5 33.5t14 33.5
t33.5 13.5t33.5 -13.5t14 -33.5z" />
    <glyph glyph-name="perthousand" unicode="&#x2030;" horiz-adv-x="1085" 
d="M183 359q-68 0 -106.5 50.5t-38.5 132t39.5 132t106 50.5t105 -50t38.5 -132t-38 -132.5t-106 -50.5zM183 414q40 0 62.5 33.5t22.5 94.5t-22 94t-63 33t-63 -33t-22 -94t22.5 -94.5t62.5 -33.5zM571 -7q-68 0 -106.5 50.5t-38.5 132.5t39 132t105.5 50t105.5 -50
t39 -132t-38 -132.5t-106 -50.5zM571 48q40 0 62 33.5t22 94.5t-22 94t-62.5 33t-62.5 -33t-22 -94t22.5 -94.5t62.5 -33.5zM903 -7q-68 0 -106.5 50.5t-38.5 132.5t39 132t105.5 50t105.5 -50t39 -132t-38 -132.5t-106 -50.5zM839.5 81.5q22.5 -33.5 63 -33.5t62.5 33.5
t22 94.5t-22 94t-62.5 33t-63 -33t-22.5 -94t22.5 -94.5zM276 -74h-60q-10 0 -10 8q0 2 1 4l242 810q5 12 17 12h59q9 0 9 -6q0 -3 -1 -6l-242 -810q-3 -12 -15 -12z" />
    <glyph glyph-name="fraction" unicode="&#x2044;" horiz-adv-x="405" 
d="M108 -74h-60q-10 0 -10 8q0 2 1 4l242 810q5 12 17 12h59q9 0 9 -6q0 -3 -1 -6l-242 -810q-3 -12 -15 -12z" />
    <glyph glyph-name="Euro" unicode="&#x20ac;" horiz-adv-x="716" 
d="M678 68q0 -4 -5 -8q-83 -67 -209 -67t-214 68t-119 186h-80q-13 0 -13 12v37q0 12 13 12h68q-3 21 -3 46t2 47h-67q-13 0 -13 12v36q0 13 13 13h76q27 122 116.5 192t197 70t207.5 -63q9 -7 2 -17l-34 -42q-8 -10 -17 -2q-58 42 -140 42t-147 -46.5t-88 -133.5h264
q13 0 13 -13v-36q0 -12 -13 -12h-277q-2 -12 -2 -40.5t3 -52.5h218q13 0 13 -12v-37q0 -12 -13 -12h-199q26 -83 89 -126.5t138 -43.5q99 0 162 44q11 7 17 0l36 -43q5 -6 5 -10z" />
    <glyph glyph-name="trademark" unicode="&#x2122;" horiz-adv-x="1035" 
d="M313 288h-155q-8 0 -8 8v38q0 8 8 8h46v322h-111v-54q0 -8 -8 -8h-38q-9 0 -9 8v101q0 7 9 7h376q8 0 8 -7v-101q0 -8 -8 -8h-39q-8 0 -8 8v54h-108v-322h45q8 0 8 -8v-38q0 -8 -8 -8zM989 288h-145q-7 0 -7 7v40q0 7 7 7h39v287h-1l-112 -280q-7 -19 -26.5 -19t-25.5 19
l-112 280h-2v-287h39q7 0 7 -7v-40q0 -7 -7 -7h-144q-7 0 -7 7v40q0 7 7 7h44v322h-44q-7 0 -7 7v40q0 7 7 7h103q21 0 29 -20l87 -214l25 -72h2q14 44 25 72l86 214q8 20 29 20h104q8 0 8 -7v-40q0 -7 -8 -7h-44v-322h44q8 0 8 -7v-40q0 -7 -8 -7z" />
    <glyph glyph-name="onethird" unicode="&#x2153;" horiz-adv-x="698" 
d="M238 -74h-59q-12 0 -9 12l242 810q4 12 17 12h59q12 0 8 -12l-242 -810q-3 -12 -16 -12zM527 -4q-77 0 -122 58q-5 5 0 8l26 24q4 4 12 -4t14.5 -14t26.5 -14t43 -8q76 0 76 58q0 29 -19.5 44.5t-55.5 15.5h-18q-8 0 -8 7v29q0 7 8 7h14q26 0 47 13t21 38q0 52 -63 52
q-26 0 -42.5 -13t-16.5 -26.5t-6 -13.5h-39q-6 0 -6 8q0 43 30 69.5t84.5 26.5t84.5 -29t30 -64t-21 -56.5t-37 -23.5q18 -2 35 -16q34 -27 34 -73.5t-36.5 -74.5t-95.5 -28zM262 362h-191q-9 0 -9 10v29q0 9 9 9h73v250l-73 -55q-6 -4 -10 1l-21 28q-1 2 -1 4.5t4 5.5
l97 74q5 3 13 3h39q8 0 8 -9v-302h62q10 0 10 -9v-29q0 -10 -10 -10z" />
    <glyph glyph-name="minus" unicode="&#x2212;" horiz-adv-x="414" 
d="M363 222h-311q-14 0 -14 13v51q0 13 14 13h311q13 0 13 -13v-51q0 -13 -13 -13z" />
    <glyph glyph-name="approxequal" unicode="&#x2248;" horiz-adv-x="391" 
d="M317 441h23q13 0 13 -12q0 -113 -88 -113q-46 0 -79 33t-58 33q-41 0 -41 -60q0 -12 -13 -12h-23q-13 0 -13 12q0 108 86 108q38 0 77.5 -33.5t61.5 -33.5t31.5 14.5t9.5 51.5q0 12 13 12zM317 285h23q13 0 13 -12q0 -113 -88 -113q-46 0 -79 33t-58 33q-41 0 -41 -60
q0 -12 -13 -12h-23q-13 0 -13 12q0 108 86 108q30 0 54 -17t44.5 -33.5t41.5 -16.5t30.5 14.5t9.5 51.5q0 12 13 12z" />
    <glyph glyph-name="notequal" unicode="&#x2260;" horiz-adv-x="423" 
d="M372 100h-181l-14 -47q-3 -12 -15 -12h-41q-12 0 -9 12l14 47h-74q-14 0 -14 13v51q0 13 14 13h97l48 158h-145q-14 0 -14 14v50q0 14 14 14h168l20 66q4 12 17 12h40q13 0 8 -12l-20 -66h87q13 0 13 -14v-50q0 -14 -13 -14h-110l-48 -158h158q13 0 13 -13v-51
q0 -13 -13 -13z" />
    <glyph glyph-name="commaaccent" unicode="&#xf6c3;" horiz-adv-x="172" 
d="M51 -222v17q0 6 11.5 6t24 13.5t12.5 39.5l-2 11q-5 -5 -21 -5t-28.5 13t-12.5 33t13.5 34t36.5 14t37.5 -19.5t14.5 -64.5t-22 -71.5t-57 -26.5q-7 0 -7 6z" />
    <glyph glyph-name="agrave.alt" 
d="M562 0h-87q-43 0 -43 42v58h-2q-47 -107 -167 -107q-102 0 -163.5 71t-61.5 184t62.5 182t162.5 69q66 0 107.5 -26.5t58.5 -64.5h1v71q0 13 12 13h52q12 0 12 -13v-412h56q12 0 12 -12v-43q0 -12 -12 -12zM164 113.5q44 -50.5 110 -50.5t109.5 50t43.5 134t-43.5 133
t-109.5 49t-110 -50t-44 -132.5t44 -133zM348 575q-5 -6 -10 -6t-9 4l-168 134q-5 4 -5 9t3 10l32 37q5 6 10 6t9 -4l161 -142q6 -4 6 -9t-4 -10z" />
    <glyph glyph-name="a.alt" 
d="M562 0h-87q-43 0 -43 42v58h-2q-47 -107 -167 -107q-102 0 -163.5 71t-61.5 184t62.5 182t162.5 69q66 0 107.5 -26.5t58.5 -64.5h1v71q0 13 12 13h52q12 0 12 -13v-412h56q12 0 12 -12v-43q0 -12 -12 -12zM164 113.5q44 -50.5 110 -50.5t109.5 50t43.5 134t-43.5 133
t-109.5 49t-110 -50t-44 -132.5t44 -133z" />
    <glyph glyph-name="y.alt" horiz-adv-x="557" 
d="M263 -234q-58 0 -85.5 9t-42.5 15t-27 14q-54 33 -41 46l25 37q8 9 22 -3q53 -46 137 -46q176 0 176 143v98h-3q-41 -86 -156 -86q-80 0 -126.5 47.5t-47.5 126.5v258h-57q-12 0 -12 12v43q0 12 12 12h96q43 0 43 -42v-263q0 -58 28 -90t82 -32q73 0 115 54q18 23 18 31
v275h-54q-12 0 -12 12v43q0 12 12 12h124q12 0 12 -12l1 -499q0 -107 -66 -161t-173 -54z" />
    <glyph glyph-name="atilde.alt" 
d="M562 0h-87q-43 0 -43 42v58h-2q-47 -107 -167 -107q-102 0 -163.5 71t-61.5 184t62.5 182t162.5 69q66 0 107.5 -26.5t58.5 -64.5h1v71q0 13 12 13h52q12 0 12 -13v-412h56q12 0 12 -12v-43q0 -12 -12 -12zM164 113.5q44 -50.5 110 -50.5t109.5 50t43.5 134t-43.5 133
t-109.5 49t-110 -50t-44 -132.5t44 -133zM412 684h24q12 0 12 -12q0 -113 -87 -113q-32 0 -56.5 15.5t-44 31.5t-39 16t-29.5 -12.5t-10 -44.5q0 -12 -12 -12h-24q-12 0 -12 12q0 108 86 108q37 0 77 -33t62.5 -33t31.5 14t9 51q0 12 12 12z" />
    <glyph glyph-name="yacute.alt" horiz-adv-x="557" 
d="M263 -234q-58 0 -85.5 9t-42.5 15t-27 14q-54 33 -41 46l25 37q8 9 22 -3q53 -46 137 -46q176 0 176 143v98h-3q-41 -86 -156 -86q-80 0 -126.5 47.5t-47.5 126.5v258h-57q-12 0 -12 12v43q0 12 12 12h96q43 0 43 -42v-263q0 -58 28 -90t82 -32q73 0 115 54q18 23 18 31
v275h-54q-12 0 -12 12v43q0 12 12 12h124q12 0 12 -12l1 -499q0 -107 -66 -161t-173 -54zM228 572q-5 -3 -10 -3t-9 6l-25 29q-4 5 -4 10t6 9l161 141q4 4 9 4t10 -5l31 -38q4 -5 4 -9.5t-5 -9.5z" />
    <glyph glyph-name="abreve.alt" 
d="M562 0h-87q-43 0 -43 42v58h-2q-47 -107 -167 -107q-102 0 -163.5 71t-61.5 184t62.5 182t162.5 69q66 0 107.5 -26.5t58.5 -64.5h1v71q0 13 12 13h52q12 0 12 -13v-412h56q12 0 12 -12v-43q0 -12 -12 -12zM164 113.5q44 -50.5 110 -50.5t109.5 50t43.5 134t-43.5 133
t-109.5 49t-110 -50t-44 -132.5t44 -133zM387 715h32q13 0 13 -13q0 -67 -39 -103t-101.5 -36t-101 36t-38.5 103q0 13 13 13h32q13 0 13 -13q0 -41 23 -64.5t58 -23.5t59 23.5t24 64.5q0 13 13 13z" />
    <glyph glyph-name="ycircumflex.alt" horiz-adv-x="557" 
d="M263 -234q-58 0 -85.5 9t-42.5 15t-27 14q-54 33 -41 46l25 37q8 9 22 -3q53 -46 137 -46q176 0 176 143v98h-3q-41 -86 -156 -86q-80 0 -126.5 47.5t-47.5 126.5v258h-57q-12 0 -12 12v43q0 12 12 12h96q43 0 43 -42v-263q0 -58 28 -90t82 -32q73 0 115 54q18 23 18 31
v275h-54q-12 0 -12 12v43q0 12 12 12h124q12 0 12 -12l1 -499q0 -107 -66 -161t-173 -54zM427 575q-4 -6 -9 -6t-10 4l-124 105l-122 -105q-4 -4 -9 -4t-10 6l-25 29q-3 5 -3 9.5t5 9.5l155 136q4 4 9.5 4t10.5 -5l155 -135q5 -6 5 -10.5t-3 -8.5z" />
    <glyph glyph-name="aacute.alt" 
d="M562 0h-87q-43 0 -43 42v58h-2q-47 -107 -167 -107q-102 0 -163.5 71t-61.5 184t62.5 182t162.5 69q66 0 107.5 -26.5t58.5 -64.5h1v71q0 13 12 13h52q12 0 12 -13v-412h56q12 0 12 -12v-43q0 -12 -12 -12zM164 113.5q44 -50.5 110 -50.5t109.5 50t43.5 134t-43.5 133
t-109.5 49t-110 -50t-44 -132.5t44 -133zM253 572q-5 -3 -10 -3t-9 6l-25 29q-4 5 -4 10t6 9l161 141q4 4 9 4t10 -5l31 -38q4 -5 4 -9.5t-5 -9.5z" />
    <glyph glyph-name="ydieresis.alt" horiz-adv-x="557" 
d="M263 -234q-58 0 -85.5 9t-42.5 15t-27 14q-54 33 -41 46l25 37q8 9 22 -3q53 -46 137 -46q176 0 176 143v98h-3q-41 -86 -156 -86q-80 0 -126.5 47.5t-47.5 126.5v258h-57q-12 0 -12 12v43q0 12 12 12h96q43 0 43 -42v-263q0 -58 28 -90t82 -32q73 0 115 54q18 23 18 31
v275h-54q-12 0 -12 12v43q0 12 12 12h124q12 0 12 -12l1 -499q0 -107 -66 -161t-173 -54zM250 598q0 -18 -12.5 -30t-30.5 -12t-30 12t-12 30t12 30.5t30 12.5t30.5 -12.5t12.5 -30.5zM408 598q0 -18 -12.5 -30t-30.5 -12t-30 12t-12 30t12 30.5t30 12.5t30.5 -12.5
t12.5 -30.5z" />
    <glyph glyph-name="aogonek.alt" 
d="M546 0q-70 -35 -70 -82q0 -16 10.5 -25t29.5 -9t34.5 8.5t20.5 0.5l9 -13q3 -4 3 -8.5t-7 -8.5q-34 -24 -71.5 -24t-59 20.5t-21.5 53t21.5 55t47.5 32.5h-18q-43 0 -43 42v58h-2q-47 -107 -167 -107q-102 0 -163.5 71t-61.5 184t62.5 182t162.5 69q66 0 107.5 -26.5
t58.5 -64.5h1v71q0 13 12 13h52q12 0 12 -13v-412h56q12 0 12 -12v-43q0 -12 -12 -12h-16zM164 113.5q44 -50.5 110 -50.5t109.5 50t43.5 134t-43.5 133t-109.5 49t-110 -50t-44 -132.5t44 -133z" />
    <glyph glyph-name="adieresis.alt" 
d="M562 0h-87q-43 0 -43 42v58h-2q-47 -107 -167 -107q-102 0 -163.5 71t-61.5 184t62.5 182t162.5 69q66 0 107.5 -26.5t58.5 -64.5h1v71q0 13 12 13h52q12 0 12 -13v-412h56q12 0 12 -12v-43q0 -12 -12 -12zM164 113.5q44 -50.5 110 -50.5t109.5 50t43.5 134t-43.5 133
t-109.5 49t-110 -50t-44 -132.5t44 -133zM261 598q0 -18 -12.5 -30t-30.5 -12t-30 12t-12 30t12 30.5t30 12.5t30.5 -12.5t12.5 -30.5zM419 598q0 -18 -12.5 -30t-30.5 -12t-30 12t-12 30t12 30.5t30 12.5t30.5 -12.5t12.5 -30.5z" />
    <glyph glyph-name="ygrave.alt" horiz-adv-x="557" 
d="M263 -234q-58 0 -85.5 9t-42.5 15t-27 14q-54 33 -41 46l25 37q8 9 22 -3q53 -46 137 -46q176 0 176 143v98h-3q-41 -86 -156 -86q-80 0 -126.5 47.5t-47.5 126.5v258h-57q-12 0 -12 12v43q0 12 12 12h96q43 0 43 -42v-263q0 -58 28 -90t82 -32q73 0 115 54q18 23 18 31
v275h-54q-12 0 -12 12v43q0 12 12 12h124q12 0 12 -12l1 -499q0 -107 -66 -161t-173 -54zM331 575q-5 -6 -10 -6t-9 4l-168 134q-5 4 -5 9t3 10l32 37q5 6 9.5 6t9.5 -4l161 -142q6 -4 6 -9t-4 -10z" />
    <glyph glyph-name="aring.alt" 
d="M562 0h-87q-43 0 -43 42v58h-2q-47 -107 -167 -107q-102 0 -163.5 71t-61.5 184t62.5 182t162.5 69q66 0 107.5 -26.5t58.5 -64.5h1v71q0 13 12 13h52q12 0 12 -13v-412h56q12 0 12 -12v-43q0 -12 -12 -12zM164 113.5q44 -50.5 110 -50.5t109.5 50t43.5 134t-43.5 133
t-109.5 49t-110 -50t-44 -132.5t44 -133zM339 603q-17 -29 -54 -29q-11 0 -28 10q-25 15 -25 50q0 14 10 31q15 25 49 25q14 0 31 -10q25 -15 25 -50q0 -14 -8 -27zM302 606q16 8 16 27t-20 26q-5 2 -10 2q-19 0 -26 -20q-2 -5 -2 -10q0 -19 21 -26q5 -2 10 -2t11 3z" />
    <glyph glyph-name="acircumflex.alt" 
d="M562 0h-87q-43 0 -43 42v58h-2q-47 -107 -167 -107q-102 0 -163.5 71t-61.5 184t62.5 182t162.5 69q66 0 107.5 -26.5t58.5 -64.5h1v71q0 13 12 13h52q12 0 12 -13v-412h56q12 0 12 -12v-43q0 -12 -12 -12zM164 113.5q44 -50.5 110 -50.5t109.5 50t43.5 134t-43.5 133
t-109.5 49t-110 -50t-44 -132.5t44 -133zM444 575q-4 -6 -9 -6t-10 4l-124 105l-122 -105q-5 -4 -9.5 -4t-9.5 6l-25 29q-3 5 -3 9.5t5 9.5l155 136q4 4 9.5 4t10.5 -5l155 -135q5 -6 5 -10.5t-3 -8.5z" />
    <glyph glyph-name="k.alt" horiz-adv-x="633" 
d="M288 233h37q48 0 90.5 29t42.5 71.5t-29.5 71t-76 28.5t-86.5 -35q-68 -61 -76 -153l-1 -178h53q13 0 13 -12v-43q0 -12 -13 -12h-191q-13 0 -13 12l1 43q0 12 12 12h55l1 584h-56q-13 0 -12 12l-1 43q2 12 13 12h126q12 0 12 -12v-322q57 115 173 115q84 0 131 -46.5
t47 -113t-51 -105.5t-113 -45l151 -122h43q13 0 13 -12l-1 -43q0 -12 -12 -12h-54q-26 0 -55 31l-180 153q-6 4 -6 10l1 27q0 12 12 12z" />
    <glyph glyph-name="kcommaaccent.alt" horiz-adv-x="633" 
d="M288 233h37q48 0 90.5 29t42.5 71.5t-29.5 71t-76 28.5t-86.5 -35q-68 -61 -76 -153l-1 -178h53q13 0 13 -12v-43q0 -12 -13 -12h-191q-13 0 -13 12l1 43q0 12 12 12h55l1 584h-56q-13 0 -12 12l-1 43q2 12 13 12h126q12 0 12 -12v-322q57 115 173 115q84 0 131 -46.5
t47 -113t-51 -105.5t-113 -45l151 -122h43q13 0 13 -12l-1 -43q0 -12 -12 -12h-54q-26 0 -55 31l-180 153q-6 4 -6 10l1 27q0 12 12 12zM285 -222v17q0 6 11.5 6t24 13.5t12.5 39.5l-2 11q-5 -5 -21 -5t-28.5 13t-12.5 33t13.5 34t36.5 14t37.5 -19.5t14.5 -64.5t-22 -71.5
t-57 -26.5q-7 0 -7 6z" />
    <glyph glyph-name="amacron.alt" 
d="M562 0h-87q-43 0 -43 42v58h-2q-47 -107 -167 -107q-102 0 -163.5 71t-61.5 184t62.5 182t162.5 69q66 0 107.5 -26.5t58.5 -64.5h1v71q0 13 12 13h52q12 0 12 -13v-412h56q12 0 12 -12v-43q0 -12 -12 -12zM164 113.5q44 -50.5 110 -50.5t109.5 50t43.5 134t-43.5 133
t-109.5 49t-110 -50t-44 -132.5t44 -133zM432 554h-296q-13 0 -13 13v42q0 14 13 14h296q13 0 13 -14v-42q0 -13 -13 -13z" />
    </font>
</defs>
</svg>
