<?xml version="1.0" standalone="no"?>
<!DOCTYPE svg PUBLIC "-//W3C//DTD SVG 1.1//EN" "http://www.w3.org/Graphics/SVG/1.1/DTD/svg11.dtd" >
<svg xmlns="http://www.w3.org/2000/svg">
<metadata></metadata>
<defs>
<font id="maven_promedium" horiz-adv-x="1529" >
<font-face units-per-em="2048" ascent="1638" descent="-410" />
<missing-glyph horiz-adv-x="692" />
<glyph horiz-adv-x="2048" />
<glyph horiz-adv-x="2048" />
<glyph unicode="&#xd;" horiz-adv-x="682" />
<glyph unicode=" "  horiz-adv-x="692" />
<glyph unicode="&#x09;" horiz-adv-x="692" />
<glyph unicode="&#xa0;" horiz-adv-x="692" />
<glyph unicode="!" horiz-adv-x="800" d="M299 1366h195l-17 -1032h-162zM303 0v174h186v-174h-186z" />
<glyph unicode="&#x22;" horiz-adv-x="821" d="M166 1384h190l-34 -411h-119zM461 1384h190l-37 -411h-118z" />
<glyph unicode="#" horiz-adv-x="1210" d="M145 260v135h183l55 318h-180v135h203l38 221h144l-39 -221h256l39 221h143l-39 -221h137v-135h-159l-56 -318h158v-135h-180l-39 -221h-143l39 221h-259l-36 -221h-144l39 221h-160zM471 395h256l55 318h-256z" />
<glyph unicode="$" horiz-adv-x="1198" d="M158 993q0 145 96 256t299 131v209h127v-207q160 -10 307 -86v-188q-141 86 -307 90v-418q86 -31 145.5 -60.5t122 -78.5t95 -120t32.5 -163q0 -156 -103.5 -252t-291.5 -116v-211h-127v207q-193 6 -377 98v197q180 -109 377 -115v467q-76 23 -118 38t-102.5 46t-93 64.5 t-57 89t-24.5 122.5zM348 993q0 -57 51.5 -94t153.5 -74v367q-205 -35 -205 -199zM680 174q205 35 205 184q0 86 -53.5 138.5t-151.5 91.5v-414z" />
<glyph unicode="%" horiz-adv-x="1814" d="M145 981q0 178 75 278.5t222.5 100.5t222 -100.5t74.5 -278.5t-74.5 -277.5t-222 -99.5t-222.5 99.5t-75 277.5zM276 981q0 -133 38 -197.5t128 -64.5t128 64.5t38 197.5q0 135 -38 198.5t-128 63.5t-128 -63.5t-38 -198.5zM410 0l858 1366h151l-858 -1366h-151z M1087 385q0 176 75 276.5t222.5 100.5t222 -100.5t74.5 -276.5q0 -178 -74.5 -278.5t-222 -100.5t-222.5 100.5t-75 278.5zM1219 385q0 -135 37.5 -198.5t128 -63.5t128 63.5t37.5 198.5q0 133 -37.5 197.5t-128 64.5t-128 -64.5t-37.5 -197.5z" />
<glyph unicode="&#x26;" horiz-adv-x="1325" d="M111 385q0 115 54 216t210 192q-127 158 -127 272q0 131 93 225t226 94q135 0 227.5 -90t92.5 -221q0 -109 -56.5 -183.5t-183.5 -148.5l266 -319q37 84 54 176h176q-27 -168 -115 -313l238 -285h-228l-116 141q-157 -157 -374 -157h-3q-113 0 -200 39.5t-136 103 t-73.5 129.5t-24.5 129zM281 379q0 -31 11 -65.5t38.5 -75.5t84 -68t134.5 -27q156 0 270 123l-327 396q-74 -39 -121 -79t-64.5 -81t-21.5 -64.5t-4 -58.5zM416 1077.5q0 -65.5 114 -203.5q119 68 155 111t36 100q0 63 -43 105.5t-109 42.5q-63 0 -108 -45t-45 -110.5z" />
<glyph unicode="'" horiz-adv-x="524" d="M166 1384h190l-34 -411h-119z" />
<glyph unicode="(" horiz-adv-x="722" d="M190 627q0 440 211 856h185q-211 -416 -211 -856q0 -436 211 -858h-185q-211 422 -211 858z" />
<glyph unicode=")" horiz-adv-x="722" d="M133 -231q211 412 211 858q0 449 -211 856h184q211 -416 211 -856q0 -436 -211 -858h-184z" />
<glyph unicode="*" horiz-adv-x="841" d="M172 1118l162 70l-162 72l64 108l139 -100l-19 168h125l-14 -168l139 100l64 -108l-160 -72l160 -70l-64 -112l-139 102l14 -166h-125l19 166l-139 -102z" />
<glyph unicode="+" horiz-adv-x="1150" d="M199 545v141h297v297h141v-297h295v-141h-295v-295h-141v295h-297z" />
<glyph unicode="," horiz-adv-x="667" d="M152 -229l151 401h193l-172 -401h-172z" />
<glyph unicode="-" horiz-adv-x="950" d="M162 530v160h624v-160h-624z" />
<glyph unicode="." horiz-adv-x="712" d="M260 0v182h195v-182h-195z" />
<glyph unicode="/" horiz-adv-x="870" d="M-29 -201l752 1749h178l-754 -1749h-176z" />
<glyph unicode="0" horiz-adv-x="1351" d="M133 684q0 166 34 294t86 202.5t126 122t145.5 63.5t153.5 16q104 0 191 -29.5t171 -101t132.5 -216t48.5 -351.5q0 -168 -34 -295t-86 -202.5t-126 -123t-144.5 -63.5t-152.5 -16t-153.5 16t-145.5 63.5t-126 123t-86 202.5t-34 295zM324 684q0 -135 21.5 -234.5 t54 -154.5t82.5 -88t94.5 -42t101.5 -9q55 0 100 9t94.5 42t82 88t54 154.5t21.5 234.5t-21.5 233.5t-54 153.5t-82 88t-94.5 42t-100 9q-57 0 -101.5 -9t-94.5 -42t-82.5 -88t-54 -153.5t-21.5 -233.5z" />
<glyph unicode="1" horiz-adv-x="925" d="M211 1040v199l223 127h207v-1366h-190v1180z" />
<glyph unicode="2" horiz-adv-x="1189" d="M158 0v152q111 84 214 177t210.5 208.5t172 234.5t64.5 215q0 219 -303 219q-184 0 -336 -102v180q170 98 361 98q238 0 351.5 -115.5t113.5 -277.5q0 -346 -519 -799h533v-190h-862z" />
<glyph unicode="3" horiz-adv-x="1193" d="M166 63v187q160 -92 334 -92q338 0 338 239.5t-359 239.5h-119v168h115q295 0 295 199q0 200 -292 200h-3q-152 0 -278 -69v182q139 65 296 65h5q238 0 350.5 -110.5t112.5 -267.5q0 -177 -162 -273q229 -102 229 -332q0 -80 -27.5 -150.5t-86 -132t-161 -97 t-237.5 -35.5q-178 0 -350 79z" />
<glyph unicode="4" horiz-adv-x="1210" d="M78 430v170l600 766h213v-766h194v-170h-194v-430h-191v430h-622zM303 600h397v494z" />
<glyph unicode="5" horiz-adv-x="1228" d="M178 739l70 627h756v-176h-590l-33 -348q96 26 199 26h8q238 0 361.5 -112.5t123.5 -329.5t-124 -329.5t-361.5 -112.5t-401.5 102v205q133 -125 385 -125q180 0 246 65.5t66 194.5q0 131 -69 196.5t-263 65.5q-150 0 -277 -49z" />
<glyph unicode="6" horiz-adv-x="1202" d="M133 627q0 141 25.5 256.5t65.5 191.5t96.5 134.5t111.5 90t119.5 51t112 25.5t94.5 6q106 0 211 -28v-172q-81 24 -175 24h-8q-180 0 -295.5 -100t-154.5 -287q111 72 285 72q240 0 348 -128t108 -310q0 -193 -120.5 -331t-350.5 -138q-473 0 -473 643zM324 616 q2 -131 24.5 -224t50 -138t72.5 -68.5t70.5 -26.5t64.5 -3q88 0 149.5 32.5t87 85t35 94.5t9.5 85q0 264 -281 264q-176 0 -282 -101z" />
<glyph unicode="7" horiz-adv-x="1189" d="M143 1178v188h951v-180l-572 -1186h-211l580 1178h-748z" />
<glyph unicode="8" horiz-adv-x="1196" d="M125 416q0 104 57.5 188t147.5 131q-154 98 -154 283q0 150 105.5 257t324.5 107t324.5 -107.5t105.5 -258.5q0 -186 -151 -279q200 -105 200 -319q0 -180 -122.5 -307t-356 -127t-357.5 128t-124 304zM315 414q0 -37 9.5 -74t37 -82t90 -72.5t154.5 -27.5t154.5 27.5 t90.5 72.5t37 82t9 74q0 225 -291 225t-291 -225zM365 1022q0 -31 8 -60.5t30.5 -67.5t74.5 -60.5t128 -22.5t128 22.5t73.5 60.5t30 67.5t8.5 60.5q0 186 -240 186q-241 0 -241 -186z" />
<glyph unicode="9" horiz-adv-x="1212" d="M119 913q0 193 120.5 331t352.5 138q471 0 471 -643q0 -141 -25.5 -256.5t-65.5 -191.5t-96.5 -134.5t-111.5 -90t-119.5 -51t-112 -25.5t-94.5 -6q-106 0 -211 28v172q85 -24 176 -24h7q180 0 295.5 100t154.5 287q-111 -72 -285 -72q-240 0 -348 128t-108 310zM309 913 q0 -264 283 -264q176 0 282 101q-2 131 -24.5 224t-50 138t-72.5 68.5t-70.5 26.5t-64.5 3q-90 0 -151.5 -32.5t-87 -85t-35 -94.5t-9.5 -85z" />
<glyph unicode=":" horiz-adv-x="813" d="M313 94v180h193v-180h-193zM313 741v181h193v-181h-193z" />
<glyph unicode=";" horiz-adv-x="858" d="M184 -229l152 401h192l-172 -401h-172zM340 741v181h192v-181h-192z" />
<glyph unicode="&#x3c;" horiz-adv-x="1357" d="M246 477v148l850 379v-181l-643 -272l643 -272v-181z" />
<glyph unicode="=" horiz-adv-x="1306" d="M260 365v159h789v-159h-789zM260 698v160h789v-160h-789z" />
<glyph unicode="&#x3e;" horiz-adv-x="1337" d="M270 98v181l641 272l-641 272v181l848 -379v-148z" />
<glyph unicode="?" horiz-adv-x="1042" d="M164 1083v203q150 96 321 96q115 0 200 -33.5t132 -92t69.5 -126t22.5 -145.5q0 -82 -30.5 -146.5t-75.5 -106.5l-90 -83q-45 -41 -76 -100.5t-31 -134.5v-70h-180v76q0 104 30.5 184t76 127t89.5 86t74.5 81t30.5 89q0 219 -258 219q-166 0 -305 -123zM416 0v186h200 v-186h-200z" />
<glyph unicode="@" horiz-adv-x="1869" d="M170 371q0 184 79 348t204 273.5t280 174t311 64.5q82 0 171.5 -21.5t180.5 -74t162.5 -126t117.5 -188t46 -254.5q0 -129 -33.5 -239.5t-113.5 -188.5t-193 -78q-137 0 -186 127q-90 -127 -293 -127q-143 0 -227 64.5t-84 175.5q0 51 16.5 96t59.5 95.5t138 80t232 29.5 q84 0 142 -8q0 4 1 15.5t1 17.5q0 35 -6.5 59.5t-26 50t-62.5 37.5t-110 12q-131 0 -252 -49l18 129q135 45 252 45q156 0 239 -72.5t83 -211.5q0 -53 -9 -129l-16 -125q-4 -37 -4 -74v-25q2 -49 26.5 -72.5t76.5 -23.5q88 0 151.5 97.5t63.5 287.5q0 143 -56.5 255 t-145.5 173.5t-183.5 92t-184.5 30.5q-184 0 -357 -98t-284.5 -273.5t-111.5 -377.5q0 -127 45 -229.5t109.5 -162t145.5 -99.5t144.5 -54.5t114.5 -14.5q250 0 442 103l-18 -133q-184 -82 -428 -82q-82 0 -169 22.5t-177.5 74.5t-161 128t-115.5 193.5t-45 259.5zM725 305 q0 -108 175 -108h3q141 0 188.5 51t61.5 153q4 49 8 74q-55 6 -123 6q-313 0 -313 -176z" />
<glyph unicode="A" horiz-adv-x="1359" d="M43 0l545 1366h186l543 -1366h-205l-147 385h-570l-147 -385h-205zM463 561h434l-217 567z" />
<glyph unicode="B" horiz-adv-x="1280" d="M178 0v1366h473q139 0 234.5 -37t138.5 -98.5t59.5 -117.5t16.5 -120q0 -59 -16.5 -109t-40 -80t-48 -51.5t-41.5 -29.5l-16 -8l26 -11q16 -6 57.5 -32.5t73 -59t58.5 -92t27 -129.5q0 -68 -18.5 -127t-65.5 -123.5t-150.5 -102.5t-255.5 -38h-512zM369 168l309 2 q158 0 234.5 53t76.5 176q0 127 -84 173t-241 46h-295v-450zM369 788h280q127 0 193.5 42t66.5 157q0 117 -70.5 163t-207.5 46h-262v-408z" />
<glyph unicode="C" horiz-adv-x="1286" d="M125 684q0 168 39 295t100.5 202.5t148.5 123t170 63.5t177 16q213 0 418 -81v-177q-193 86 -396 86q-242 0 -351 -124.5t-109 -403.5q0 -276 109 -402t351 -126q203 0 396 86v-176q-205 -82 -418 -82q-94 0 -177 16t-170 63.5t-148.5 123t-100.5 202.5t-39 295z" />
<glyph unicode="D" horiz-adv-x="1380" d="M178 0v1366h436q315 0 478 -174t163 -510t-162.5 -509t-478.5 -173h-436zM369 168h215q250 0 366.5 124t116.5 390q0 268 -116.5 392t-366.5 124h-215v-1030z" />
<glyph unicode="E" horiz-adv-x="1187" d="M178 0v1366h891v-178h-700v-416h616v-178h-616v-416h700v-178h-891z" />
<glyph unicode="F" horiz-adv-x="1124" d="M178 0v1366h860v-178h-669v-416h589v-178h-589v-594h-191z" />
<glyph unicode="G" horiz-adv-x="1386" d="M125 684q0 166 39 294t100.5 202.5t147.5 122t169 63.5t179 16q227 0 430 -79v-175q-199 82 -412 82q-74 0 -132 -9t-122.5 -42t-107.5 -88t-72 -153.5t-29 -233.5t29 -234.5t72 -154.5t108.5 -88t125 -42t132.5 -9q135 0 275 39v385h-279v178h463v-666 q-227 -108 -476 -108h-5q-96 0 -179 16t-169 63.5t-147.5 123t-100.5 202.5t-39 295z" />
<glyph unicode="H" horiz-adv-x="1388" d="M178 0v1366h189v-594h655v594h188v-1366h-188v594h-655v-594h-189z" />
<glyph unicode="I" horiz-adv-x="544" d="M178 0v1366h189v-1366h-189z" />
<glyph unicode="J" horiz-adv-x="931" d="M61 66v198q119 -96 269 -96q117 0 174 49t57 186v963h189v-950q0 -133 -40 -225.5t-106.5 -134.5t-127 -58t-128.5 -16q-158 0 -287 84z" />
<glyph unicode="K" horiz-adv-x="1380" d="M178 0v1366h189v-661l626 661h240l-580 -618l631 -748h-235l-521 614l-161 -172v-442h-189z" />
<glyph unicode="L" horiz-adv-x="1089" d="M178 0v1366h189v-1188h680v-178h-869z" />
<glyph unicode="M" horiz-adv-x="1665" d="M178 0v1366h205l448 -590l451 590h205v-1366h-189v1077l-467 -612l-464 612v-1077h-189z" />
<glyph unicode="N" horiz-adv-x="1511" d="M178 0v1366h217l764 -1087v1087h191v-1366h-211l-770 1094v-1094h-191z" />
<glyph unicode="O" d="M125 684q0 168 39 295t100.5 202.5t148.5 123t170 63.5t177 16t177 -16t170 -63.5t148.5 -123t100.5 -202.5t39 -295t-39 -295t-100.5 -202.5t-148.5 -123t-170 -63.5t-177 -16t-177 16t-170 63.5t-148.5 123t-100.5 202.5t-39 295zM315 684q0 -135 28 -234.5t69 -154.5 t103.5 -88t117.5 -42t126.5 -9t127 9t118 42t103.5 88t68.5 154.5t27.5 234.5t-27.5 234.5t-68.5 154.5t-103.5 88t-118 42t-127 9t-126.5 -9t-117.5 -42t-103.5 -88t-69 -154.5t-28 -234.5z" />
<glyph unicode="P" horiz-adv-x="1228" d="M176 0v1366h492q227 0 352 -112.5t125 -317.5t-125 -317.5t-352 -112.5h-301v-506h-191zM367 674h284q182 0 243.5 70.5t61.5 189.5t-61 189.5t-244 70.5h-284v-520z" />
<glyph unicode="Q" d="M125 684q0 166 39 294t100.5 202.5t148.5 122t170 63.5t177 16q96 0 179 -16t169 -63.5t147.5 -122t100.5 -202.5t39 -294q0 -182 -45 -317.5t-124 -212t-167 -114.5t-195 -50q0 -82 54.5 -143.5t150.5 -61.5v-145q-170 0 -280.5 101t-110.5 247q-111 10 -202 46 t-174 111.5t-130 213t-47 325.5zM315 684q0 -135 28 -234.5t69 -154.5t103.5 -88t118.5 -42t125.5 -9t126 9t119 42t104.5 88t69.5 154.5t27.5 234.5t-27.5 233.5t-68.5 153.5t-104.5 88t-119 42t-127 9t-126.5 -9t-117.5 -42t-103.5 -88t-69 -153.5t-28 -233.5z" />
<glyph unicode="R" horiz-adv-x="1298" d="M178 0v1366h504q229 0 360.5 -107.5t131.5 -306.5q0 -168 -87.5 -267t-218.5 -136l363 -549h-225l-330 518h-307v-518h-191zM369 698h305q178 0 243.5 69t65.5 179q0 250 -317 250h-297v-498z" />
<glyph unicode="S" horiz-adv-x="1155" d="M125 993q0 162 116.5 275.5t360.5 113.5q184 0 352 -86v-188q-150 90 -329 90q-310 0 -310 -205q0 -55 54.5 -96t134.5 -65.5t175 -63.5t175 -83t134 -129t54 -198q0 -176 -131 -275t-362 -99q-205 0 -406 100v197q190 -115 389 -115q319 0 320 192q0 82 -54 140t-134 84 l-176 59q-96 33 -175.5 67.5t-133.5 107.5t-54 177z" />
<glyph unicode="T" horiz-adv-x="1163" d="M25 1188v178h1112v-178h-463v-1188h-189v1188h-460z" />
<glyph unicode="U" horiz-adv-x="1474" d="M178 563v803h191v-819q0 -201 90 -297t278.5 -96t278.5 96t90 297v819h190v-803q0 -276 -146 -428.5t-412.5 -152.5t-413 152.5t-146.5 428.5z" />
<glyph unicode="V" horiz-adv-x="1288" d="M25 1366h202l416 -1126l418 1126h203l-525 -1366h-190z" />
<glyph unicode="W" horiz-adv-x="1961" d="M25 1366h198l338 -1090l336 1090h162l338 -1090l336 1090h198l-438 -1366h-195l-319 1026l-322 -1026h-194z" />
<glyph unicode="X" horiz-adv-x="1253" d="M25 0l489 684l-477 682h231l359 -510l358 510h232l-484 -664l496 -702h-234l-368 526l-371 -526h-231z" />
<glyph unicode="Y" horiz-adv-x="1275" d="M25 1366h229l383 -559l383 559h231l-520 -754v-612h-188v610z" />
<glyph unicode="Z" horiz-adv-x="1247" d="M131 0v166l721 1010h-700v190h946v-170l-717 -1008h717v-188h-967z" />
<glyph unicode="[" horiz-adv-x="784" d="M244 -238v1663h370v-151h-213v-1360h213v-152h-370z" />
<glyph unicode="\" horiz-adv-x="802" d="M-76 1548h178l752 -1749h-176z" />
<glyph unicode="]" horiz-adv-x="780" d="M172 -86h211v1360h-211v151h369v-1663h-369v152z" />
<glyph unicode="^" horiz-adv-x="1146" d="M272 969l215 444h113l217 -444h-143l-129 303l-129 -303h-144z" />
<glyph unicode="_" horiz-adv-x="1118" d="M0 -49h1118v-115h-1118v115z" />
<glyph unicode="`" horiz-adv-x="491" d="M90 1395h184l127 -240h-116z" />
<glyph unicode="a" horiz-adv-x="1093" d="M115 322q0 152 128 237.5t353 85.5q96 0 186 -12q-6 129 -70.5 185t-211.5 56q-133 0 -283 -51v160q145 55 309 55q213 0 329 -110.5t116 -317.5v-295q0 -33 -6.5 -65.5t-31 -83.5t-66.5 -89t-126 -65.5t-194 -27.5q-113 0 -198 28.5t-128 66.5t-68.5 90t-31.5 86t-6 67z M301 324q0 -174 246 -174h3q232 0 232 167v166q-74 12 -178 13q-41 0 -86 -7.5t-97 -23.5t-86 -53t-34 -88z" />
<glyph unicode="b" horiz-adv-x="1167" d="M170 315v1096h186v-403q106 30 219 30q88 0 164 -21.5t149 -74.5t114.5 -159.5t41.5 -258.5q0 -135 -31.5 -236.5t-77.5 -157.5t-110.5 -91t-119 -45t-113.5 -10q-111 0 -194 27.5t-125 65.5t-66.5 89t-30.5 84t-6 65zM356 303q0 -153 236 -153q53 0 94 13t83 49 t64.5 115t22.5 197q0 111 -22.5 183.5t-64.5 106.5t-87 46t-107 12q-115 0 -219 -43v-526z" />
<glyph unicode="c" horiz-adv-x="966" d="M119 512q0 256 124 391t357 135q156 0 301 -57v-178q-139 67 -281 67h-4q-141 0 -221 -72.5t-80 -285.5q0 -113 23.5 -187.5t70 -110.5t94 -48t113.5 -12q147 0 285 65v-178q-145 -57 -301 -57q-233 0 -357 136t-124 392z" />
<glyph unicode="d" horiz-adv-x="1150" d="M129 524q0 152 42 258.5t114.5 159.5t148.5 74.5t164 21.5q111 0 219 -30v403h187v-1096q0 -33 -6.5 -65.5t-31 -83.5t-66.5 -89t-125 -65.5t-193 -27.5q-59 0 -113.5 10t-119 45t-110.5 91t-78 157.5t-32 236.5zM315 524q0 -119 22.5 -197.5t64.5 -114.5t83 -49t97 -13 q236 0 235 153v526q-104 43 -219 43q-61 0 -106.5 -12t-88.5 -46t-65.5 -106.5t-22.5 -183.5z" />
<glyph unicode="e" horiz-adv-x="1136" d="M129 498q0 540 451 540h2q205 0 327.5 -134t122.5 -359q0 -74 -6 -142h-704q34 -260 288 -260q207 0 353 76v-170q-158 -67 -357 -67h-6q-90 0 -166 22.5t-148.5 74.5t-114.5 159.5t-42 259.5zM319 573h525q-4 51 -17.5 97.5t-41 94.5t-79.5 76.5t-124 28.5 q-129 0 -189.5 -66.5t-73.5 -230.5z" />
<glyph unicode="f" horiz-adv-x="675" d="M82 858v164h143v49q0 381 340 381q57 0 111 -14v-162q-41 8 -76 8q-47 0 -71.5 -4t-56.5 -22.5t-46 -64.5t-14 -122v-49h264v-164h-264v-858h-187v858h-143z" />
<glyph unicode="g" horiz-adv-x="1101" d="M123 518q0 238 107.5 380t330.5 142q186 0 298 -84t112 -239v-760q0 -68 -19.5 -126t-65.5 -113.5t-138.5 -87t-225.5 -31.5q-154 0 -303 43v178q145 -45 287 -45q98 0 159.5 17.5t85 50t28.5 55t5 59.5v90q-104 -29 -206 -29q-219 0 -337 129t-118 371zM311 518 q0 -199 71 -264.5t196 -65.5q110 0 206 39v502q0 23 -4 39t-22.5 45t-68.5 44t-128 15q-51 0 -89 -12t-78 -46t-61.5 -108.5t-21.5 -187.5z" />
<glyph unicode="h" horiz-adv-x="1187" d="M193 0v1411h188v-424q131 51 270 51q190 0 295 -113.5t105 -322.5v-602h-189v608q0 150 -63.5 200t-165.5 50q-125 0 -252 -49v-809h-188z" />
<glyph unicode="i" horiz-adv-x="589" d="M195 1180v198h200v-198h-200zM201 0v1022h188v-1022h-188z" />
<glyph unicode="j" horiz-adv-x="526" d="M6 -242q109 0 142.5 47.5t33.5 135.5v1081h187v-1081q0 -342 -363 -342v159zM176 1180v198h199v-198h-199z" />
<glyph unicode="k" horiz-adv-x="1204" d="M188 0v1411h187v-817l442 428h254l-444 -426l503 -596h-249l-379 475l-127 -123v-352h-187z" />
<glyph unicode="l" horiz-adv-x="602" d="M207 0v1411h188v-1411h-188z" />
<glyph unicode="m" horiz-adv-x="1853" d="M193 0v938q205 102 425 102q166 0 273 -77q193 77 375 77q193 0 301 -101t108 -282v-657h-186v670q0 88 -43 142t-168 54q-135 0 -274 -57q24 -65 24 -146v-6v-657h-188v668q0 90 -47.5 142t-188.5 52q-109 0 -223 -31v-831h-188z" />
<glyph unicode="n" horiz-adv-x="1198" d="M168 0v934q213 106 436 106q193 0 302.5 -101t109.5 -280v-659h-189v672q0 90 -46 142t-185 52q-125 0 -240 -37v-829h-188z" />
<glyph unicode="o" horiz-adv-x="1161" d="M100 510q0 156 43 264.5t117 162.5t151.5 76.5t170 22.5t170 -22.5t151.5 -76.5t117 -162.5t43 -264.5t-43 -264.5t-117 -162.5t-151.5 -76.5t-170 -22.5t-170 22.5t-151.5 76.5t-117 162.5t-43 264.5zM289 510q0 -115 22.5 -189.5t67.5 -110.5t91 -48t111.5 -12 t111.5 12t91 48t67.5 110.5t22.5 189.5t-22.5 189.5t-67.5 110.5t-91 48t-111.5 12t-111.5 -12t-91 -48t-67.5 -110.5t-22.5 -189.5z" />
<glyph unicode="p" horiz-adv-x="1167" d="M168 -389v1098q0 33 6 65.5t30.5 82.5t66.5 88t126 65.5t195 27.5q57 0 111.5 -10t119 -45t111.5 -91t78.5 -157.5t31.5 -234.5q0 -152 -41.5 -259.5t-114.5 -159.5t-148.5 -74.5t-166.5 -22.5q-113 0 -217 30v-403h-188zM356 193q106 -41 217 -41q63 0 107.5 12t87.5 46 t65.5 106.5t22.5 183.5q0 119 -22.5 197.5t-64.5 114.5t-83 49t-94 13q-236 0 -236 -153v-528z" />
<glyph unicode="q" horiz-adv-x="1157" d="M115 500q0 133 31.5 234.5t77.5 157.5t110.5 91t119 45t111.5 10q111 0 195 -27.5t126 -65.5t66.5 -88t30.5 -83t6 -65v-1098h-188v403q-104 -30 -217 -30q-90 0 -166 21.5t-147.5 74.5t-113.5 160.5t-42 259.5zM301 500q0 -111 22.5 -183.5t65.5 -106.5t87 -46t108 -12 q113 0 217 41v528q0 153 -236 153q-53 0 -94 -13t-83 -49t-64.5 -115t-22.5 -197z" />
<glyph unicode="r" horiz-adv-x="702" d="M166 0v936q256 102 498 102v-172q-152 -2 -310 -43v-823h-188z" />
<glyph unicode="s" horiz-adv-x="892" d="M102 733q0 127 90.5 216t276.5 89q139 0 274 -67v-162q-133 61 -251 61q-203 0 -203 -131q0 -43 54 -71.5t130 -50t152.5 -52t131 -102.5t54.5 -178q0 -123 -93 -212t-288 -89q-164 0 -295 71v170q133 -75 283 -75h4q98 0 149.5 35.5t51.5 90.5q0 63 -53.5 101.5 t-130.5 60t-153.5 48t-130 88t-53.5 159.5z" />
<glyph unicode="t" horiz-adv-x="765" d="M49 864v158h178v305h187v-305h272v-158h-272v-594q0 -120 151 -120h2q70 0 119 30v-168q-70 -28 -140 -28h-5q-37 0 -79 9t-100.5 35.5t-96.5 92t-38 162.5v581h-178z" />
<glyph unicode="u" horiz-adv-x="1208" d="M168 430v592h186v-606q0 -139 59.5 -204t186.5 -65t185.5 64.5t58.5 204.5v606h188v-592q0 -213 -113.5 -330.5t-318.5 -117.5t-318.5 117.5t-113.5 330.5z" />
<glyph unicode="v" horiz-adv-x="1107" d="M66 1022h200l287 -797l289 797h200l-393 -1022h-192z" />
<glyph unicode="w" horiz-adv-x="1656" d="M80 1022h207l229 -756l225 756h174l228 -756l227 756h207l-338 -1022h-186l-224 711l-225 -711h-186z" />
<glyph unicode="x" horiz-adv-x="1073" d="M57 0l369 510l-360 512h229l242 -342l241 342h230l-361 -498l369 -524h-230l-249 354l-250 -354h-230z" />
<glyph unicode="y" horiz-adv-x="1073" d="M63 1022h201l275 -766l270 766h201l-420 -1131q-109 -294 -317 -294h-1q-68 0 -143 16v168q61 -16 115 -17q127 0 205 236z" />
<glyph unicode="z" horiz-adv-x="962" d="M92 0v172l520 676h-508v174h748v-172l-518 -674h518v-176h-760z" />
<glyph unicode="{" horiz-adv-x="763" d="M186 535v137q109 31 109 127v313q0 156 82 238t237 82h17v-158q-84 0 -120 -32t-36 -124v-307q0 -123 -119 -207q119 -88 119 -209v-307q0 -92 36 -123t120 -33v-157h-17q-156 0 -237.5 83t-81.5 238v312q0 96 -109 127z" />
<glyph unicode="|" horiz-adv-x="946" d="M379 -203v1569h188v-1569h-188z" />
<glyph unicode="}" horiz-adv-x="759" d="M156 -68q84 2 119.5 33t35.5 123v307q0 121 119 209q-119 84 -119 207v307q0 94 -35.5 125t-119.5 31v158h18q154 0 237 -82t83 -238v-313q0 -94 106 -127v-137q-106 -33 -106 -127v-312q0 -156 -83 -238.5t-237 -82.5h-18v157z" />
<glyph unicode="~" horiz-adv-x="1024" d="M201 473v135q57 68 123 74q11 1 22 1q55 0 106 -25l122 -61q50 -25 103 -25q12 0 23 2q66 6 123 73v-135q-57 -68 -123 -74q-10 -1 -21 -1q-54 0 -105 25l-122 60q-51 26 -106 26q-11 0 -22 -1q-66 -6 -123 -74z" />
<glyph unicode="&#xa1;" horiz-adv-x="788" d="M299 -344l16 1030h162l17 -1030h-195zM303 848v174h186v-174h-186z" />
<glyph unicode="&#xa2;" horiz-adv-x="976" d="M117 684q0 238 108.5 373t313.5 151v158h123v-158q131 -12 237 -55v-178q-123 57 -237 65v-712q121 8 237 63v-178q-117 -47 -237 -55v-158h-123v158q-205 16 -313.5 152t-108.5 374zM313 684q0 -182 59.5 -260t166.5 -94v708q-106 -16 -166 -94t-60 -260z" />
<glyph unicode="&#xa3;" horiz-adv-x="1155" d="M104 -53v182q82 66 181 82v360h-181v168h181v258q0 74 23.5 139.5t71.5 122t134 89t201 32.5q172 0 325 -90v-192q-143 108 -307 108q-264 0 -264 -209v-258h389v-168h-389v-366q45 -8 139 -33t150 -35q34 -6 75 -6q28 0 61 3q79 7 146 44v-182q-86 -47 -186 -47 t-191.5 25.5t-183.5 47.5q-56 14 -114 14q-38 0 -77 -6q-98 -14 -184 -83z" />
<glyph unicode="&#xa5;" horiz-adv-x="1298" d="M37 1366h229l383 -559l383 559h232l-435 -629h215v-153h-301v-162h301v-154h-301v-268h-188v268h-301v154h301v162h-301v153h215z" />
<glyph unicode="&#xa7;" horiz-adv-x="1198" d="M131 725q0 160 225 225q-72 55 -71 140q0 125 100 209.5t313 84.5q166 0 322 -77v-181q-145 80 -291 80q-248 0 -248 -125q0 -31 45 -54t112 -39.5t144.5 -43t144 -60.5t111.5 -96.5t45 -144.5q0 -90 -64.5 -145.5t-160.5 -79.5q72 -53 72 -131q0 -125 -101.5 -214 t-314.5 -89q-190 0 -375 106v191q174 -117 348 -117q246 0 246 123q0 31 -45 54.5t-111.5 39.5t-144.5 43t-144.5 60.5t-111.5 96t-45 144.5zM328 723q0 -33 19.5 -59.5t61.5 -46t79.5 -34t101 -34t100.5 -33.5q90 8 143.5 40t53.5 81q0 33 -19.5 58.5t-61.5 46t-80 35 t-101.5 33.5t-100.5 34q-90 -8 -143 -41t-53 -80z" />
<glyph unicode="&#xa8;" horiz-adv-x="831" d="M162 1155v174h186v-174h-186zM465 1155v174h186v-174h-186z" />
<glyph unicode="&#xa9;" horiz-adv-x="1593" d="M98 680q0 289 204 493.5t492.5 204.5t493.5 -204.5t205 -493.5t-205 -492.5t-493.5 -203.5t-492.5 203.5t-204 492.5zM188 680q0 -250 178.5 -428t428.5 -178q252 0 430 178t178 428q0 252 -178 430t-430 178q-250 0 -428.5 -178t-178.5 -430zM432 680q0 121 33 206 t90 127t117.5 59.5t130.5 17.5q127 0 244 -48v-104q-113 51 -232 51q-141 0 -204.5 -72.5t-63.5 -236.5q0 -162 63.5 -234.5t204.5 -72.5q115 0 232 49v-103q-117 -47 -244 -47q-55 0 -103.5 9.5t-99.5 37t-87 71.5t-58.5 118t-22.5 172z" />
<glyph unicode="&#xaa;" horiz-adv-x="813" d="M156 985q0 84 71.5 132t196.5 48q53 0 102 -6q-4 72 -39.5 103.5t-117.5 31.5q-70 0 -156 -28v88q86 30 172 30q119 0 182.5 -61t63.5 -176v-164q0 -25 -7.5 -49.5t-28 -58t-72.5 -55t-128 -21.5q-63 0 -110 15t-71 36.5t-38 50.5t-17 47.5t-3 36.5zM260 987 q0 -96 135 -96q131 0 131 92v92q-35 8 -98 8q-33 0 -66.5 -6t-67.5 -29.5t-34 -60.5z" />
<glyph unicode="&#xab;" horiz-adv-x="1171" d="M63 522l347 389h223l-365 -389l365 -391h-223zM498 522l346 389h223l-365 -389l365 -391h-223z" />
<glyph unicode="&#xac;" horiz-adv-x="1273" d="M199 528v156h876v-360h-151v204h-725z" />
<glyph unicode="&#xad;" horiz-adv-x="950" d="M162 530v160h624v-160h-624z" />
<glyph unicode="&#xae;" horiz-adv-x="1593" d="M98 684q0 289 205 494.5t496 205.5t495.5 -205.5t204.5 -494.5q0 -291 -204.5 -495.5t-495.5 -204.5t-496 204.5t-205 495.5zM188 684q0 -254 178.5 -432t432.5 -178q252 0 430 178t178 432q0 252 -178 430t-430 178q-254 0 -432.5 -178t-178.5 -430zM528 285v796h295 q133 0 210 -62.5t77 -178.5q0 -98 -51 -156t-127 -78l211 -321h-131l-193 303h-180v-303h-111zM639 692h178q180 0 180 145.5t-184 145.5h-174v-291z" />
<glyph unicode="&#xaf;" horiz-adv-x="825" d="M176 1180v123h477v-123h-477z" />
<glyph unicode="&#xb0;" horiz-adv-x="792" d="M168 1143q0 111 57.5 169t166 58t165.5 -58.5t57 -168.5q0 -109 -57 -167t-165.5 -58t-166 58t-57.5 167zM260 1143q0 -76 31 -109t100.5 -33t99 33t29.5 109t-29.5 108.5t-99 32.5t-100.5 -32.5t-31 -108.5z" />
<glyph unicode="&#xb1;" horiz-adv-x="1214" d="M231 55v150h754v-150h-754zM231 612v150h304v301h149v-301h301v-150h-301v-303h-149v303h-304z" />
<glyph unicode="&#xb2;" horiz-adv-x="671" d="M109 948v82q137 102 246.5 226t109.5 223q0 118 -161 118h-3q-104 0 -180 -55v96q88 53 194 54q127 0 188.5 -62.5t61.5 -148.5q0 -184 -278 -430h274v-103h-452z" />
<glyph unicode="&#xb3;" horiz-adv-x="661" d="M109 983v100q86 -49 180 -49q182 0 182 127q0 129 -192 129h-62v92h59q158 0 158 106.5t-158 106.5q-86 0 -159 -41v99q74 39 172 39q127 0 187.5 -59.5t60.5 -143.5q0 -95 -86 -148q122 -53 122 -176q0 -94 -66.5 -159.5t-207.5 -65.5q-104 0 -190 43z" />
<glyph unicode="&#xb4;" horiz-adv-x="518" d="M123 1155l127 240h184l-194 -240h-117z" />
<glyph unicode="&#xb5;" horiz-adv-x="1253" d="M203 -430v1454h188v-672q0 -90 46 -142t186 -52q125 0 239 37v829h189v-934q-213 -106 -437 -106q-129 0 -223 47v-461h-188z" />
<glyph unicode="&#xb6;" horiz-adv-x="940" d="M78 936q0 207 123.5 318.5t359.5 111.5h238v-1366h-170v504h-68q-236 0 -359.5 111.5t-123.5 320.5z" />
<glyph unicode="&#xb7;" horiz-adv-x="663" d="M238 471v174h186v-174h-186z" />
<glyph unicode="&#xb8;" horiz-adv-x="555" d="M115 -262l182 252h145l-141 -252h-186z" />
<glyph unicode="&#xb9;" horiz-adv-x="491" d="M109 1509v107l118 67h113v-735h-102v635z" />
<glyph unicode="&#xba;" horiz-adv-x="864" d="M156 1090q0 115 44 184t99 89.5t125 20.5q113 0 191.5 -64.5t78.5 -229.5q0 -164 -78.5 -229.5t-191.5 -65.5q-111 0 -189.5 65.5t-78.5 229.5zM260 1089.5q0 -120.5 43 -160.5t121 -40t121 40t43 160.5t-43 161.5t-121 41t-121 -41t-43 -161.5z" />
<glyph unicode="&#xbb;" horiz-adv-x="1212" d="M137 131l365 391l-365 389h223l347 -389l-347 -391h-223zM571 131l365 391l-365 389h224l346 -389l-346 -391h-224z" />
<glyph unicode="&#xbc;" horiz-adv-x="1447" d="M106 1206v107l119 67h111v-735h-103v635zM145 -45l893 1448h131l-895 -1448h-129zM799 231v93l323 413h115v-413h104v-93h-104v-229h-102v229h-336zM920 324h215v266z" />
<glyph unicode="&#xbd;" horiz-adv-x="1482" d="M106 1206v107l119 67h111v-735h-103v635zM145 -45l893 1448h131l-895 -1448h-129zM895 2v82q135 102 244.5 226t109.5 222q0 119 -164 119q-92 0 -180 -55v96q88 53 195 53q127 0 188.5 -61t61.5 -149q0 -188 -279 -431h277v-102h-453z" />
<glyph unicode="&#xbe;" horiz-adv-x="1662" d="M135 680v100q86 -49 180 -49q182 0 183 127q0 129 -193 129h-61v92h59q160 0 160 106.5t-160 106.5q-86 0 -160 -41v99q82 41 172 41q127 0 187.5 -60.5t60.5 -144.5q0 -95 -86 -148q123 -53 123 -178q0 -92 -66.5 -157.5t-207.5 -65.5q-100 0 -191 43zM369 -45l895 1448 h129l-893 -1448h-131zM1024 231v93l322 413h116v-413h105v-93h-105v-229h-102v229h-336zM1145 324h215v266z" />
<glyph unicode="&#xbf;" horiz-adv-x="1052" d="M174 37q0 82 31 146.5t76 106.5l90 83q45 41 75.5 100t30.5 135v70h180v-76q0 -104 -30.5 -184t-75.5 -127t-89 -86t-75 -81t-31 -89q0 -219 258 -219q166 0 306 123v-203q-150 -96 -322 -96q-115 0 -200 33.5t-132 92t-69.5 126t-22.5 145.5zM467 836v186h201v-186h-201 z" />
<glyph unicode="&#xc0;" horiz-adv-x="1359" d="M43 0l545 1366h186l543 -1366h-205l-147 385h-570l-147 -385h-205zM424 1722h182l129 -239h-117zM463 561h434l-217 567z" />
<glyph unicode="&#xc1;" horiz-adv-x="1359" d="M43 0l545 1366h186l543 -1366h-205l-147 385h-570l-147 -385h-205zM463 561h434l-217 567zM625 1483l129 239h182l-195 -239h-116z" />
<glyph unicode="&#xc2;" horiz-adv-x="1359" d="M43 0l545 1366h186l543 -1366h-205l-147 385h-570l-147 -385h-205zM451 1483l180 250h98l182 -250h-145l-86 133l-86 -133h-143zM463 561h434l-217 567z" />
<glyph unicode="&#xc3;" horiz-adv-x="1359" d="M43 0l545 1366h186l543 -1366h-205l-147 385h-570l-147 -385h-205zM369 1481v135q57 68 123 74q11 1 22 1q55 0 106 -26l122 -61q51 -24 104 -24q11 0 22 1q66 6 123 74v-135q-57 -68 -123 -74q-11 -1 -22 -1q-53 0 -104 25l-122 60q-51 26 -105 26q-11 0 -23 -2 q-66 -6 -123 -73zM463 561h434l-217 567z" />
<glyph unicode="&#xc4;" horiz-adv-x="1359" d="M43 0l545 1366h186l543 -1366h-205l-147 385h-570l-147 -385h-205zM434 1483v174h189v-174h-189zM463 561h434l-217 567zM737 1483v174h189v-174h-189z" />
<glyph unicode="&#xc5;" horiz-adv-x="1359" d="M43 0l545 1366h186l543 -1366h-205l-147 385h-570l-147 -385h-205zM463 561h434l-217 567zM502 1599q0 82 47 128.5t131 46.5t131 -46.5t47 -128.5q0 -84 -47 -130t-131 -46t-131 46.5t-47 129.5zM600 1599.5q0 -51.5 17.5 -72t62.5 -20.5t62.5 20.5t17.5 72t-17.5 72 t-62.5 20.5t-62.5 -20.5t-17.5 -72z" />
<glyph unicode="&#xc6;" horiz-adv-x="2031" d="M51 0l858 1366h983v-178h-700v-416h616v-178h-616v-416h700v-178h-891v414h-481l-258 -414h-211zM633 592h368v588z" />
<glyph unicode="&#xc7;" horiz-adv-x="1286" d="M125 684q0 168 39 295t100.5 202.5t148.5 123t170 63.5t177 16q213 0 418 -81v-177q-193 86 -396 86q-242 0 -351 -124.5t-109 -403.5q0 -276 109.5 -402t350.5 -126q203 0 396 86v-176q-176 -72 -361 -80l-137 -248h-188l184 250q-111 10 -201 47t-173 112.5t-130 213 t-47 323.5z" />
<glyph unicode="&#xc8;" horiz-adv-x="1187" d="M178 0v1366h891v-178h-700v-416h616v-178h-616v-416h700v-178h-891zM412 1722h184l127 -239h-117z" />
<glyph unicode="&#xc9;" horiz-adv-x="1187" d="M178 0v1366h891v-178h-700v-416h616v-178h-616v-416h700v-178h-891zM582 1483l127 239h184l-195 -239h-116z" />
<glyph unicode="&#xca;" horiz-adv-x="1187" d="M178 0v1366h891v-178h-700v-416h616v-178h-616v-416h700v-178h-891zM416 1483l180 250h98l183 -250h-146l-86 133l-86 -133h-143z" />
<glyph unicode="&#xcb;" horiz-adv-x="1187" d="M178 0v1366h891v-178h-700v-416h616v-178h-616v-416h700v-178h-891zM397 1483v174h187v-174h-187zM700 1483v174h187v-174h-187z" />
<glyph unicode="&#xcc;" horiz-adv-x="544" d="M14 1722h185l127 -239h-117zM178 0h189v1366h-189v-1366z" />
<glyph unicode="&#xcd;" horiz-adv-x="544" d="M178 0v1366h189v-1366h-189zM217 1483l127 239h184l-194 -239h-117z" />
<glyph unicode="&#xce;" horiz-adv-x="544" d="M41 1483l180 250h98l183 -250h-146l-86 133l-86 -133h-143zM178 0h189v1366h-189v-1366z" />
<glyph unicode="&#xcf;" horiz-adv-x="544" d="M27 1483v174h186v-174h-186zM178 0h189v1366h-189v-1366zM330 1483v174h186v-174h-186z" />
<glyph unicode="&#xd0;" horiz-adv-x="1480" d="M109 606v154h163v606h437q315 0 479 -174t164 -510t-164 -509t-479 -173h-437v606h-163zM463 168h215q252 0 368.5 124t116.5 390q0 268 -116.5 392t-368.5 124h-215v-438h305v-154h-305v-438z" />
<glyph unicode="&#xd1;" horiz-adv-x="1511" d="M178 0v1366h217l764 -1087v1087h191v-1366h-211l-770 1094v-1094h-191zM453 1481v135q57 68 123 74q11 1 22 1q55 0 106 -26l122 -61q51 -24 104 -24q11 0 22 1q66 6 123 74v-135q-57 -68 -123 -74q-11 -1 -22 -1q-53 0 -104 25l-122 60q-51 26 -105 26q-11 0 -23 -2 q-66 -6 -123 -73z" />
<glyph unicode="&#xd2;" d="M125 684q0 168 39 295t100.5 202.5t148.5 123t170 63.5t177 16t177 -16t170 -63.5t148.5 -123t100.5 -202.5t39 -295t-39 -295t-100.5 -202.5t-148.5 -123t-170 -63.5t-177 -16t-177 16t-170 63.5t-148.5 123t-100.5 202.5t-39 295zM315 684q0 -135 28 -234.5t69 -154.5 t103.5 -88t117.5 -42t126.5 -9t127 9t118 42t103.5 88t68.5 154.5t27.5 234.5t-27.5 234.5t-68.5 154.5t-103.5 88t-118 42t-127 9t-126.5 -9t-117.5 -42t-103.5 -88t-69 -154.5t-28 -234.5zM524 1722h185l127 -239h-117z" />
<glyph unicode="&#xd3;" d="M125 684q0 168 39 295t100.5 202.5t148.5 123t170 63.5t177 16t177 -16t170 -63.5t148.5 -123t100.5 -202.5t39 -295t-39 -295t-100.5 -202.5t-148.5 -123t-170 -63.5t-177 -16t-177 16t-170 63.5t-148.5 123t-100.5 202.5t-39 295zM315 684q0 -135 28 -234.5t69 -154.5 t103.5 -88t117.5 -42t126.5 -9t127 9t118 42t103.5 88t68.5 154.5t27.5 234.5t-27.5 234.5t-68.5 154.5t-103.5 88t-118 42t-127 9t-126.5 -9t-117.5 -42t-103.5 -88t-69 -154.5t-28 -234.5zM684 1483l127 239h184l-194 -239h-117z" />
<glyph unicode="&#xd4;" d="M125 684q0 168 39 295t100.5 202.5t148.5 123t170 63.5t177 16t177 -16t170 -63.5t148.5 -123t100.5 -202.5t39 -295t-39 -295t-100.5 -202.5t-148.5 -123t-170 -63.5t-177 -16t-177 16t-170 63.5t-148.5 123t-100.5 202.5t-39 295zM315 684q0 -135 28 -234.5t69 -154.5 t103.5 -88t117.5 -42t126.5 -9t127 9t118 42t103.5 88t68.5 154.5t27.5 234.5t-27.5 234.5t-68.5 154.5t-103.5 88t-118 42t-127 9t-126.5 -9t-117.5 -42t-103.5 -88t-69 -154.5t-28 -234.5zM528 1483l181 250h98l182 -250h-145l-86 133l-86 -133h-144z" />
<glyph unicode="&#xd5;" d="M125 684q0 168 39 295t100.5 202.5t148.5 123t170 63.5t177 16t177 -16t170 -63.5t148.5 -123t100.5 -202.5t39 -295t-39 -295t-100.5 -202.5t-148.5 -123t-170 -63.5t-177 -16t-177 16t-170 63.5t-148.5 123t-100.5 202.5t-39 295zM315 684q0 -135 28 -234.5t69 -154.5 t103.5 -88t117.5 -42t126.5 -9t127 9t118 42t103.5 88t68.5 154.5t27.5 234.5t-27.5 234.5t-68.5 154.5t-103.5 88t-118 42t-127 9t-126.5 -9t-117.5 -42t-103.5 -88t-69 -154.5t-28 -234.5zM449 1481v135q57 68 123 74q11 1 22 1q55 0 106 -26l122 -61q51 -24 104 -24 q11 0 22 1q66 6 123 74v-135q-57 -68 -123 -74q-11 -1 -22 -1q-53 0 -104 25l-122 60q-51 26 -105 26q-11 0 -23 -2q-66 -6 -123 -73z" />
<glyph unicode="&#xd6;" d="M125 684q0 168 39 295t100.5 202.5t148.5 123t170 63.5t177 16t177 -16t170 -63.5t148.5 -123t100.5 -202.5t39 -295t-39 -295t-100.5 -202.5t-148.5 -123t-170 -63.5t-177 -16t-177 16t-170 63.5t-148.5 123t-100.5 202.5t-39 295zM315 684q0 -135 28 -234.5t69 -154.5 t103.5 -88t117.5 -42t126.5 -9t127 9t118 42t103.5 88t68.5 154.5t27.5 234.5t-27.5 234.5t-68.5 154.5t-103.5 88t-118 42t-127 9t-126.5 -9t-117.5 -42t-103.5 -88t-69 -154.5t-28 -234.5zM514 1483v174h186v-174h-186zM817 1483v174h187v-174h-187z" />
<glyph unicode="&#xd7;" horiz-adv-x="1050" d="M158 160l282 364l-282 365h164l200 -258l203 258h162l-281 -365l281 -364h-162l-203 258l-200 -258h-164z" />
<glyph unicode="&#xd8;" d="M88 0l168 201q-131 174 -131 483q0 168 39 295t100.5 202.5t148.5 123t170 63.5t177 16q244 0 399 -112l82 94h191l-168 -199q131 -174 131 -483q0 -168 -39 -295t-100.5 -202.5t-148.5 -123t-170 -63.5t-177 -16q-244 0 -400 112l-81 -96h-191zM315 684q0 -209 64 -336 l665 789q-99 75 -279 75h-5q-72 0 -127 -9t-117.5 -42t-103.5 -88t-69 -154.5t-28 -234.5zM475 231q97 -75 280 -75h5q72 0 127 9t117.5 42t103.5 88t68.5 154.5t27.5 234.5q0 209 -63 336z" />
<glyph unicode="&#xd9;" horiz-adv-x="1476" d="M178 563v803h191v-819q0 -201 90 -297t278.5 -96t278.5 96t90 297v819h190v-803q0 -276 -146 -428.5t-412.5 -152.5t-413 152.5t-146.5 428.5zM498 1722h184l127 -239h-117z" />
<glyph unicode="&#xda;" horiz-adv-x="1476" d="M178 563v803h191v-819q0 -201 90 -297t278.5 -96t278.5 96t90 297v819h190v-803q0 -276 -146 -428.5t-412.5 -152.5t-413 152.5t-146.5 428.5zM666 1483l127 239h184l-195 -239h-116z" />
<glyph unicode="&#xdb;" horiz-adv-x="1476" d="M178 563v803h191v-819q0 -201 90 -297t278.5 -96t278.5 96t90 297v819h190v-803q0 -276 -146 -428.5t-412.5 -152.5t-413 152.5t-146.5 428.5zM506 1483l180 250h98l183 -250h-146l-86 133l-86 -133h-143z" />
<glyph unicode="&#xdc;" horiz-adv-x="1476" d="M178 563v803h191v-819q0 -201 90 -297t278.5 -96t278.5 96t90 297v819h190v-803q0 -276 -146 -428.5t-412.5 -152.5t-413 152.5t-146.5 428.5zM492 1483v174h186v-174h-186zM795 1483v174h186v-174h-186z" />
<glyph unicode="&#xdd;" horiz-adv-x="1275" d="M25 1366h229l383 -559l383 559h231l-520 -754v-612h-188v610zM561 1483l127 239h184l-194 -239h-117z" />
<glyph unicode="&#xde;" horiz-adv-x="1187" d="M176 0v1366h191v-205h231q227 0 352 -112.5t125 -317.5t-125 -317.5t-352 -112.5h-231v-301h-191zM367 469h215q182 0 243.5 70.5t61.5 189.5v2v2q0 119 -61.5 189.5t-243.5 70.5h-215v-524z" />
<glyph unicode="&#xdf;" horiz-adv-x="1255" d="M180 0v862q0 154 39 262.5t106.5 161.5t137 75.5t153.5 22.5q236 0 347.5 -114.5t111.5 -276.5q0 -188 -188 -280q254 -74 254 -316q0 -186 -150.5 -291.5t-400.5 -105.5v174q61 0 115.5 10.5t113 33t93 70.5t34.5 118q0 217 -356 231v143q293 4 293 219q0 219 -267 220 q-53 0 -92 -13.5t-75.5 -49.5t-56 -111.5t-19.5 -190.5v-854h-193z" />
<glyph unicode="&#xe0;" horiz-adv-x="1099" d="M115 322q0 152 128 237.5t353 85.5q96 0 186 -12q-6 129 -70.5 185t-211.5 56q-133 0 -283 -51v160q159 55 309 55q213 0 328 -110.5t115 -317.5v-295q0 -33 -5.5 -65.5t-31 -83.5t-67.5 -89t-125 -65.5t-193 -27.5q-113 0 -198 28.5t-128 66.5t-68.5 90t-31.5 86t-6 67z M301 324q0 -174 246 -174h3q232 0 232 167v166q-74 12 -178 13q-41 0 -86 -7.5t-97 -23.5t-86 -53t-34 -88zM315 1395h185l127 -240h-117z" />
<glyph unicode="&#xe1;" horiz-adv-x="1099" d="M115 322q0 152 128 237.5t353 85.5q96 0 186 -12q-6 129 -70.5 185t-211.5 56q-133 0 -283 -51v160q159 55 309 55q213 0 328 -110.5t115 -317.5v-295q0 -33 -5.5 -65.5t-31 -83.5t-67.5 -89t-125 -65.5t-193 -27.5q-113 0 -198 28.5t-128 66.5t-68.5 90t-31.5 86t-6 67z M301 324q0 -174 246 -174h3q232 0 232 167v166q-74 12 -178 13q-41 0 -86 -7.5t-97 -23.5t-86 -53t-34 -88zM461 1155l127 240h184l-194 -240h-117z" />
<glyph unicode="&#xe2;" horiz-adv-x="1099" d="M115 322q0 152 128 237.5t353 85.5q96 0 186 -12q-6 129 -70.5 185t-211.5 56q-133 0 -283 -51v160q159 55 309 55q213 0 328 -110.5t115 -317.5v-295q0 -33 -5.5 -65.5t-31 -83.5t-67.5 -89t-125 -65.5t-193 -27.5q-113 0 -198 28.5t-128 66.5t-68.5 90t-31.5 86t-6 67z M301 324q0 -174 246 -174h3q232 0 232 167v166q-74 12 -178 13q-41 0 -86 -7.5t-97 -23.5t-86 -53t-34 -88zM338 1155l180 250h98l183 -250h-146l-86 133l-86 -133h-143z" />
<glyph unicode="&#xe3;" horiz-adv-x="1099" d="M115 322q0 152 128 237.5t353 85.5q96 0 186 -12q-6 129 -70.5 185t-211.5 56q-133 0 -283 -51v160q159 55 309 55q213 0 328 -110.5t115 -317.5v-295q0 -33 -5.5 -65.5t-31 -83.5t-67.5 -89t-125 -65.5t-193 -27.5q-113 0 -198 28.5t-128 66.5t-68.5 90t-31.5 86t-6 67z M250 1153v135q57 68 124 74q10 1 21 1q55 0 105 -25l122 -61q51 -25 104 -25q12 0 24 2q65 6 122 73v-135q-57 -68 -122 -74q-12 -1 -23 -1q-53 0 -105 25l-122 60q-50 26 -105 26q-11 0 -21 -1q-67 -6 -124 -74zM301 324q0 -174 246 -174h3q232 0 232 167v166 q-74 12 -178 13q-41 0 -86 -7.5t-97 -23.5t-86 -53t-34 -88z" />
<glyph unicode="&#xe4;" horiz-adv-x="1099" d="M115 322q0 152 128 237.5t353 85.5q96 0 186 -12q-6 129 -70.5 185t-211.5 56q-133 0 -283 -51v160q159 55 309 55q213 0 328 -110.5t115 -317.5v-295q0 -33 -5.5 -65.5t-31 -83.5t-67.5 -89t-125 -65.5t-193 -27.5q-113 0 -198 28.5t-128 66.5t-68.5 90t-31.5 86t-6 67z M301 324q0 -174 246 -174h3q232 0 232 167v166q-74 12 -178 13q-41 0 -86 -7.5t-97 -23.5t-86 -53t-34 -88zM324 1155v174h186v-174h-186zM627 1155v174h186v-174h-186z" />
<glyph unicode="&#xe5;" horiz-adv-x="1099" d="M115 322q0 152 128 237.5t353 85.5q96 0 186 -12q-6 129 -70.5 185t-211.5 56q-133 0 -283 -51v160q159 55 309 55q213 0 328 -110.5t115 -317.5v-295q0 -33 -5.5 -65.5t-31 -83.5t-67.5 -89t-125 -65.5t-193 -27.5q-113 0 -198 28.5t-128 66.5t-68.5 90t-31.5 86t-6 67z M301 324q0 -174 246 -174h3q232 0 232 167v166q-74 12 -178 13q-41 0 -86 -7.5t-97 -23.5t-86 -53t-34 -88zM379 1272q0 84 47 130t131 46q86 0 132 -46t46 -130t-46 -130t-132 -46q-84 0 -131 46t-47 130zM477 1272q0 -51 17.5 -71.5t62.5 -20.5t62.5 20.5t17.5 71.5 t-17.5 71.5t-62.5 20.5t-62.5 -20.5t-17.5 -71.5z" />
<glyph unicode="&#xe6;" horiz-adv-x="1802" d="M111 322q0 152 128 237.5t353 85.5q96 0 186 -12q-6 129 -70.5 185t-211.5 56q-133 0 -283 -51v160q160 55 309 55q244 0 357 -143q113 143 348 143q205 0 327.5 -134t122.5 -359q0 -74 -6 -142h-704q35 -260 288 -260q197 0 353 76v-170q-158 -67 -357 -67h-6 q-229 0 -350 131q-106 -129 -352 -129q-113 0 -198 28.5t-128 66.5t-68.5 90t-31.5 86t-6 67zM297 324q0 -174 246 -174h3q232 0 232 167v166q-74 12 -178 13q-41 0 -86 -7.5t-97 -23.5t-86 -53t-34 -88zM965 573h524q-27 297 -262 297q-129 0 -189.5 -66.5t-72.5 -230.5z " />
<glyph unicode="&#xe7;" horiz-adv-x="966" d="M119 512q0 256 124 391t357 135q156 0 301 -57v-178q-142 67 -285 67q-141 0 -221 -72.5t-80 -285.5q0 -113 23.5 -187.5t70 -110.5t94.5 -48t113 -12q147 0 285 65v-178q-104 -41 -223 -53l-139 -254h-189l182 254q-201 18 -307 152t-106 372z" />
<glyph unicode="&#xe8;" horiz-adv-x="1136" d="M129 500q0 540 451 540h2q205 0 327.5 -134t122.5 -359q0 -74 -6 -141h-704q35 -260 288 -261q201 0 353 74v-168q-158 -67 -357 -67h-6q-90 0 -166 22.5t-148.5 74.5t-114.5 159.5t-42 259.5zM319 575h525q-4 51 -17.5 97.5t-41 94.5t-80 76.5t-123.5 28.5 q-129 0 -190 -66.5t-73 -230.5zM346 1395h184l127 -240h-116z" />
<glyph unicode="&#xe9;" horiz-adv-x="1136" d="M129 500q0 540 451 540h2q205 0 327.5 -134t122.5 -359q0 -74 -6 -141h-704q35 -260 288 -261q201 0 353 74v-168q-158 -67 -357 -67h-6q-90 0 -166 22.5t-148.5 74.5t-114.5 159.5t-42 259.5zM319 575h525q-4 51 -17.5 97.5t-41 94.5t-80 76.5t-123.5 28.5 q-129 0 -190 -66.5t-73 -230.5zM506 1155l127 240h184l-194 -240h-117z" />
<glyph unicode="&#xea;" horiz-adv-x="1136" d="M129 500q0 540 451 540h2q205 0 327.5 -134t122.5 -359q0 -74 -6 -141h-704q35 -260 288 -261q201 0 353 74v-168q-158 -67 -357 -67h-6q-90 0 -166 22.5t-148.5 74.5t-114.5 159.5t-42 259.5zM319 575h525q-4 51 -17.5 97.5t-41 94.5t-80 76.5t-123.5 28.5 q-129 0 -190 -66.5t-73 -230.5zM350 1155l180 250h99l182 -250h-145l-86 133l-86 -133h-144z" />
<glyph unicode="&#xeb;" horiz-adv-x="1136" d="M129 500q0 540 451 540h2q205 0 327.5 -134t122.5 -359q0 -74 -6 -141h-704q35 -260 288 -261q201 0 353 74v-168q-158 -67 -357 -67h-6q-90 0 -166 22.5t-148.5 74.5t-114.5 159.5t-42 259.5zM319 575h525q-4 51 -17.5 97.5t-41 94.5t-80 76.5t-123.5 28.5 q-129 0 -190 -66.5t-73 -230.5zM336 1155v174h186v-174h-186zM639 1155v174h186v-174h-186z" />
<glyph unicode="&#xec;" horiz-adv-x="589" d="M41 1395h184l127 -240h-116zM201 0h188v1022h-188v-1022z" />
<glyph unicode="&#xed;" horiz-adv-x="589" d="M201 0v1022h188v-1022h-188zM236 1155l126 240h185l-195 -240h-116z" />
<glyph unicode="&#xee;" horiz-adv-x="589" d="M63 1155l181 250h98l182 -250h-145l-86 133l-86 -133h-144zM201 0h188v1022h-188v-1022z" />
<glyph unicode="&#xef;" horiz-adv-x="589" d="M49 1155v174h187v-174h-187zM201 0h188v1022h-188v-1022zM352 1155v174h187v-174h-187z" />
<glyph unicode="&#xf0;" horiz-adv-x="1212" d="M119 453q0 182 108.5 310t347.5 128q170 0 285 -72q-41 193 -162 293l-217 -131l-67 113l151 90q-63 22 -149 22h-8q-74 0 -156 -18v172q81 22 178 22h8q184 0 322 -79l178 108l68 -113l-136 -81q193 -197 193 -590q0 -643 -473 -643q-229 0 -350 138t-121 331zM309 453 q0 -43 9.5 -85t35 -94.5t87 -85t149.5 -32.5q39 0 64.5 3t70.5 26.5t72.5 68.5t50 138t24.5 224q-106 100 -282 101q-281 0 -281 -264z" />
<glyph unicode="&#xf1;" horiz-adv-x="1198" d="M168 0v934q213 106 436 106q193 0 302.5 -101t109.5 -280v-659h-189v672q0 90 -46 142t-185 52q-125 0 -240 -37v-829h-188zM281 1153v135q57 68 123 74q11 1 22 1q55 0 106 -25l122 -61q50 -25 103 -25q12 0 23 2q66 6 123 73v-135q-57 -68 -123 -74q-11 -1 -22 -1 q-53 0 -104 25l-122 60q-51 26 -106 26q-11 0 -22 -1q-66 -6 -123 -74z" />
<glyph unicode="&#xf2;" horiz-adv-x="1155" d="M100 510q0 156 43 264.5t117 162.5t151.5 76.5t170 22.5t170 -22.5t151.5 -76.5t117 -162.5t43 -264.5t-43 -264.5t-117 -162.5t-151.5 -76.5t-170 -22.5t-170 22.5t-151.5 76.5t-117 162.5t-43 264.5zM289 510q0 -115 22.5 -189.5t67.5 -110.5t91 -48t111.5 -12 t111.5 12t91 48t67.5 110.5t22.5 189.5t-22.5 189.5t-67.5 110.5t-91 48t-111.5 12t-111.5 -12t-91 -48t-67.5 -110.5t-22.5 -189.5zM319 1395h185l127 -240h-117z" />
<glyph unicode="&#xf3;" horiz-adv-x="1155" d="M100 510q0 156 43 264.5t117 162.5t151.5 76.5t170 22.5t170 -22.5t151.5 -76.5t117 -162.5t43 -264.5t-43 -264.5t-117 -162.5t-151.5 -76.5t-170 -22.5t-170 22.5t-151.5 76.5t-117 162.5t-43 264.5zM289 510q0 -115 22.5 -189.5t67.5 -110.5t91 -48t111.5 -12 t111.5 12t91 48t67.5 110.5t22.5 189.5t-22.5 189.5t-67.5 110.5t-91 48t-111.5 12t-111.5 -12t-91 -48t-67.5 -110.5t-22.5 -189.5zM532 1155l127 240h185l-195 -240h-117z" />
<glyph unicode="&#xf4;" horiz-adv-x="1155" d="M100 510q0 156 43 264.5t117 162.5t151.5 76.5t170 22.5t170 -22.5t151.5 -76.5t117 -162.5t43 -264.5t-43 -264.5t-117 -162.5t-151.5 -76.5t-170 -22.5t-170 22.5t-151.5 76.5t-117 162.5t-43 264.5zM289 510q0 -115 22.5 -189.5t67.5 -110.5t91 -48t111.5 -12 t111.5 12t91 48t67.5 110.5t22.5 189.5t-22.5 189.5t-67.5 110.5t-91 48t-111.5 12t-111.5 -12t-91 -48t-67.5 -110.5t-22.5 -189.5zM350 1155l180 250h99l182 -250h-145l-86 133l-86 -133h-144z" />
<glyph unicode="&#xf5;" horiz-adv-x="1155" d="M100 510q0 156 43 264.5t117 162.5t151.5 76.5t170 22.5t170 -22.5t151.5 -76.5t117 -162.5t43 -264.5t-43 -264.5t-117 -162.5t-151.5 -76.5t-170 -22.5t-170 22.5t-151.5 76.5t-117 162.5t-43 264.5zM270 1153v135q57 68 124 74q11 1 22 1q55 0 106 -25l122 -61 q50 -25 103 -25q12 0 23 2q66 6 123 73v-135q-57 -68 -123 -74q-11 -1 -22 -1q-53 0 -104 25l-122 60q-51 26 -106 26q-11 0 -22 -1q-66 -6 -124 -74zM289 510q0 -115 22.5 -189.5t67.5 -110.5t91 -48t111.5 -12t111.5 12t91 48t67.5 110.5t22.5 189.5t-22.5 189.5 t-67.5 110.5t-91 48t-111.5 12t-111.5 -12t-91 -48t-67.5 -110.5t-22.5 -189.5z" />
<glyph unicode="&#xf6;" horiz-adv-x="1155" d="M100 510q0 156 43 264.5t117 162.5t151.5 76.5t170 22.5t170 -22.5t151.5 -76.5t117 -162.5t43 -264.5t-43 -264.5t-117 -162.5t-151.5 -76.5t-170 -22.5t-170 22.5t-151.5 76.5t-117 162.5t-43 264.5zM289 510q0 -115 22.5 -189.5t67.5 -110.5t91 -48t111.5 -12 t111.5 12t91 48t67.5 110.5t22.5 189.5t-22.5 189.5t-67.5 110.5t-91 48t-111.5 12t-111.5 -12t-91 -48t-67.5 -110.5t-22.5 -189.5zM336 1155v174h186v-174h-186zM639 1155v174h186v-174h-186z" />
<glyph unicode="&#xf7;" horiz-adv-x="1286" d="M227 453v151h832v-151h-832zM549 143v174h186v-174h-186zM549 739v174h186v-174h-186z" />
<glyph unicode="&#xf8;" horiz-adv-x="1175" d="M55 0l135 160q-90 131 -90 350q0 156 43 264.5t117 162.5t151.5 76.5t170.5 22.5q170 0 284 -73l52 59h190l-135 -162q90 -131 90 -350q0 -156 -43 -264.5t-117 -162.5t-151.5 -76.5t-169.5 -22.5q-172 0 -287 73l-49 -57h-191zM289 510q0 -119 26 -199l441 520 q-61 39 -174 39q-66 0 -112 -12t-91 -48t-67.5 -110.5t-22.5 -189.5zM406 188q59 -38 170 -38h6q66 0 111.5 12t90.5 48t67.5 110.5t22.5 189.5q0 125 -28 201z" />
<glyph unicode="&#xf9;" horiz-adv-x="1208" d="M168 430v592h188v-606q0 -139 58.5 -204t185.5 -65t186.5 64.5t59.5 204.5v606h186v-592q0 -213 -113.5 -330.5t-318.5 -117.5t-318.5 117.5t-113.5 330.5zM358 1395h185l127 -240h-117z" />
<glyph unicode="&#xfa;" horiz-adv-x="1208" d="M168 430v592h186v-606q0 -139 59.5 -204t186.5 -65t185.5 64.5t58.5 204.5v606h188v-592q0 -213 -113.5 -330.5t-318.5 -117.5t-318.5 117.5t-113.5 330.5zM528 1155l127 240h185l-195 -240h-117z" />
<glyph unicode="&#xfb;" horiz-adv-x="1208" d="M168 430v592h186v-606q0 -139 59.5 -204t186.5 -65t185.5 64.5t58.5 204.5v606h188v-592q0 -213 -113.5 -330.5t-318.5 -117.5t-318.5 117.5t-113.5 330.5zM369 1155l180 250h98l182 -250h-145l-86 133l-86 -133h-143z" />
<glyph unicode="&#xfc;" horiz-adv-x="1208" d="M168 430v592h186v-606q0 -139 59.5 -204t186.5 -65t185.5 64.5t58.5 204.5v606h188v-592q0 -213 -113.5 -330.5t-318.5 -117.5t-318.5 117.5t-113.5 330.5zM354 1155v174h187v-174h-187zM657 1155v174h187v-174h-187z" />
<glyph unicode="&#xfd;" horiz-adv-x="1073" d="M63 1022h201l275 -766l270 766h201l-420 -1131q-109 -294 -317 -294h-1q-68 0 -143 16v168q61 -16 115 -17q127 0 205 236zM467 1155l127 240h184l-194 -240h-117z" />
<glyph unicode="&#xfe;" horiz-adv-x="1142" d="M170 -377v1774h186v-404q106 31 219 31q88 0 164 -21.5t149 -75t114.5 -159.5t41.5 -258t-41.5 -258.5t-114.5 -159.5t-148.5 -74.5t-164.5 -21.5q-113 0 -219 31v-404h-186zM356 205q104 -43 219 -43q61 0 106.5 12t88.5 46t65.5 106.5t22.5 183.5t-22.5 183.5 t-65.5 106.5t-88 46t-107 12q-115 0 -219 -43v-610z" />
<glyph unicode="&#xff;" horiz-adv-x="1069" d="M63 1022h201l275 -766l270 766h201l-420 -1131q-109 -294 -317 -294h-1q-68 0 -143 16v168q61 -16 115 -17q127 0 205 236zM291 1155v174h186v-174h-186zM594 1155v174h186v-174h-186z" />
<glyph unicode="&#x152;" horiz-adv-x="2056" d="M125 684q0 168 39 295t100.5 202.5t148.5 123t170 63.5t177 16q152 0 272 -45v27h891v-178h-700v-416h616v-178h-616v-416h700v-178h-891v29q-121 -45 -272 -45q-94 0 -177 16t-170 63.5t-148.5 123t-100.5 202.5t-39 295zM315 684q0 -135 28 -234.5t69 -154.5t103.5 -88 t117.5 -42t127 -9q174 0 272 67v922q-97 67 -267 67h-5q-72 0 -127 -9t-117.5 -42t-103.5 -88t-69 -154.5t-28 -234.5z" />
<glyph unicode="&#x153;" horiz-adv-x="1886" d="M100 510q0 156 43 264.5t117 162.5t151.5 76.5t170.5 22.5q256 0 381 -159q112 163 359 163h3q205 0 328 -134t123 -359q0 -74 -7 -141h-704q35 -260 289 -261q201 0 352 74v-168q-158 -67 -357 -67h-6q-260 0 -378 166q-121 -166 -383 -166q-92 0 -170 22.5t-152 76.5 t-117 162.5t-43 264.5zM289 510q0 -115 22.5 -189.5t67.5 -110.5t91 -48t111.5 -12t111.5 12t91 48t67.5 110.5t22.5 189.5t-22.5 189.5t-67.5 110.5t-91 48t-111.5 12t-111.5 -12t-91 -48t-67.5 -110.5t-22.5 -189.5zM1063 575h524q-27 297 -262 297q-129 0 -189.5 -66.5 t-72.5 -230.5z" />
<glyph unicode="&#x178;" horiz-adv-x="1277" d="M25 1366h229l383 -559l383 559h231l-520 -754v-612h-188v610zM393 1483v174h187v-174h-187zM696 1483v174h187v-174h-187z" />
<glyph unicode="&#x2c6;" horiz-adv-x="882" d="M207 1155l180 250h98l183 -250h-146l-86 133l-86 -133h-143z" />
<glyph unicode="&#x2dc;" horiz-adv-x="1079" d="M215 1153v135q57 68 124 74q11 1 22 1q55 0 105 -25l122 -61q50 -25 103 -25q12 0 23 2q66 6 124 73v-135q-57 -68 -123 -74q-11 -1 -22 -1q-54 0 -105 25l-122 60q-50 26 -105 26q-11 0 -22 -1q-67 -6 -124 -74z" />
<glyph unicode="&#x2000;" horiz-adv-x="887" />
<glyph unicode="&#x2001;" horiz-adv-x="1774" />
<glyph unicode="&#x2002;" horiz-adv-x="887" />
<glyph unicode="&#x2003;" horiz-adv-x="1774" />
<glyph unicode="&#x2004;" horiz-adv-x="591" />
<glyph unicode="&#x2005;" horiz-adv-x="443" />
<glyph unicode="&#x2006;" horiz-adv-x="295" />
<glyph unicode="&#x2007;" horiz-adv-x="295" />
<glyph unicode="&#x2008;" horiz-adv-x="221" />
<glyph unicode="&#x2009;" horiz-adv-x="354" />
<glyph unicode="&#x200a;" horiz-adv-x="98" />
<glyph unicode="&#x2010;" horiz-adv-x="950" d="M162 530v160h624v-160h-624z" />
<glyph unicode="&#x2011;" horiz-adv-x="950" d="M162 530v160h624v-160h-624z" />
<glyph unicode="&#x2012;" horiz-adv-x="950" d="M162 530v160h624v-160h-624z" />
<glyph unicode="&#x2013;" horiz-adv-x="1146" d="M141 516v160h860v-160h-860z" />
<glyph unicode="&#x2014;" horiz-adv-x="1824" d="M162 516v160h1501v-160h-1501z" />
<glyph unicode="&#x2018;" horiz-adv-x="552" d="M96 1384h193l151 -401h-172z" />
<glyph unicode="&#x2019;" horiz-adv-x="552" d="M96 983l152 401h192l-172 -401h-172z" />
<glyph unicode="&#x201a;" horiz-adv-x="643" d="M147 -229l152 401h193l-173 -401h-172z" />
<glyph unicode="&#x201c;" horiz-adv-x="843" d="M96 1384h193l151 -401h-172zM401 1384h193l151 -401h-172z" />
<glyph unicode="&#x201d;" horiz-adv-x="827" d="M96 983l152 401h192l-172 -401h-172zM401 983l152 401h192l-172 -401h-172z" />
<glyph unicode="&#x201e;" horiz-adv-x="940" d="M147 -229l152 401h193l-173 -401h-172zM453 -229l151 401h193l-172 -401h-172z" />
<glyph unicode="&#x2022;" horiz-adv-x="864" d="M170 684q0 104 73.5 177t178.5 73q102 0 176 -73t74 -177t-74 -178t-176 -74q-104 0 -178 74t-74 178z" />
<glyph unicode="&#x2026;" horiz-adv-x="1607" d="M219 0v174h187v-174h-187zM711 0v174h186v-174h-186zM1200 0v174h186v-174h-186z" />
<glyph unicode="&#x202f;" horiz-adv-x="354" />
<glyph unicode="&#x2039;" horiz-adv-x="733" d="M63 522l347 389h223l-365 -389l365 -391h-223z" />
<glyph unicode="&#x203a;" horiz-adv-x="792" d="M137 131l365 391l-365 389h223l347 -389l-347 -391h-223z" />
<glyph unicode="&#x205f;" horiz-adv-x="443" />
<glyph unicode="&#x20ac;" horiz-adv-x="1400" d="M102 451v141h142q-2 29 -2 92q0 33 4 94h-144v142h162q29 135 94.5 231t153.5 144t176 68.5t189 20.5q213 0 417 -81v-177q-192 86 -395 86q-184 0 -290.5 -70.5t-145.5 -221.5h614v-142h-635q-4 -61 -4 -94q0 -63 4 -92h635v-141h-614q39 -154 145.5 -224.5t290.5 -70.5 q203 0 395 86v-176q-205 -82 -417 -82q-512 0 -613 467h-162z" />
<glyph unicode="&#x2122;" horiz-adv-x="1568" d="M100 1278v88h555v-88h-231v-594h-94v594h-230zM762 684v682h102l223 -295l226 295h102v-682h-94v539l-234 -308l-231 308v-539h-94z" />
<glyph unicode="&#xe000;" horiz-adv-x="1020" d="M0 0v1020h1020v-1020h-1020z" />
<glyph unicode="&#xfb01;" horiz-adv-x="1202" d="M82 858v166h143v47q0 381 340 381q57 0 111 -14v-162q-41 8 -76 8q-47 0 -71.5 -4t-56.5 -22.5t-46 -64.5t-14 -122v-47h264v-166h-264v-858h-187v858h-143zM874 1180v198h201v-198h-201zM881 0v1022h188v-1022h-188z" />
<glyph unicode="&#xfb02;" horiz-adv-x="1220" d="M82 858v166h143v47q0 381 340 381q57 0 111 -14v-162q-41 8 -76 8q-47 0 -71.5 -4t-56.5 -22.5t-46 -64.5t-14 -122v-47h264v-166h-264v-858h-187v858h-143zM881 0v1411h188v-1411h-188z" />
<glyph unicode="&#xfb03;" horiz-adv-x="1939" d="M82 858v164h143v49q0 381 340 381q57 0 111 -14v-162q-41 8 -76 8q-47 0 -71.5 -4t-56.5 -22.5t-46 -64.5t-14 -122v-49h264v-164h-264v-858h-187v858h-143zM757 858v164h143v49q0 381 340 381q57 0 111 -14v-162q-41 8 -76 8q-47 0 -71.5 -4t-56.5 -22.5t-46 -64.5 t-14 -122v-49h264v-164h-264v-858h-187v858h-143zM1545 1180v198h200v-198h-200zM1551 0v1022h188v-1022h-188z" />
<glyph unicode="&#xfb04;" horiz-adv-x="1952" d="M82 858v164h143v49q0 381 340 381q57 0 111 -14v-162q-41 8 -76 8q-47 0 -71.5 -4t-56.5 -22.5t-46 -64.5t-14 -122v-49h264v-164h-264v-858h-187v858h-143zM757 858v164h143v49q0 381 340 381q57 0 111 -14v-162q-41 8 -76 8q-47 0 -71.5 -4t-56.5 -22.5t-46 -64.5 t-14 -122v-49h264v-164h-264v-858h-187v858h-143zM1557 0v1411h188v-1411h-188z" />
</font>
</defs>
</svg>
