<?xml version="1.0" standalone="no"?>
<!DOCTYPE svg PUBLIC "-//W3C//DTD SVG 1.1//EN" "http://www.w3.org/Graphics/SVG/1.1/DTD/svg11.dtd" >
<svg>
<metadata>
Created by FontForge 20110222 at Sun Mar  9 12:07:42 2014
 By Orthosie Webhosting
Copyright (c) 2011 by vernon adams. All rights reserved.
</metadata>
<defs>
<font id="KameronBold" horiz-adv-x="853" >
  <font-face 
    font-family="KameronBold"
    font-weight="700"
    font-stretch="normal"
    units-per-em="2048"
    panose-1="2 0 5 3 4 0 0 2 0 3"
    ascent="1638"
    descent="-410"
    x-height="906"
    cap-height="1308"
    bbox="-367 -722 2401 1880"
    underline-thickness="102"
    underline-position="-103"
    unicode-range="U+0020-FB02"
  />
<missing-glyph horiz-adv-x="1126" 
 />
    <glyph glyph-name=".notdef" horiz-adv-x="1126" 
 />
    <glyph glyph-name=".null" horiz-adv-x="0" 
 />
    <glyph glyph-name="nonmarkingreturn" horiz-adv-x="682" 
 />
    <glyph glyph-name="space" unicode=" " horiz-adv-x="505" 
 />
    <glyph glyph-name="exclam" unicode="!" horiz-adv-x="687" 
d="M341 231q39 0 70.5 -9t54 -24.5t35 -38t12.5 -49.5q0 -53 -44.5 -87.5t-127.5 -34.5t-128 32t-45 90q0 52 46 86.5t127 34.5zM512 1307q1 -8 1.5 -25t1 -35.5t0.5 -35.5v-25q0 -36 -5 -95.5t-13 -132t-18 -150.5t-20 -150t-20 -131.5t-17 -94.5h-148q-7 34 -16.5 93.5
t-19.5 131.5t-20 151t-17.5 152t-12.5 133.5t-5 96.5v24t0.5 34t1 34.5t1.5 24.5h326z" />
    <glyph glyph-name="quotedbl" unicode="&#x22;" horiz-adv-x="740" 
d="M485 888q-9 51 -20.5 108.5t-22 112.5t-17.5 103.5t-7 80.5q0 37 11.5 65t31 46.5t43.5 27.5t50 9q24 0 47 -8.5t40.5 -25t28.5 -41.5t11 -58q0 -27 -2.5 -57t-10 -76t-20 -114.5t-33.5 -172.5h-130zM154 888q-9 51 -20.5 108.5t-22 112.5t-17.5 103.5t-7 80.5
q0 37 11.5 65t31 46.5t43.5 27.5t50 9q24 0 47 -8.5t40.5 -25t28.5 -41.5t11 -58q0 -27 -2.5 -57t-10 -76t-20 -114.5t-33.5 -172.5h-130z" />
    <glyph glyph-name="numbersign" unicode="#" horiz-adv-x="1471" 
d="M681 1022h290l119 406h188l-118 -406h217l-25 -180h-242l-74 -269h277l-26 -182h-300l-119 -405h-190l119 405h-288l-119 -405h-189l120 405h-226l25 182h248l75 269h-286l28 180h308l117 406h190zM631 842l-76 -270h292l77 270h-293z" />
    <glyph glyph-name="dollar" unicode="$" horiz-adv-x="1187" 
d="M666 1446v-140q115 -8 216 -35.5t186 -77.5l1 -249h-186q0 104 -52 161.5t-165 68.5v-411q127 -34 212 -75.5t136.5 -91t73 -108t21.5 -126.5q0 -72 -28.5 -137t-84.5 -115.5t-141 -82.5t-197 -37v-181h-113v183q-140 7 -250.5 38.5t-187.5 88.5v249h191q1 -59 15.5 -103
t44 -74.5t76 -48t111.5 -23.5v446q-215 55 -320 150.5t-105 234.5q0 77 29.5 140t85 109t136.5 73t183 33v141h112zM554 1179q-108 -8 -167.5 -55t-59.5 -131q0 -74 54.5 -120.5t172.5 -78.5v385zM658 115q51 4 93 19t72 40.5t46 62t16 83.5q0 80 -55.5 133t-171.5 82v-420z
" />
    <glyph glyph-name="percent" unicode="%" horiz-adv-x="1797" 
d="M397 1335q79 0 140.5 -26t103.5 -73t64 -114.5t22 -149.5q0 -86 -23 -153.5t-66 -114.5t-104.5 -71.5t-139.5 -24.5t-139.5 25t-104 72t-65 114.5t-22.5 152.5t23 152t66 114t105 72t140 25zM1423 1322l-889 -1337h-160l890 1337h159zM396 1220q-71 0 -102 -62t-31 -189
t32 -185.5t101 -58.5q33 0 58 13.5t41.5 43t25 76.5t8.5 114q0 131 -30.5 189.5t-102.5 58.5zM1404 703q78 0 139 -25.5t103.5 -72.5t64.5 -115t22 -153t-23 -152t-66 -113.5t-104.5 -71t-138.5 -24.5q-78 0 -139.5 25t-104 72t-65 114t-22.5 152t23 153t66 114.5t105 71.5
t140 25zM1402 588q-70 0 -102 -62.5t-32 -189.5q0 -126 32 -184.5t102 -58.5q69 0 101.5 57.5t32.5 188.5t-31 190t-103 59z" />
    <glyph glyph-name="ampersand" unicode="&#x26;" horiz-adv-x="1699" 
d="M1385 1074v-232h245v-139h-244v-361q0 -44 3 -76.5t12 -54t26 -32.5t45 -11q67 0 67 93l111 14v-31q-2 -75 -20.5 -126.5t-53.5 -83.5t-85.5 -46t-114.5 -14q-183 0 -251 111q-103 -55 -211 -83t-234 -28q-136 0 -243.5 29.5t-182.5 84.5t-114.5 133.5t-39.5 175.5
q0 69 20 130t57.5 113t91 95t119.5 76q-51 50 -70.5 104t-19.5 102q0 80 30 143t86.5 107t136.5 67.5t180 23.5q67 0 122.5 -8t98.5 -18.5t71.5 -21.5t41.5 -18l6 -219l-166 -15q-3 37 -17.5 64t-37 44.5t-51.5 26t-60 8.5q-44 0 -82.5 -11t-67.5 -32.5t-46 -52t-17 -69.5
q0 -20 2 -42t10.5 -46t24 -50.5t42.5 -56.5l497 1q0 3 1 12.5t2.5 24t3.5 32t4 35.5q4 42 11 94zM759 168q169 0 323 86q-1 6 -1.5 16t-0.5 21.5v22.5v17v372h-484q-94 -57 -136 -131.5t-42 -155.5q0 -47 17.5 -91.5t57.5 -79.5t105.5 -56t160.5 -21z" />
    <glyph glyph-name="quotesingle" unicode="'" horiz-adv-x="435" 
d="M154 888q-9 51 -20.5 108.5t-22 112.5t-17.5 103.5t-7 80.5q0 37 11.5 65t31 46.5t43.5 27.5t50 9q24 0 47 -8.5t40.5 -25t28.5 -41.5t11 -58q0 -27 -2.5 -57t-10 -76t-20 -114.5t-33.5 -172.5h-130z" />
    <glyph glyph-name="parenleft" unicode="(" horiz-adv-x="795" 
d="M726 1289q-149 -130 -216.5 -310t-67.5 -415q0 -118 15.5 -222t49 -195.5t88 -172t132.5 -150.5l-94 -100q-141 72 -238 169.5t-156 207.5t-85 227t-26 227q0 124 29.5 245.5t91 231t156.5 201.5t226 157z" />
    <glyph glyph-name="parenright" unicode=")" horiz-adv-x="795" 
d="M198 1390q229 -171 348 -380t119 -446q0 -115 -26 -233.5t-85.5 -229t-156 -208t-238.5 -169.5l-95 100q78 70 133 150.5t89.5 173t50.5 197t16 222.5q0 246 -74.5 438t-237.5 338q37 12 76 24t81 23z" />
    <glyph glyph-name="asterisk" unicode="*" horiz-adv-x="1046" 
d="M434 591q21 47 37.5 95.5t23.5 114.5q-50 -38 -83 -78t-63 -87l-119 -80l-105 167l123 72q50 8 100 24.5t105 44.5q-57 28 -105.5 39t-97.5 19l-125 74l105 167l117 -80q59 -85 146 -153q-8 61 -23.5 107.5t-35.5 91.5l-4 142h198l-4 -140q-20 -47 -32.5 -93.5
t-18.5 -97.5q45 35 78 70t60 73l118 80l104 -167l-123 -74q-56 -7 -105.5 -19.5t-103.5 -38.5q51 -26 102.5 -43.5t107.5 -25.5l122 -72l-104 -167l-120 80q-28 41 -58.5 78.5t-79.5 77.5q5 -54 18 -104.5t35 -99.5l4 -141h-194v144z" />
    <glyph glyph-name="plus" unicode="+" horiz-adv-x="1537" 
d="M868 736h480v-196h-480v-482h-199v482h-481v196h481v481h199v-481z" />
    <glyph glyph-name="comma" unicode="," horiz-adv-x="646" 
d="M514 251l-40 -229q-12 -69 -36.5 -125.5t-60 -98t-81 -66t-99.5 -30.5l-72 127q31 6 49.5 25t28 43t12.5 48l5 40l-76 24l27 242h343z" />
    <glyph glyph-name="hyphen" unicode="-" horiz-adv-x="828" 
d="M743 592v-265h-661v265h661z" />
    <glyph glyph-name="period" unicode="." horiz-adv-x="646" 
d="M318 231q39 0 70.5 -9t54 -24.5t35 -38t12.5 -49.5q0 -53 -44 -87.5t-128 -34.5q-82 0 -127.5 32t-45.5 90q0 52 46 86.5t127 34.5z" />
    <glyph glyph-name="slash" unicode="/" horiz-adv-x="503" 
d="M528 1322l-397 -1418h-180l396 1418h181z" />
    <glyph glyph-name="zero" unicode="0" horiz-adv-x="1258" 
d="M629 1333q122 0 220.5 -43.5t167.5 -129t106.5 -212t37.5 -292.5q0 -173 -39 -301t-109.5 -212.5t-168.5 -126.5t-215 -42q-122 0 -220.5 44.5t-168 130.5t-107 213.5t-37.5 293.5q0 161 36 287t104 212.5t167.5 132t225.5 45.5zM629 1139q-128 0 -186.5 -118.5
t-58.5 -352.5q0 -126 13 -220t42 -156.5t75.5 -93t114.5 -30.5q132 0 188 122.5t56 366.5q0 245 -59 363.5t-185 118.5z" />
    <glyph glyph-name="one" unicode="1" horiz-adv-x="1258" 
d="M793 1308v-1030q0 -32 2.5 -52.5t15.5 -32.5t39 -16.5t74 -4.5h69v-172h-74t-74.5 0.5t-81 1t-92.5 0.5q-59 0 -106.5 -0.5t-89.5 -0.5t-82 -0.5t-83 -0.5v172h94q42 0 64.5 6.5t33.5 19.5t13 33.5t2 48.5v754q-29 -16 -60.5 -30t-62 -25.5t-59 -20t-51.5 -12.5v201
q100 16 180.5 59t137.5 102h191z" />
    <glyph glyph-name="two" unicode="2" horiz-adv-x="1258" 
d="M136 0q-1 5 -1 11.5v11.5q0 89 11.5 160.5t35 131t60.5 110t88 98t116.5 95.5t146.5 103q66 45 108.5 79t66.5 64.5t33.5 60t9.5 65.5q0 79 -59 123.5t-158 44.5q-65 0 -108.5 -15.5t-69.5 -44.5t-37.5 -71.5t-13.5 -96.5l-200 14l1 260q91 69 207.5 99.5t259.5 30.5
q109 0 195.5 -25t146.5 -72.5t91.5 -115.5t31.5 -154q0 -75 -27.5 -132.5t-76 -106t-116.5 -92.5t-149 -93q-78 -47 -139.5 -90t-104 -85.5t-65.5 -86t-23 -89.5h409q38 0 59.5 6.5t33 28.5t15.5 63.5t6 111.5h169v-402h-953z" />
    <glyph glyph-name="three" unicode="3" horiz-adv-x="1258" 
d="M324 418q2 -130 66.5 -190t191.5 -60q51 0 95.5 13.5t78 39.5t53 65.5t19.5 91.5q0 62 -22.5 106t-63 72.5t-97.5 42t-126 14.5v154q66 7 117 21.5t86 39.5t53.5 62t18.5 90q0 43 -16 79t-45.5 61.5t-71 39.5t-91.5 14q-59 0 -100 -15.5t-66.5 -44.5t-37 -71t-12.5 -95
l-209 6l1 266q81 58 195.5 85.5t254.5 27.5q111 0 199 -23t149 -68t93.5 -111t32.5 -151q0 -109 -61 -181t-175 -99q63 -14 114.5 -40.5t87.5 -67.5t56 -96.5t20 -125.5q0 -94 -36.5 -167.5t-106 -124.5t-169 -77.5t-225.5 -26.5q-83 0 -164 20t-145.5 69.5t-105 133.5
t-43.5 212z" />
    <glyph glyph-name="four" unicode="4" horiz-adv-x="1258" 
d="M968 1308v-742h190v-164h-190v-163q0 -26 3.5 -42t14.5 -24.5t31.5 -11.5t55.5 -3h57v-158q-18 0 -59.5 0.5t-91.5 0.5t-101 0.5t-88 0.5q-48 0 -85.5 -0.5t-70 -0.5t-63 -0.5t-64.5 -0.5v158h76q35 0 59 3t38.5 11.5t20.5 22.5t6 37v170h-584q-8 52 -16 103t-18 102
l577 701h302zM262 563h448v567z" />
    <glyph glyph-name="five" unicode="5" horiz-adv-x="1258" 
d="M1067 1308v-239h-174q0 32 -2.5 46.5t-19.5 14.5h-470q-4 -98 -7 -175q-2 -33 -2.5 -64t-1.5 -56q-1 -29 -2 -55q61 42 130.5 62.5t152.5 20.5q103 0 187 -30.5t144 -86.5t93 -135.5t33 -177.5q0 -111 -36.5 -196.5t-104 -144t-163.5 -88.5t-215 -30q-131 0 -248.5 31.5
t-217.5 91.5l-1 245l208 5q14 -91 71.5 -135t167.5 -44q57 0 103.5 16.5t79.5 49.5t51 81t18 111q0 56 -17.5 100.5t-49.5 75.5t-78.5 47.5t-103.5 16.5q-76 0 -133.5 -25.5t-97.5 -73.5l-164 40v701h870z" />
    <glyph glyph-name="six" unicode="6" horiz-adv-x="1258" 
d="M700 1334q134 0 233.5 -27.5t177.5 -75.5l10 -226l-195 -11q-8 97 -65 141t-171 44q-75 0 -127.5 -29t-86.5 -86t-50.5 -140t-18.5 -191q63 65 147 98.5t179 33.5q97 0 176.5 -32t136 -89.5t87 -137t30.5 -174.5q0 -101 -36.5 -185t-102.5 -144.5t-158.5 -94
t-204.5 -33.5q-119 0 -217 40t-168.5 121.5t-109.5 205.5t-39 293q0 157 34.5 286t105.5 220.5t178.5 142t254.5 50.5zM657 690q-60 0 -116 -25t-101 -71q-15 -32 -22.5 -70t-7.5 -80q0 -133 65.5 -204.5t180.5 -71.5q109 0 170.5 63t61.5 183q0 64 -15 115t-44.5 87
t-72.5 55t-99 19z" />
    <glyph glyph-name="seven" unicode="7" horiz-adv-x="1258" 
d="M185 1308h936v-199q-107 -165 -185 -323.5t-131.5 -301.5t-84.5 -266t-44 -218h-312q21 143 70 291.5t118.5 294t156.5 283.5t184 260h-373q-51 0 -83.5 -3.5t-51 -14t-26 -31t-7.5 -54.5v-110h-167v392z" />
    <glyph glyph-name="eight" unicode="8" horiz-adv-x="1258" 
d="M865 691q153 -42 223.5 -125t70.5 -210q0 -81 -30 -150.5t-95 -121t-166.5 -80.5t-243.5 -29q-130 0 -228.5 26.5t-165 75.5t-100 119t-33.5 158q0 122 71 204t221 132q-120 33 -183.5 109t-63.5 185q0 82 33 147t95.5 110.5t152 69.5t202.5 24q115 0 207 -23.5
t156.5 -68t99 -108t34.5 -144.5q0 -114 -64.5 -187.5t-192.5 -112.5zM630 168q55 0 105.5 12t89.5 36t62 61t23 89q0 89 -70 157t-212 103q-134 -31 -202 -96t-68 -165q0 -49 20 -86t56 -61.5t86 -37t110 -12.5zM634 1149q-45 0 -87 -8.5t-73.5 -26.5t-50.5 -46t-19 -67
q0 -81 58 -138t173 -92q217 62 217 223q0 43 -18 73t-48 48t-69.5 26t-82.5 8z" />
    <glyph glyph-name="nine" unicode="9" horiz-adv-x="1258" 
d="M610 1139q-111 0 -171 -65t-60 -182q0 -61 15 -110.5t44 -85t71.5 -55t97.5 -19.5q137 0 236 88q11 61 14 140q0 66 -16 119.5t-47.5 91t-77.5 58t-106 20.5zM597 -25q-131 0 -239.5 31.5t-191.5 95.5l-1 202l202 11q10 -98 60 -139.5t151 -41.5q78 0 132 28.5t88 85
t50 140t17 194.5q-62 -68 -145.5 -101.5t-182.5 -33.5q-98 0 -178 32t-136.5 89t-87 137t-30.5 176q0 103 36 186.5t102 142.5t158.5 91t204.5 32q119 0 217 -39.5t168.5 -121t109.5 -206.5t39 -297q0 -156 -32.5 -283.5t-99.5 -219t-169.5 -141.5t-241.5 -50z" />
    <glyph glyph-name="colon" unicode=":" horiz-adv-x="663" 
d="M330 903q78 0 125.5 -33.5t47.5 -87.5q0 -53 -44.5 -87.5t-128.5 -34.5q-82 0 -127 32t-45 90q0 52 45.5 86.5t126.5 34.5zM330 231q39 0 71 -9t54.5 -24.5t35 -37.5t12.5 -49q0 -53 -44.5 -88t-128.5 -35q-82 0 -127 32.5t-45 90.5q0 25 12 47t34 38.5t54 25.5t72 9z
" />
    <glyph glyph-name="semicolon" unicode=";" horiz-adv-x="663" 
d="M513 251l-40 -229q-12 -69 -36.5 -125.5t-60 -98t-81 -66t-99.5 -30.5l-72 127q31 6 49.5 25t28 43t12.5 48l5 40l-76 24l27 242h343zM340 903q39 0 70.5 -9t54 -24.5t35 -38t12.5 -49.5q0 -53 -44.5 -87.5t-127.5 -34.5q-82 0 -127.5 32t-45.5 90q0 52 46 86.5t127 34.5
z" />
    <glyph glyph-name="less" unicode="&#x3c;" horiz-adv-x="1536" 
d="M471 638l872 -348v-213l-1151 471v180l1151 472v-214z" />
    <glyph glyph-name="equal" unicode="=" horiz-adv-x="1536" 
d="M1348 759h-1161v197h1161v-197zM1348 322h-1161v196h1161v-196z" />
    <glyph glyph-name="greater" unicode="&#x3e;" horiz-adv-x="1536" 
d="M1343 548l-1151 -471v213l872 348l-872 348v214l1151 -472v-180z" />
    <glyph glyph-name="question" unicode="?" horiz-adv-x="1082" 
d="M596 415h-202q-4 12 -7.5 28.5t-5.5 33.5t-3.5 31.5t-1.5 22.5q0 64 26.5 102.5t66.5 65t86 47t86 49t66.5 71t26.5 112.5q0 50 -18 89t-48.5 65.5t-72 40.5t-88.5 14q-101 0 -161 -56.5t-60 -175.5h-211l22 275q88 51 193.5 78t228.5 27q135 0 231.5 -26.5t158 -73
t90.5 -109.5t29 -136q0 -89 -38 -156.5t-98.5 -123.5t-135.5 -107t-150 -108zM495 231q78 0 125 -33.5t47 -87.5q0 -53 -44 -87.5t-128 -34.5q-82 0 -127 32t-45 90q0 52 45.5 86.5t126.5 34.5z" />
    <glyph glyph-name="at" unicode="@" horiz-adv-x="1720" 
d="M1177 57q-86 0 -127 43.5t-43 134.5q-1 -2 -5 -4q-66 -87 -133.5 -128.5t-151.5 -41.5q-66 0 -121.5 27t-95.5 76.5t-62 119t-22 153.5q0 62 15 129.5t44 132.5t70 123t93.5 102t114.5 69.5t133 25.5q84 0 138 -45.5t91 -131.5l37 152h153l-142 -647q-7 -35 -14 -68
t-7 -56q0 -73 65 -73q31 0 67 15.5t76 44.5q49 36 90 85t70 111.5t45 137t16 161.5q0 135 -45 245.5t-127 189t-198 121.5t-258 43q-174 0 -314.5 -62t-240 -170.5t-153.5 -255t-54 -314.5q0 -163 55 -295.5t152 -226t229.5 -144.5t287.5 -51q158 0 299.5 51.5t277.5 157.5
l107 -21q-65 -62 -144 -113t-166.5 -88.5t-181.5 -58t-190 -20.5q-191 0 -348.5 63t-270.5 174t-175.5 261.5t-62.5 326.5q0 117 29 228t83 208.5t132 178.5t176 139.5t215 91t249 32.5q180 0 317 -56t229.5 -152t139 -223t46.5 -268q0 -94 -21.5 -178t-57.5 -155
t-84.5 -128t-103 -96.5t-111.5 -61t-111 -21.5zM1056 727q0 43 -10.5 79.5t-31 63.5t-50 42t-67.5 15q-46 0 -87 -26t-75.5 -69t-61.5 -99.5t-46.5 -118.5t-29.5 -124.5t-10 -117.5q0 -100 41.5 -160.5t116.5 -60.5q47 0 88.5 26.5t76 71.5t62 103.5t46 122.5t28.5 129
t10 123z" />
    <glyph glyph-name="A" unicode="A" horiz-adv-x="1454" 
d="M921 1308q87 -236 159 -430q31 -83 61 -164.5t55.5 -150t43.5 -117t24 -64.5q25 -69 39 -109t31.5 -61t44.5 -27.5t78 -7.5v-177q-59 0 -114.5 1t-128.5 1q-86 0 -168.5 -0.5t-178.5 -1.5v165h11.5h15.5t15 0.5t10 0.5q48 2 66 10t18 28q0 12 -5 29.5t-13 40.5l-64 189
h-461q-3 -11 -14 -42.5t-23.5 -67.5t-22.5 -67t-12 -39q-5 -14 -7.5 -25.5t-2.5 -18.5q0 -22 13.5 -29.5t45.5 -8.5q3 0 13 -0.5t22 -0.5h22.5h14.5v-164q-61 0 -123 1t-134 1h-65.5t-59.5 -0.5t-59 -1t-64 -0.5v178q36 4 58.5 7t37.5 11.5t26 25t23 46.5q8 19 25 62
t39.5 101t49.5 126.5t55 139.5t55 140t50 127.5t40 102t25 63.5l46 178h387zM506 593h369l-179 526l-2 1z" />
    <glyph glyph-name="B" unicode="B" horiz-adv-x="1421" 
d="M711 1308q166 0 276.5 -22t176.5 -64.5t93.5 -104.5t27.5 -142q0 -50 -16 -96.5t-47 -84.5t-76.5 -65.5t-104.5 -39.5q140 -29 218 -113t78 -214q0 -79 -27.5 -145.5t-92 -114.5t-171.5 -75t-265 -27h-708v178h52q34 0 53 6.5t28.5 18.5t11.5 30t2 41v737q0 19 -1.5 39.5
t-10 38t-26.5 29t-51 11.5q-3 0 -11 0.5t-16.5 0.5h-17h-13.5v178h638zM546 745h160q249 0 249 193q0 45 -14.5 79.5t-45.5 58.5t-80 36.5t-119 12.5h-150v-380zM546 182h165q139 0 210 49t71 151q0 56 -18 96t-58.5 66t-104.5 38.5t-155 12.5h-110v-413z" />
    <glyph glyph-name="C" unicode="C" horiz-adv-x="1446" 
d="M835 168q76 0 133.5 16t96.5 52t60.5 94t25.5 142l204 -44l-15 -304q-118 -79 -251 -114.5t-288 -35.5q-182 0 -313 53t-215 145t-124 216t-40 266q0 149 45.5 274t130.5 215t207 140t276 50q46 0 95 -8t94 -23t83.5 -36t65.5 -47l5 86h222v-410l-205 1q-8 114 -82 178.5
t-214 64.5q-85 0 -152 -31t-113.5 -91.5t-71.5 -151t-25 -208.5q0 -116 25 -207t72 -153.5t114.5 -95.5t153.5 -33z" />
    <glyph glyph-name="D" unicode="D" horiz-adv-x="1584" 
d="M625 1308q426 0 635 -161.5t209 -485.5q0 -187 -58.5 -313.5t-166 -204t-259 -110.5t-338.5 -33h-582v178h49q31 0 49 8.5t27 23t11.5 34.5t2.5 44v36.5t-0.5 86.5t-0.5 120v136v368q0 21 -3.5 38t-13 30t-27 20.5t-45.5 7.5h-49v177h560zM531 194h144q110 0 192.5 27
t137 84.5t82 146.5t27.5 213q0 234 -108.5 341.5t-331.5 107.5h-143v-920z" />
    <glyph glyph-name="E" unicode="E" horiz-adv-x="1316" 
d="M1211 1308v-364h-195v41q0 48 -10 74t-28 37.5t-44 13.5t-58 2h-335v-363h197q22 0 37.5 2.5t26.5 11.5t18.5 28t12.5 52h85v-354h-86q-6 32 -13 51t-18 28.5t-26 12t-37 2.5h-197v-389h349q37 0 62 5t40.5 22t22.5 48.5t7 84.5v32h193v-386h-1147v178h74q26 0 40.5 9
t22 25t9 36t1.5 43v720q0 22 -1 44t-8 39t-21.5 27.5t-42.5 10.5h-70v176h1139z" />
    <glyph glyph-name="F" unicode="F" horiz-adv-x="1213" 
d="M1196 1308v-374h-194v48q0 48 -10 74t-27 38.5t-39.5 15t-47.5 2.5h-339v-364h176q25 0 42.5 1.5t29.5 9t19 24.5t10 48h75v-331h-75q-3 28 -10 44t-18 24.5t-28.5 11t-41.5 2.5h-179v-321q0 -27 5 -43.5t17 -25t31.5 -11.5t48.5 -3h61v-178h-83t-82.5 0.5t-89.5 1
t-103 0.5q-49 0 -87.5 -0.5t-72 -0.5t-65 -0.5t-66.5 -0.5v178h67q27 0 45 3.5t28.5 15.5t14.5 35t4 62v722q0 33 -2 55t-11 35.5t-27.5 19t-51.5 5.5h-65v177h1141z" />
    <glyph glyph-name="G" unicode="G" horiz-adv-x="1554" 
d="M1368 906h-204q-27 115 -107.5 174t-208.5 59q-95 0 -167 -34t-120.5 -97.5t-73 -154t-24.5 -203.5q0 -233 105 -357.5t308 -124.5q48 0 88.5 7t70 20.5t46 33.5t16.5 46v161q0 27 -6 41t-21.5 20t-41.5 6.5t-66 0.5h-63v153q83 0 159.5 -1t165.5 -1h118.5t136.5 2
q0 -13 -0.5 -32.5t-0.5 -40t-0.5 -40t-0.5 -32.5q-38 -5 -63 -10t-39 -12.5t-20 -19.5t-6 -31q0 -12 -2.5 -51t-6 -89t-7.5 -103t-7 -94q-112 -73 -234 -100.5t-241 -27.5q-138 0 -247.5 26t-193 72.5t-142.5 110.5t-96.5 140t-54.5 160.5t-17 172.5q0 155 51.5 280
t142 213.5t213 136t265.5 47.5q52 0 104 -7.5t100 -22.5t90 -38t75 -54l4 93h223v-398z" />
    <glyph glyph-name="H" unicode="H" horiz-adv-x="1612" 
d="M75 1308q15 0 52.5 -0.5t84 -0.5t94 -0.5t82.5 -0.5h56t71.5 0.5t80.5 1t83 0.5v-178h-35q-39 0 -59.5 -7t-30.5 -19.5t-11.5 -30.5t-1.5 -39v-279h528v297q0 23 -4.5 38t-16 24t-31.5 12.5t-51 3.5h-35v178q97 -2 179 -2h159h48.5t65.5 0.5t76 1t78 0.5v-178h-32
q-39 0 -61 -5.5t-32.5 -17t-13 -28t-2.5 -37.5v-754q0 -29 1 -49.5t10.5 -34t32 -20t65.5 -6.5h32v-178q-36 0 -69.5 0.5t-68.5 0.5t-74.5 0.5t-87.5 0.5q-90 0 -163.5 -1t-142.5 -1v178h35q36 0 56.5 4t31 15.5t13 31t2.5 49.5v305h-528v-324q0 -30 4.5 -46.5t16.5 -24
t32 -9t50 -1.5h35v-178q-37 0 -71.5 0.5t-71 0.5t-77.5 0.5t-91 0.5q-47 0 -85.5 -0.5t-73.5 -0.5t-67.5 -0.5t-66.5 -0.5v178h31q40 0 62 8.5t32.5 23.5t12 35.5t1.5 44.5v759q0 20 -2.5 35.5t-13.5 25.5t-32.5 15t-59.5 5h-31v178z" />
    <glyph glyph-name="I" unicode="I" horiz-adv-x="761" 
d="M75 1308q45 -1 82 -1.5t69 -0.5h61.5h58.5h106.5h86t76 0.5t76.5 1.5v-178h-42q-36 0 -56.5 -6.5t-31 -19t-13 -30t-2.5 -39.5v-766q0 -27 2 -44.5t12 -28t30.5 -14.5t58.5 -4h42v-178q-37 0 -72 0.5t-71.5 0.5t-78 0.5t-90.5 0.5q-92 0 -162.5 -1t-141.5 -1v178h40
q39 0 60 7t31 21t11.5 35t1.5 49v725q0 29 -2 50.5t-12 36t-31 21.5t-59 7h-40v178z" />
    <glyph glyph-name="J" unicode="J" horiz-adv-x="864" 
d="M221 1308q41 0 79 -0.5l76 -1t77.5 -0.5h84.5h49.5h67.5t77.5 0.5t80.5 1.5v-178h-49q-36 0 -55.5 -8t-29.5 -24t-12 -38.5t-2 -50.5v-740q0 -143 -21 -240t-71.5 -156t-134 -84t-207.5 -25q-60 0 -110 7.5t-103 18.5v305q7 0 20 -1t27.5 -2t27.5 -2t19 -1q14 -60 33 -83
t51 -23q49 3 77 32t42.5 76t18 107.5t3.5 125.5v700q0 22 -1.5 41t-9.5 33.5t-25 23t-48 8.5h-73v178h41z" />
    <glyph glyph-name="K" unicode="K" horiz-adv-x="1510" 
d="M979 1091q23 20 23 29q0 8 -13 9t-36 1h-104v177q8 0 31.5 -0.5t55 -0.5h66.5h66.5h55.5h32l294 1v-177h-13.5h-17.5t-17 -0.5t-12 -0.5q-41 -1 -71.5 -5.5t-58.5 -15t-55.5 -29.5t-62.5 -50l-341 -301l449 -467q29 -30 69 -53.5t100 -28.5q3 0 10.5 -0.5t16.5 -0.5h17
h11v-178h-32h-56t-68.5 0.5t-69.5 0.5h-59.5h-37.5h-36.5h-59t-70 -0.5t-68.5 -0.5h-55.5h-30.5v178h80q37 0 37 9q0 8 -22 33l-336 367l-61 -49v-258q0 -24 2 -42.5t11 -32t29 -20.5t56 -7h46v-178h-30.5h-53t-65 0.5t-66 0.5h-56.5h-36h-35.5h-56t-66 -0.5t-65.5 -0.5
h-53.5h-30.5v178h45q36 0 56 8t29 22t11 32.5t2 40.5v741q0 23 -2 42.5t-11.5 34t-29.5 23t-55 8.5h-45v178q45 0 82.5 -1t70.5 -1.5t62.5 -0.5h59.5t74 0.5t92 1t96.5 1t88.5 0.5v-178h-57q-35 0 -55 -9.5t-30 -25t-12 -35.5t-2 -40v-338z" />
    <glyph glyph-name="L" unicode="L" horiz-adv-x="1190" 
d="M66 1308q7 0 35.5 -0.5t64.5 -1t72.5 -1t60.5 -0.5h94t94 0.5t100 1t112 1.5v-178h-65q-34 0 -53 -10t-28.5 -26t-11.5 -36.5t-2 -41.5v-414q0 -179 1 -405h323q38 0 59.5 16t32 47.5t13.5 77.5t3 106h183v-444h-1088v178h47q36 0 56.5 9t30 24t11.5 36t2 45v697v39
q0 20 -3 38.5t-13 32.5t-30 22.5t-54 8.5h-47v178z" />
    <glyph glyph-name="M" unicode="M" horiz-adv-x="1940" 
d="M77 1308q14 0 49.5 -0.5t78.5 -1t87 -0.5h75h63.5t77 0.5t81.5 1t79 0.5l152 -458q28 -86 55.5 -168t48.5 -146.5t34.5 -104l13.5 -39.5q9 34 32 104.5t53.5 160t64.5 188.5t65 189.5t55.5 163.5t35.5 110q36 0 80.5 -0.5t90 -1t87.5 -0.5h72h63.5t79.5 0.5t72 1t43 0.5
v-178h-51q-31 0 -48.5 -4.5t-26 -13t-10.5 -21.5t-2 -30v-398q0 -173 1 -393q0 -27 3 -45t12.5 -28.5t27.5 -14.5t48 -4h49v-178q-38 0 -74 0.5t-74.5 0.5t-81 0.5t-91.5 0.5q-43 0 -76.5 -0.5t-63 -0.5t-57 -0.5t-57.5 -0.5v178h41q34 0 53.5 8.5t30 25t13.5 40.5t3 54v843
l-57 -157l-354 -992h-184q-9 24 -27 74t-41.5 116.5t-50.5 145t-55 159t-55.5 158.5t-51 144.5t-41 117t-26.5 74.5l-28 78q-5 14 -10.5 28.5t-9.5 25.5q-5 13 -9 25v-879q0 -30 3.5 -47.5t13 -26.5t27 -12t46.5 -3h48v-178q-29 0 -56 0.5t-56 0.5t-61.5 0.5t-71.5 0.5
q-42 0 -76 -0.5t-64 -0.5t-58.5 -0.5t-58.5 -0.5v178h49q36 0 55 7.5t27 21.5t9.5 34t2.5 46l1 752q0 24 -3.5 41t-13 28.5t-27.5 16.5t-47 5h-47v178z" />
    <glyph glyph-name="N" unicode="N" horiz-adv-x="1543" 
d="M319 1308h24h42.5h52h52h43h24.5l571 -963h2l-1 701q0 28 -4 44.5t-15 25.5t-30.5 11.5t-50.5 2.5h-46v178q75 0 134.5 -1t108.5 -1h22.5h35.5t43 0.5t46 0.5q54 0 118 1v-178h-51q-34 0 -52 -7.5t-26.5 -21t-10 -33t-1.5 -42.5v-48v-119.5v-166.5v-190v-516h-329
l-601 1002h-2l1 -722q0 -31 3.5 -48.5t15 -26.5t31.5 -11t53 -2h49v-178q-57 0 -115.5 1t-135.5 1q-43 0 -78 -0.5t-66.5 -0.5t-61.5 -0.5t-62 -0.5v178h52q37 0 56.5 7t28.5 21t10 35.5t1 50.5v737q0 30 -2 49.5t-11.5 31t-28.5 16t-52 4.5h-52v178h265z" />
    <glyph glyph-name="O" unicode="O" horiz-adv-x="1575" 
d="M788 1333q165 0 292.5 -52t215 -143.5t133 -215.5t45.5 -267t-45.5 -267t-132.5 -216t-214 -145t-291 -53q-166 0 -295 52t-217 143.5t-134 216t-46 269.5q0 143 45 266.5t132.5 215t216 144t295.5 52.5zM787 1139q-86 0 -147.5 -33t-101 -95.5t-58 -152t-18.5 -201.5
q0 -117 20 -208t60 -153.5t101 -95t144 -32.5q84 0 145.5 33.5t101 96.5t59 153.5t19.5 204.5q0 234 -80 358.5t-245 124.5z" />
    <glyph glyph-name="P" unicode="P" horiz-adv-x="1353" 
d="M754 1308q147 0 250 -28.5t168 -79.5t95 -122.5t30 -157.5q0 -85 -27 -155t-90.5 -120.5t-168 -78t-260.5 -27.5h-199v-266q0 -32 4.5 -51t15.5 -28.5t31 -12.5t52 -3h50v-178q-35 0 -68 0.5t-68 0.5t-74.5 0.5t-85.5 0.5q-51 0 -95.5 -0.5t-86 -0.5t-80.5 -0.5t-78 -0.5
v178h50q37 0 58.5 4t31.5 16.5t12.5 35t2.5 59.5v728q0 24 -2 43.5t-12 34t-30 23t-56 8.5h-55v178h685zM552 715h162q125 0 188 51t63 156q0 51 -15 89.5t-47 64t-83 38.5t-124 13h-144v-412z" />
    <glyph glyph-name="Q" unicode="Q" horiz-adv-x="1575" 
d="M787 168q84 0 145 33.5t101 97t59.5 154t19.5 204.5t-20 204t-60.5 151.5t-101.5 94t-143 32.5q-86 0 -147.5 -34t-101 -97t-58 -152t-18.5 -198q0 -116 19.5 -207t59.5 -154t101.5 -96t144.5 -33zM1273 -349q-58 0 -111.5 13.5t-104 33.5t-98 43.5t-94 43.5t-93 33.5
t-94.5 13.5q-31 0 -59.5 -9.5t-46.5 -29.5l-71 127q29 35 63.5 49t81.5 18q-127 18 -228 75t-172 144.5t-109 201.5t-38 247q0 144 46 267.5t134 215t216.5 143.5t293.5 52q163 0 290.5 -52t215 -143.5t133.5 -215t46 -266.5q0 -127 -38.5 -243.5t-115 -208t-189.5 -151
t-261 -71.5q1 0 2 -1t2 -1q58 -14 105.5 -32.5t102 -35t125 -28t174.5 -11.5l-67 -221q-11 -1 -21 -1h-20z" />
    <glyph glyph-name="R" unicode="R" horiz-adv-x="1474" 
d="M1201 362q9 -50 17.5 -86.5t20 -60.5t28 -35.5t40.5 -11.5q35 0 53 20t18 68l116 14v-5.5t-0.5 -10t-0.5 -10v-5.5q-2 -70 -21.5 -120t-55.5 -82.5t-86.5 -47.5t-114.5 -15q-77 0 -134 22t-98 66t-68 110.5t-44 156.5q-15 80 -35.5 133t-45.5 88q-27 22 -65 29.5t-94 7.5
h-87l-1 -337q0 -23 4.5 -37.5t15.5 -22t30 -10t49 -2.5h44v-178h-73.5t-74.5 0.5t-80.5 1t-91.5 0.5q-48 0 -87.5 -0.5t-74.5 -0.5t-67.5 -0.5t-66.5 -0.5v178h32q43 0 66.5 6.5t34 19.5t12 32t1.5 44v747q0 28 -2.5 47.5t-14 32t-35.5 18t-67 5.5h-27v178h639
q73 0 144.5 -5t136 -19.5t120 -39.5t96 -65t63.5 -97t23 -134q0 -54 -18 -102.5t-52.5 -87.5t-84 -67t-112.5 -42q30 -14 57.5 -35t50.5 -54t40.5 -81t27.5 -117zM543 732h155q67 0 116.5 9.5t81.5 32.5t48 60t16 93q0 59 -19 97.5t-55.5 61t-91 31t-126.5 8.5h-125v-393z
" />
    <glyph glyph-name="S" unicode="S" horiz-adv-x="1199" 
d="M1064 943h-192q-4 13 -6.5 25t-5.5 24q-17 89 -76 136.5t-179 47.5q-49 0 -88 -12t-66.5 -34t-42.5 -52t-15 -67q0 -57 35 -94t95 -66.5t139 -57t167 -65.5q58 -24 109.5 -56.5t90.5 -76t61.5 -101t22.5 -131.5q0 -79 -31 -149.5t-88.5 -124t-140.5 -84.5t-187 -31
q-50 0 -99.5 8.5t-95 24.5t-85 39t-69.5 52v-98h-219v406h192q6 -26 12 -48q10 -51 29.5 -90.5t52.5 -66.5t81 -41t115 -14q51 0 92.5 12t71.5 34.5t46 56t16 75.5q0 57 -34.5 95.5t-91 67.5t-127.5 53.5t-144 54.5q-158 65 -234.5 153t-76.5 213q0 79 29.5 147t86 118
t137.5 78.5t185 28.5q90 0 177.5 -22t164.5 -83q0 14 -0.5 28t-0.5 26v27h26.5t48 -0.5t58 -0.5h54.5v-365z" />
    <glyph glyph-name="T" unicode="T" horiz-adv-x="1324" 
d="M57 1308q97 -1 185 -1q37 0 76.5 -0.5t77 -0.5h70.5h57h378q43 0 90.5 0.5t95 0.5t93.5 0.5t87 0.5v-442h-158v135q0 35 -4 56.5t-20 33.5t-47.5 16t-85.5 4h-125v-856q0 -11 2.5 -24.5t12 -25t29 -19.5t52.5 -8h56v-178h-71.5t-71 0.5t-77.5 1t-92 0.5q-35 0 -75.5 -0.5
t-83 -0.5t-83.5 -0.5t-77 -0.5v178h56q37 0 56.5 10t28.5 26t10 36.5t1 40.5v820h-160q-41 0 -66 -3.5t-38.5 -12.5t-18 -24t-4.5 -38v-32.5v-46t0.5 -49t0.5 -39.5h-157v442z" />
    <glyph glyph-name="U" unicode="U" horiz-adv-x="1411" 
d="M47 1308q15 0 47.5 -0.5t70.5 -1t76.5 -1t66.5 -0.5h76.5t76.5 0.5t81.5 1t90.5 1.5v-178h-33q-36 0 -55.5 -9.5t-29 -25t-11.5 -36t-2 -41.5v-521q0 -80 12.5 -141.5t42.5 -103t81 -63t128 -21.5q70 0 116 20t73 60t38 99t11 137v542q0 19 -2 37.5t-12 33.5t-30.5 24
t-56.5 9h-36v178q13 -1 46 -1.5t73 -0.5h80h69h42t57.5 0.5t66 1t66.5 0.5v-178h-47q-35 0 -52.5 -11.5t-25 -28.5t-7.5 -36.5v-35.5v-518q0 -129 -29 -227.5t-91.5 -165t-162 -100t-240.5 -33.5q-142 0 -243.5 31.5t-166 96t-94.5 162t-30 229.5v560q0 11 -2 24.5t-11 25
t-26.5 19.5t-48.5 8h-43v178z" />
    <glyph glyph-name="V" unicode="V" horiz-adv-x="1404" 
d="M453 1043q3 -10 16.5 -46.5t34 -90.5t45.5 -120.5t51 -135.5t51.5 -135.5t46 -120.5t34 -90.5t17.5 -45.5l279 782q5 16 8.5 28t3.5 20q0 25 -23.5 32t-73.5 9h-20.5t-20.5 1v178q58 -1 109 -1q21 0 43 -0.5t41.5 -0.5h35.5h25h116t129 2v-178q-42 0 -68.5 -12.5
t-47 -41.5t-39 -76.5t-44.5 -117.5l-338 -897h-301l-404 1006q-14 34 -25.5 60t-28 43.5t-40.5 26.5t-62 9v178q8 0 32.5 -0.5t55 -1t61.5 -1t53 -0.5h36h51.5t61.5 0.5t65 0.5q76 1 163 2v-178q-29 -1 -54 -2t-43.5 -5.5t-29 -14t-10.5 -27.5q0 -7 1.5 -16.5t6.5 -21.5z
" />
    <glyph glyph-name="W" unicode="W" horiz-adv-x="2021" 
d="M164 956q-18 61 -28 96t-23.5 52t-37 21.5t-69.5 4.5v178q64 -1 121 -1q24 0 49.5 -0.5t48.5 -0.5h42.5h32.5q57 0 122 0.5t152 1.5v-178q-76 -2 -111 -10q-18 -15 -18 -46q0 -13 2 -29t7 -34q9 -32 24.5 -93t34 -136t39 -157.5t39 -157.5t34 -136t24.5 -93l262 992h266
l268 -993l196 791q4 17 7.5 31t5.5 27q-5 20 -26 30t-67 12q-5 1 -19.5 1t-19.5 1v178q79 -1 138 -1.5t110 -0.5h59.5t73.5 0.5t68.5 1t44.5 0.5v-178q-36 -1 -60.5 -6.5t-42.5 -21.5t-32.5 -47t-30.5 -83q-6 -16 -17.5 -55t-28 -94.5t-36 -123.5t-41 -143t-44 -152.5
t-44 -152.5t-41.5 -143t-37 -123h-308l-240 951l-242 -951h-317z" />
    <glyph glyph-name="X" unicode="X" horiz-adv-x="1655" 
d="M43 1308q63 -1 104.5 -1h75.5h69h85q28 -1 72.5 -1h93.5t97 1t84 1v-178h-43q-40 0 -62 -4t-22 -22q0 -8 17.5 -29.5t39.5 -44.5l194 -212l11.5 14t30 35.5t41 47.5t43.5 51.5t38.5 47t25.5 33.5q20 25 34 39t14 18q0 17 -33.5 20.5t-98.5 5.5v178q40 0 83.5 -1t85 -1.5
t78.5 -0.5t64 1h153t167 2l-2 -162q-42 0 -74 -2t-57 -8t-44.5 -18t-35.5 -33q-2 -1 -18 -19t-42 -46.5t-58 -64t-66 -73t-66 -72.5t-57 -63t-40 -45l-15 -16l349 -373q31 -35 56 -60.5t53 -42.5t63 -25t86 -8v-177q-82 1 -162.5 2t-173.5 1q-104 0 -195.5 -1t-184.5 -2
q0 45 -0.5 88.5t-0.5 88.5q62 0 100.5 6t38.5 29q0 5 -7 15.5t-17.5 24t-23.5 28.5l-26 30l-173 207l-184 -211q-37 -40 -52 -63t-15 -34q0 -12 10.5 -18.5t29.5 -9.5t45 -3.5t57 -0.5v-177q-114 0 -208 1t-157 1h-51.5t-57.5 -0.5t-74 -1t-102 -0.5v178q39 0 66.5 3t54 14
t55 34t68.5 62l341 355l-333 361q-42 45 -69 69.5t-51 36t-51.5 14t-70.5 3.5v178z" />
    <glyph glyph-name="Y" unicode="Y" horiz-adv-x="1320" 
d="M16 1308q7 0 29 -0.5t50 -1l56 -1t46 -0.5q46 0 89 0.5t90.5 1t101.5 1t121 0.5v-178h-31q-49 0 -70 -7.5t-21 -27.5q3 -6 7.5 -15.5t10 -20.5t10.5 -22t10 -18q6 -12 20.5 -37.5t33 -57.5t39 -67t39 -67t32.5 -57.5t20 -37.5l197 327q15 25 25 44t12 33q-4 16 -24 22
t-62 8q-4 0 -15 0.5t-16 0.5v178q59 -1 112 -1q22 0 45.5 -0.5t44.5 -0.5h38h28h99.5t119.5 2v-178q-33 0 -53 -3.5t-35.5 -13t-29.5 -28t-34 -48.5q-25 -35 -55 -80t-62 -93.5t-64 -98t-60.5 -94t-52 -81t-38.5 -58.5v-262q0 -23 2 -40t12 -28.5t29.5 -17.5t55.5 -6h49
v-178h-72.5t-73.5 0.5t-80 1t-92 0.5q-30 0 -72.5 -0.5t-86 -0.5t-81.5 -0.5t-57 -0.5v178h48q39 0 59 9.5t29 23.5t9.5 29.5t0.5 27.5v266q-15 22 -39.5 60.5t-54 85t-62 97.5t-62 97.5t-54 85t-38.5 61.5q-24 37 -38.5 58t-31 32.5t-39.5 14.5t-62 4q0 44 -0.5 88.5
t-0.5 89.5z" />
    <glyph glyph-name="Z" unicode="Z" horiz-adv-x="1267" 
d="M1193 1306v-195l-766 -928h484q38 0 61 11t35 36.5t16 67.5t4 103h187v-401h-1162v204l757 918h-380q-56 0 -89.5 -1t-51 -9t-23 -27t-5.5 -56v-106h-185v383h1118z" />
    <glyph glyph-name="bracketleft" unicode="[" horiz-adv-x="807" 
d="M736 1308v-216h-276v-1174h274v-216h-573v1606h575z" />
    <glyph glyph-name="backslash" unicode="\" horiz-adv-x="503" 
d="M155 1322l396 -1418h-180l-397 1418h181z" />
    <glyph glyph-name="bracketright" unicode="]" horiz-adv-x="807" 
d="M645 1308v-1606h-575v216h277v1174h-276v216h574z" />
    <glyph glyph-name="asciicircum" unicode="^" horiz-adv-x="1721" 
d="M1428 798l-179 -11l-390 442l-392 -442l-176 11l472 629h202z" />
    <glyph glyph-name="underscore" unicode="_" horiz-adv-x="1024" 
d="M1030 -366h-1036v125h1036v-125z" />
    <glyph glyph-name="grave" unicode="`" 
d="M611 1048h-139q-10 9 -41.5 33t-73 54.5t-87 65t-84 65.5t-63.5 54t-26 32q0 4 15 13t38.5 18.5t53 17t59.5 7.5q34 0 64.5 -10t47.5 -33z" />
    <glyph glyph-name="a" unicode="a" horiz-adv-x="1203" 
d="M1050 272q0 -41 2.5 -64t11 -33.5t23.5 -12.5t41 -2h48v-160h-35t-59 0.5t-61.5 0.5h-41.5q-28 0 -51 -0.5t-44.5 -1t-44.5 -1t-51 -1.5l-30 130q-22 -35 -52 -62.5t-72 -47t-97 -30t-126 -10.5q-86 0 -151.5 22.5t-109 60.5t-65.5 89.5t-22 109.5q0 67 29.5 121t85 91.5
t134.5 58t179 20.5q65 0 130 -7.5t123 -22.5v115q0 76 -52.5 121t-162.5 45q-182 0 -217 -145l-165 15l6 200q15 7 49 18t86 21.5t120 18t151 7.5q130 0 223 -18.5t152.5 -58.5t87.5 -103.5t28 -154.5v-329zM578 446q-105 0 -163 -43t-58 -121q0 -37 13 -59.5t35.5 -43
t54 -31.5t67.5 -11q49 0 89 13t68.5 38.5t44 55.5t15.5 77v103q-42 12 -83 17t-83 5z" />
    <glyph glyph-name="b" unicode="b" horiz-adv-x="1343" 
d="M801 -23q-115 0 -195 38t-137 113l-1 -131q-62 2 -120.5 2.5t-117.5 1.5q-17 0 -48 -0.5t-61 -0.5h-75v159h55q27 1 41.5 12t21.5 25.5t8.5 28.5t1.5 20v825q0 26 -8 41.5t-24 23.5t-41 10.5t-58 2.5v160q56 -1 115.5 0.5t116.5 1.5q54 1 104.5 1.5t100.5 2.5v-506
q57 60 136 92t175 32q103 0 188.5 -32.5t147 -94.5t95.5 -151t34 -201q0 -102 -31.5 -189t-91 -150.5t-143.5 -100t-189 -36.5zM708 763q-57 0 -101.5 -21.5t-75 -61.5t-46 -97.5t-15.5 -128.5q0 -142 62 -221.5t178 -79.5q112 0 173.5 78.5t61.5 225.5q0 72 -16.5 129
t-47 96t-74.5 60t-99 21z" />
    <glyph glyph-name="c" unicode="c" horiz-adv-x="1129" 
d="M1021 561h-174q-14 111 -69.5 163.5t-144.5 52.5q-57 0 -101.5 -23.5t-75 -66.5t-46 -103.5t-15.5 -133.5q0 -75 16.5 -129.5t48 -96.5t76.5 -64.5t103 -22.5q86 0 137 49t66 129l213 -27q-14 -76 -52 -135t-96.5 -96t-136 -58.5t-170.5 -21.5q-118 0 -214 34t-163.5 93
t-104.5 147t-37 197q0 105 37.5 193t101.5 151.5t149.5 99t182.5 35.5q75 0 146.5 -20.5t128.5 -71.5l12 75q18 -1 41.5 -2t48 -2t48.5 -2.5t44 -3.5v-339z" />
    <glyph glyph-name="d" unicode="d" horiz-adv-x="1346" 
d="M1164 223q0 -28 17 -45.5t65 -18.5h49l-2 -159q-40 0 -85 0.5t-87 0.5q-63 -1 -125.5 -1.5t-125.5 -2.5v23.5v36t-0.5 38.5t-0.5 32q-48 -68 -132 -109t-201 -41q-102 0 -185.5 34.5t-142.5 97t-91.5 150t-32.5 193.5q0 112 33.5 201t94.5 151t147.5 94.5t191.5 32.5
q97 0 172.5 -31.5t133.5 -91.5l1 277q0 21 -7 33.5t-19.5 19t-31 8.5t-42.5 2q-11 1 -22.5 0.5t-23.5 -0.5v160q54 -1 106.5 0.5t117.5 1.5q61 1 117 1.5t111 2.5v-1091zM630 763q-56 0 -99.5 -21.5t-73.5 -61t-46 -96.5t-16 -129q0 -71 15.5 -127t45.5 -95t73.5 -59.5
t99.5 -20.5q59 0 104 21t75 60.5t45 95.5t15 125q0 70 -16.5 127t-47.5 97t-75 62t-99 22z" />
    <glyph glyph-name="e" unicode="e" horiz-adv-x="1198" 
d="M1068 415h-680q1 -143 70 -210.5t189 -67.5q85 0 143.5 39t83.5 94l228 -18q-40 -137 -164.5 -206t-313.5 -69q-138 0 -240 36t-170 97t-101.5 149t-33.5 192q0 111 37.5 201t106.5 153t166 97t216 34q115 0 210 -32.5t163 -97t106 -160.5t38 -223zM836 545v7
q0 3 -0.5 6.5t-0.5 7.5q-9 106 -66 164.5t-150 58.5q-103 0 -161.5 -65t-66.5 -178h445v-1z" />
    <glyph glyph-name="f" unicode="f" horiz-adv-x="745" 
d="M850 1066h-108q-5 48 -33.5 78.5t-78.5 30.5q-44 0 -69.5 -15.5t-38.5 -43.5t-17 -67.5t-4 -86.5v-54h213v-160h-213v-509q0 -29 11 -44.5t31.5 -23t50.5 -8.5t69 -1v-162q-59 0 -120 1q-52 0 -113 0.5t-117 0.5q-40 0 -84 -0.5t-81 -0.5q-43 -1 -85 -1v77v29t0.5 26
t0.5 20v10q40 0 65.5 2t40 10t20 24t5.5 44v506h-142v160h142v63q0 186 98.5 276t289.5 90q33 0 69.5 -2t73.5 -5.5t73 -9t69 -11.5z" />
    <glyph glyph-name="g" unicode="g" horiz-adv-x="1327" 
d="M630 756q-55 0 -99.5 -21.5t-75.5 -61t-47.5 -95.5t-16.5 -125q0 -67 16.5 -121t48 -92t76.5 -58.5t101 -20.5t100.5 20.5t75.5 59.5t47.5 94.5t16.5 126.5q0 66 -16.5 120t-47.5 93t-76.5 60t-102.5 21zM883 911q61 -2 122 -3.5t125 -1.5q53 0 91.5 0.5t77.5 1.5v-161
q-16 0 -25 0.5t-19 -0.5q-27 0 -44 -5t-26.5 -17t-13 -32.5t-3.5 -51.5v-572q0 -143 -36 -239t-107 -153.5t-176 -81.5t-243 -24q-59 0 -119 5.5t-117.5 16t-112 26.5t-101.5 36l39 246q15 -5 45.5 -7t61.5 -4q36 -2 77 -3q6 -45 23.5 -75t45.5 -47.5t66.5 -24.5t88.5 -7
q57 0 105 15.5t82.5 51t54 91.5t20.5 137v100q-62 -60 -144.5 -88.5t-181.5 -28.5q-105 0 -190 31t-145 88.5t-92.5 140.5t-32.5 187q0 108 33.5 195t95 148.5t147 95t189.5 33.5q118 0 201.5 -41.5t137.5 -110.5v133z" />
    <glyph glyph-name="h" unicode="h" horiz-adv-x="1336" 
d="M865 515q0 51 -6 95.5t-23 77t-48 51t-80 18.5q-55 0 -95 -16t-67.5 -43.5t-43.5 -64t-23 -77.5v-334q0 -23 8 -35t24.5 -17.5t42.5 -6.5t63 -1v-162h-76.5t-75 0.5t-80.5 1t-93 0.5q-39 0 -72.5 -0.5t-64 -0.5t-59.5 -0.5t-59 -0.5v162q46 0 73 2t41 9.5t18 23t4 42.5
v853q0 19 -7 30.5t-19.5 17.5t-29.5 8t-38 2h-36v158q53 -1 109.5 0t110.5 1q52 0 105 1t110 4v-534q70 77 160 113t200 36q91 0 154.5 -26.5t103 -81.5t57.5 -140.5t18 -203.5v-227q0 -30 4 -47.5t14.5 -26.5t27.5 -11.5t43 -2.5h35v-162h-62t-62 0.5t-67 1t-77 0.5
q-43 0 -80 -0.5t-71 -0.5t-66 -0.5t-65 -0.5v162q39 0 62.5 6.5t36.5 18.5t17 29.5t4 38.5v260z" />
    <glyph glyph-name="i" unicode="i" horiz-adv-x="655" 
d="M315 1335q37 0 68.5 -8.5t55 -24t36.5 -38.5t13 -51q0 -56 -46.5 -90t-126.5 -34q-78 0 -125 31t-47 93q0 55 47 88.5t125 33.5zM486 254q0 -31 4.5 -49t17 -27.5t35.5 -12.5t60 -3v-162q-34 0 -75.5 0.5t-84 0.5t-82 0.5t-69.5 0.5q-36 0 -67 -0.5t-59 -0.5t-55 -0.5
t-55 -0.5v162q42 0 66.5 2.5t37.5 12t17 27.5t4 50v438q0 21 -7 32t-22 16.5t-37.5 6.5t-53.5 1q0 41 0.5 80t0.5 80q42 0 80 -0.5t74 -0.5q65 0 132.5 1t137.5 4v-658z" />
    <glyph glyph-name="j" unicode="j" horiz-adv-x="645" 
d="M496 89q0 -123 -12.5 -215.5t-49 -155t-104 -95.5t-178.5 -36q-62 0 -124 6t-111 18v228q4 0 13.5 -0.5t21 -0.5t24 0.5t21.5 0.5q8 -49 25 -68t46 -19q40 0 64.5 16.5t37 54t16.5 98.5t4 149v597q0 25 -5 40.5t-18.5 24.5t-36.5 12.5t-59 3.5v160q60 -1 110.5 -1h101.5
q52 0 105 1t108 4v-823zM319 1335q78 0 125.5 -32t47.5 -90q0 -59 -47.5 -91.5t-125.5 -32.5q-80 0 -125.5 31t-45.5 93q0 29 13 51.5t36 38.5t54 24t68 8z" />
    <glyph glyph-name="k" unicode="k" horiz-adv-x="1268" 
d="M37 163q42 1 68.5 4.5t41.5 12.5t20.5 24t5.5 39v840q0 25 -9.5 38.5t-27 19.5t-41.5 6.5t-53 0.5v160h15.5h27.5t35 0.5t39 0.5q46 1 101 1q58 0 108.5 1t108.5 3v-833l218 170q24 18 46.5 37.5t40 35.5t28 27t10.5 13q0 3 -13 4t-30.5 2t-35.5 1h-27l2 137
q66 -2 114.5 -2h93.5h62.5h66t73 0.5t83.5 1.5v-148h-28q-11 0 -21.5 0.5t-14.5 0.5q-24 0 -41 -3t-34 -11t-37 -21.5t-48 -35.5l-210 -162l281 -292q37 -44 69 -58t74 -15h55v-163q-33 0 -75.5 0.5t-83 0.5t-73 0.5t-45.5 0.5q-83 0 -147.5 -1t-132.5 -1v163h16.5t18 0.5
t15.5 1t10 0.5q26 3 26 11q0 6 -7.5 14t-18.5 18l-193 204l-86 -61v-120q0 -20 3 -33t15.5 -20.5t37 -11t66.5 -3.5v-163h-65.5t-74 0.5t-78 1t-76.5 0.5q-26 0 -60 -0.5t-71 -0.5t-73 -0.5t-65 -0.5v163z" />
    <glyph glyph-name="l" unicode="l" horiz-adv-x="650" 
d="M478 265q0 -32 5 -52t18.5 -31t37 -15.5t60.5 -4.5v-162h-67t-67.5 0.5t-72.5 1t-81 0.5q-80 0 -141 -1t-123 -1v162q47 0 72.5 6t37.5 20.5t14 38.5t2 60v791q0 24 -7.5 38t-23 21t-38 9t-52.5 2v160h49t69 0.5t66 1t40 0.5q50 0 99 1t103 3v-1049z" />
    <glyph glyph-name="m" unicode="m" horiz-adv-x="2007" 
d="M854 508q0 58 -7.5 101t-24.5 71.5t-46.5 43t-72.5 14.5q-62 0 -108 -21.5t-85 -72.5q-11 -17 -18 -60t-7 -109v-231q0 -30 7 -46.5t23 -24t42 -9.5t64 -2v-162h-71t-70 0.5t-76 1t-88 0.5q-41 0 -75.5 -0.5t-66 -0.5t-62 -0.5t-61.5 -0.5v162q43 0 68.5 3t39 11.5
t17.5 24t4 40.5v450q0 39 -31 48t-93 9v160q29 0 55.5 -1t54.5 -1q78 0 153 1.5t156 3.5v-158q26 36 63 67.5t84.5 55.5t104 38t121.5 14q106 0 180 -45t112 -136q77 86 172 133.5t204 47.5q91 0 151.5 -28.5t97.5 -83t52.5 -135t15.5 -185.5v-274q0 -22 6.5 -34t21 -17.5
t38 -7t57.5 -1.5v-162q-64 0 -127 1t-142 1q-78 0 -144.5 -1t-135.5 -1v162q35 0 58.5 4.5t37 14.5t19 28t5.5 45v276q0 102 -33 155t-120 53q-69 0 -115.5 -27.5t-78.5 -70.5q-11 -31 -15.5 -68t-4.5 -81v-265q0 -21 6 -33.5t19.5 -19.5t36.5 -9t57 -2v-162h-64.5
t-64.5 0.5t-70 1t-82 0.5q-39 0 -73 -0.5t-64.5 -0.5t-60 -0.5t-59.5 -0.5v162q66 1 89.5 22t23.5 63v261z" />
    <glyph glyph-name="n" unicode="n" horiz-adv-x="1341" 
d="M42 0v14.5v29.5t-0.5 37t-0.5 37v29v15q43 0 70 2t42 10t20.5 24t5.5 45v454q0 19 -8 29.5t-24.5 15t-41.5 5.5t-58 1v160q43 0 82 -0.5t75 -0.5q69 0 134 1t137 4v-150q28 33 65 62.5t82 52t98 36t113 15.5q85 0 149.5 -21t108 -66t65.5 -116t22 -170v-333q0 -25 8 -37
t23.5 -17t38.5 -5.5t53 -0.5v-162h-60t-60 0.5t-66 1t-77 0.5q-78 0 -147.5 -1t-138.5 -1v162q45 0 69.5 2.5t35.5 10.5t13 23t2 40v274q0 55 -8 97t-27 70t-51 42.5t-79 14.5q-40 0 -72.5 -8.5t-58 -22t-44.5 -31.5t-32 -36q-11 -32 -13.5 -70.5t-2.5 -83.5v-246
q0 -29 8 -44t25 -22t44 -8.5t65 -1.5v-162h-71t-70.5 0.5t-77 1t-89.5 0.5q-83 0 -147.5 -1t-128.5 -1z" />
    <glyph glyph-name="o" unicode="o" horiz-adv-x="1256" 
d="M628 936q111 0 211 -31t175 -92t119 -151.5t44 -208.5q0 -115 -43 -205t-117 -148t-174 -90.5t-215 -32.5q-116 0 -216 32t-174.5 90t-117 148t-42.5 206q0 114 42 204t116 152t174.5 94.5t217.5 32.5zM629 771q-114 0 -176 -84t-62 -233q0 -150 61 -233.5t174 -83.5
q56 0 100 22t75 63t47 101t16 135q0 73 -16 131t-46 98.5t-74 62t-99 21.5z" />
    <glyph glyph-name="p" unicode="p" horiz-adv-x="1342" 
d="M705 754q-114 0 -176.5 -79.5t-62.5 -219.5q0 -144 62 -226t177 -82q54 0 98.5 19.5t76 58.5t49 97t17.5 135q0 141 -63 219t-178 78zM41 -253q43 1 70 4.5t43 10.5q9 19 12.5 38t3.5 46v835q0 25 -7 39t-21.5 20t-37.5 7t-56 1v160q42 0 82 -0.5t77 -0.5q62 0 126 1
t131 4l1 -134q19 30 49.5 57.5t72.5 48.5t94 33.5t114 12.5q102 0 187 -34t146 -96t94.5 -149t33.5 -193q0 -111 -33.5 -200.5t-95 -151.5t-147.5 -95.5t-191 -33.5q-97 0 -176.5 30.5t-136.5 91.5l-1 -282q0 -26 6 -40.5t20.5 -21t37.5 -7.5t57 -1h24v-161q-28 0 -67 0.5
t-80.5 0.5h-82h-72.5h-68h-76t-73 -0.5t-60 -0.5v161z" />
    <glyph glyph-name="q" unicode="q" horiz-adv-x="1342" 
d="M876 450q0 142 -61.5 222.5t-177.5 80.5q-117 0 -178.5 -78t-61.5 -221q0 -75 17.5 -132.5t49 -96.5t76 -59t98.5 -20q56 0 100.5 21t75 60.5t46.5 96t16 126.5zM722 -253h44q34 0 54 2.5t30.5 10.5t13.5 22.5t3 38.5l-1 278q-48 -52 -124 -87t-188 -35
q-105 0 -191.5 33.5t-147.5 95.5t-94.5 151.5t-33.5 200.5q0 106 33.5 193t94.5 149t145.5 96t186.5 34q59 0 109.5 -11.5t92 -31.5t73.5 -47.5t55 -60.5l1 133q56 -3 110.5 -4t108.5 -1q48 0 95.5 0.5t104.5 0.5v-160q-46 0 -71 -3t-37 -12t-14.5 -26.5t-2.5 -46.5v-820
q0 -25 2.5 -39t11.5 -23q8 -23 34.5 -26.5t80.5 -4.5v-161q-27 0 -65 0.5t-79 0.5h-81h-71h-69h-77t-75 -0.5t-62 -0.5v161z" />
    <glyph glyph-name="r" unicode="r" horiz-adv-x="920" 
d="M223 907q171 1 252 5v-192q38 103 122.5 156t208.5 53q23 0 46.5 -2t47.5 -6v-302q-9 1 -22.5 1h-22.5q-16 0 -36.5 -0.5t-34.5 -1.5q-11 42 -35.5 60t-67.5 18q-38 0 -70 -15t-56.5 -42.5t-40 -67t-20.5 -87.5q-3 -10 -5 -45t-3 -76.5t-1 -80v-55.5q0 -26 7.5 -39
t25.5 -19t47 -6.5t71 -0.5v-162q-40 0 -78.5 0.5t-78.5 0.5t-84.5 0.5t-96.5 0.5q-41 0 -74.5 -0.5t-63 -0.5t-58 -0.5t-58.5 -0.5v162q42 0 66.5 2t35.5 10q20 5 26.5 21.5t6.5 54.5v441q0 22 -7.5 33.5t-23.5 16.5t-41 6t-60 1v160q17 0 176 -1z" />
    <glyph glyph-name="s" unicode="s" horiz-adv-x="1032" 
d="M900 633h-158q-16 73 -75.5 116t-157.5 46q-40 0 -68.5 -8t-46.5 -21.5t-26.5 -31t-8.5 -36.5q0 -24 15 -41.5t43 -32.5t68.5 -28.5t92.5 -28.5q88 -24 155.5 -50.5t114 -61.5t70.5 -81.5t24 -112.5q0 -75 -32 -128.5t-84.5 -88.5t-119.5 -51t-138 -16
q-102 0 -170.5 25.5t-112.5 77.5l-4 -79q-47 0 -91.5 3t-90.5 3v284h181q4 -45 24.5 -79t52.5 -56.5t73 -33.5t87 -11q70 0 115 26t45 71q0 30 -24.5 51.5t-65 39.5t-93 35t-108.5 37q-67 24 -120.5 49t-91 57t-57.5 75t-20 103q0 62 23.5 112.5t68.5 86t111 55t150 19.5
q88 0 164 -22.5t120 -67.5q1 6 3.5 18.5t5.5 25.5q4 15 7 33q30 -3 58 -6q24 -2 49.5 -4t42.5 -4v-268z" />
    <glyph glyph-name="t" unicode="t" horiz-adv-x="792" 
d="M464 1183v-275h245v-160h-244v-406q0 -44 2.5 -76.5t11.5 -54t26 -32.5t45 -11q67 0 67 93l111 14v-32q-2 -74 -20.5 -123t-53.5 -81.5t-85 -47t-114 -14.5q-155 0 -225.5 82.5t-70.5 228.5v460h-152v149q11 0 39.5 2.5t58.5 4.5q34 3 75 6q0 3 2.5 19.5t6.5 39.5t8.5 50
t8 51t6 42t2.5 24z" />
    <glyph glyph-name="u" unicode="u" horiz-adv-x="1336" 
d="M477 -20q-85 0 -144 27.5t-95.5 82.5t-52.5 140t-16 199v245q0 28 -5.5 43t-19.5 21.5t-38.5 7.5t-62.5 1v160h42.5t53.5 -0.5t48.5 -0.5h28.5q66 1 129.5 2t129.5 3v-522q0 -55 7 -98t24.5 -72t47.5 -44.5t76 -15.5q85 0 138.5 27t79.5 70q11 30 12.5 65.5t1.5 74.5v259
q0 35 -5.5 53.5t-20.5 27t-41.5 10t-69.5 1.5v160q48 -1 95 -1h107q62 1 121 2t119 3v-688q0 -20 5.5 -32.5t19.5 -19.5t38 -9t61 -2v-160q-47 0 -83.5 0.5t-74.5 0.5q-66 -1 -131 -1.5t-131 -2.5v140q-67 -80 -169 -118.5t-225 -38.5z" />
    <glyph glyph-name="v" unicode="v" horiz-adv-x="1220" 
d="M155 656q-17 38 -31 54t-32 20q-11 4 -26.5 3.5t-40.5 -2.5l-1 177q70 0 132 -1t112 -1q65 0 136 0.5t162 1.5l-1 -162h-17q-54 0 -81.5 -8t-35.5 -28q4 -14 9.5 -30.5t16.5 -35.5q6 -17 18 -46t27 -65t31.5 -77t33.5 -81q39 -94 84 -203q8 17 22.5 52.5t32.5 80t38 93.5
t38 93.5t32.5 79.5t22.5 53q23 50 30 86q-7 20 -33 28t-79 8h-15v162q42 -1 76.5 -1.5t66 -1t61.5 -0.5h63q43 0 89.5 1t97.5 2v-162q-42 -1 -63 -8t-33 -23q-16 -12 -27 -38.5t-32 -71.5l-285 -619h-283z" />
    <glyph glyph-name="w" unicode="w" horiz-adv-x="1808" 
d="M29 908q12 0 41 -0.5t63.5 -1t68.5 -1t57 -0.5q51 0 122 1.5t140 1.5v-162q-11 0 -29 0.5t-23 0.5q-32 0 -40 -13.5t-5 -37.5q4 -37 15 -79.5t23 -81.5q13 -42 30 -93t33 -100t29.5 -90t20.5 -64q25 79 46 142q9 27 17.5 53.5t15.5 48t12 36t6 17.5l131 389h296l113 -363
q2 -7 7.5 -24.5t12.5 -42t15 -53.5t17 -58q19 -69 44 -150q44 136 78 244q15 46 29 90t25 79t18 57t8 24q6 22 13 42q-6 16 -28.5 20.5t-72.5 6.5v162q51 -1 101.5 -2t101.5 -1q50 0 98.5 1t99.5 2v-162q-36 -2 -55.5 -5.5t-31.5 -17t-22 -39.5t-28 -72l-226 -626h-285
l-220 678l-225 -678h-286l-243 661q-14 34 -24 53t-23.5 28.5t-32 12.5t-48.5 5v162z" />
    <glyph glyph-name="x" unicode="x" horiz-adv-x="1213" 
d="M49 908q20 0 45.5 -0.5t52.5 -1t55 -1t52 -0.5h85t83.5 0.5t78 1t69.5 1.5v-159q-38 0 -54.5 -4t-16.5 -15q0 -10 12.5 -27t35.5 -42l81 -92l79 92q21 25 33 41t12 27q0 12 -19.5 16t-62.5 4v159q23 0 56.5 -0.5t70 -1t72 -0.5h63.5h57.5h51.5t50 0.5t52 1.5v-160h-41
q-23 0 -38.5 -3t-31 -13t-34 -29.5t-46.5 -52.5q-5 -6 -14.5 -17t-22 -25t-27 -30.5t-28.5 -32.5q-33 -38 -73 -83l15 -14.5t38.5 -37t52 -50t55.5 -53t48.5 -47l31.5 -31.5q22 -24 38 -37t31.5 -20t33 -8.5t41.5 -1.5v-162q-20 0 -39.5 0.5t-48.5 0.5h-217h-61.5h-68.5
t-63.5 -0.5t-46.5 -0.5v162q70 0 70 26q0 20 -46 69l-83 86l-86 -118q-26 -35 -26 -47q0 -11 15.5 -13.5t47.5 -2.5l-1 -162q-28 0 -63.5 0.5t-72 0.5t-72 0.5t-64.5 0.5q-27 0 -50 -0.5t-46 -0.5t-47 -0.5t-53 -0.5v162h48q15 0 25.5 2.5t19.5 8.5t18 15.5t22 24.5
q17 20 51.5 59.5t69.5 80.5q40 48 87 101l-213 240q-18 20 -32 31t-28.5 16t-30.5 6.5t-38 1.5v159z" />
    <glyph glyph-name="y" unicode="y" horiz-adv-x="1140" 
d="M-16 908q74 0 137.5 -1t113.5 -1q66 0 138 0.5t164 1.5v-162q-16 -2 -32.5 -1.5t-30.5 -0.5q-29 -3 -45 -12t-20 -31q3 -15 9 -32t14 -34.5t16.5 -34.5t14.5 -31l153 -350q12 29 31.5 76t43 103.5t48.5 119t48 121.5q16 39 21 66q-6 23 -31.5 32t-89.5 9v162
q67 -1 118 -1.5t103 -0.5q56 0 115 0.5t132 1.5v-28.5v-53t0.5 -53t1.5 -27.5q-42 -1 -66 -6t-39 -17t-26.5 -33.5t-29.5 -54.5q-12 -28 -39.5 -88t-63 -136t-74.5 -160.5t-74.5 -161t-63 -136.5t-39.5 -88q-37 -79 -70.5 -132t-71.5 -85.5t-85 -46.5t-110 -14h-49t-49 -1
v169h38.5t32.5 1q39 1 64.5 10t46 30.5t39.5 58t45 93.5q-87 188 -157 338q-30 64 -58.5 125.5t-51.5 111t-37.5 81t-16.5 35.5q-15 32 -26 51t-27 29t-42.5 12.5t-72.5 0.5v176z" />
    <glyph glyph-name="z" unicode="z" horiz-adv-x="1090" 
d="M1001 906v-172l-572 -587h296q37 0 67 1.5t50.5 11t31.5 30t11 58.5v13.5v22.5t-0.5 22.5t-1.5 13.5h29t35 0.5t34.5 0.5h28.5v-321h-934v180l571 582h-285q-51 0 -80 -4.5t-44 -21t-19.5 -48t-5.5 -86.5h-123v304h911z" />
    <glyph glyph-name="braceleft" unicode="{" horiz-adv-x="888" 
d="M742 -341q-109 0 -185 15t-124 57t-69.5 116.5t-21.5 193.5v182q0 65 -12 112t-39.5 78t-72 47t-108.5 19v150q70 4 115 21.5t71 52t36 87t10 127.5v165q0 114 23 185.5t71 112t121.5 55.5t174.5 15q1 0 7.5 -0.5t14.5 -1.5t14.5 -1.5t7.5 -0.5v-156q-59 -1 -97.5 -11
t-62 -35.5t-34 -70.5t-12.5 -115q-3 -80 -5.5 -144.5t-9 -116.5t-19.5 -91.5t-37.5 -69t-63.5 -49t-96 -31.5q65 -15 109 -43t71 -72.5t38.5 -108.5t11.5 -152q0 -116 5.5 -186.5t26.5 -109t62.5 -51.5t112.5 -14v-159q-1 0 -6 -0.5t-11 -0.5h-11h-6z" />
    <glyph glyph-name="bar" unicode="|" horiz-adv-x="1115" 
d="M661 -403h-206v1864h206v-1864z" />
    <glyph glyph-name="braceright" unicode="}" horiz-adv-x="888" 
d="M547 941q0 -84 8.5 -141.5t33.5 -94t70.5 -54.5t118.5 -22v-150q-68 -3 -113 -20t-71 -50t-36.5 -82.5t-10.5 -118.5v-157q0 -125 -22 -201.5t-70.5 -119t-125.5 -57t-186 -14.5h-15.5t-15.5 1v159q63 1 101.5 11.5t61 40t32 83.5t14.5 142q4 101 7.5 178t23 132.5t64 91
t132.5 55.5q-83 19 -126.5 53t-64.5 85t-26 121t-9 162q-5 100 -13 161t-29.5 95t-61 46t-106.5 14v159q1 0 6 0.5t10.5 0.5h10.5h6q105 0 181 -15t125 -55.5t72.5 -111.5t23.5 -184v-143z" />
    <glyph glyph-name="asciitilde" unicode="~" horiz-adv-x="1546" 
d="M1397 641q-55 -41 -101.5 -68.5t-88.5 -44t-81.5 -24t-80.5 -7.5q-29 0 -55.5 3.5t-53.5 10.5t-55.5 17t-61.5 24q-48 18 -91.5 35t-82.5 30t-74.5 21t-68.5 8q-40 0 -79.5 -9t-82 -27.5t-89.5 -48t-101 -71.5v214q100 72 186.5 106.5t170.5 34.5q31 0 61 -4.5t63 -13
t69 -21t79 -29.5q84 -35 152 -58t121 -23q38 0 76.5 8.5t80 26.5t88 46.5t100.5 68.5v-205z" />
    <glyph glyph-name="uni00A0" unicode="&#xa0;" horiz-adv-x="663" 
 />
    <glyph glyph-name="exclamdown" unicode="&#xa1;" horiz-adv-x="687" 
d="M341 231q39 0 70.5 -9t54 -24.5t35 -38t12.5 -49.5q0 -53 -44.5 -87.5t-127.5 -34.5t-128 32t-45 90q0 52 46 86.5t127 34.5zM512 1307q1 -8 1.5 -25t1 -35.5t0.5 -35.5v-25q0 -36 -5 -95.5t-13 -132t-18 -150.5t-20 -150t-20 -131.5t-17 -94.5h-148q-7 34 -16.5 93.5
t-19.5 131.5t-20 151t-17.5 152t-12.5 133.5t-5 96.5v24t0.5 34t1 34.5t1.5 24.5h326z" />
    <glyph glyph-name="cent" unicode="&#xa2;" horiz-adv-x="1246" 
d="M590 -26q-116 8 -209.5 46.5t-159 102.5t-100.5 150.5t-35 190.5q0 113 42.5 203.5t113 154t161 97.5t187.5 36v164h123v-172q33 -6 59.5 -12.5t49 -15.5t42 -21.5t40.5 -30.5l12 69h211v-370h-215q-5 42 -22 78.5t-45.5 63.5t-67.5 42.5t-87 15.5q-56 0 -100.5 -21.5
t-76.5 -61t-49 -95t-17 -124.5q0 -68 17.5 -123.5t49.5 -95t77 -61t100 -21.5q84 0 138 48t77 136l259 -56q-20 -71 -60.5 -128.5t-99 -99t-132.5 -65t-160 -25.5v-167h-123v168z" />
    <glyph glyph-name="sterling" unicode="&#xa3;" horiz-adv-x="1264" 
d="M1226 334q-7 -83 -33.5 -148t-70 -110.5t-102 -69.5t-130.5 -24q-83 0 -153.5 35.5t-138.5 111.5q-56 -72 -124.5 -109.5t-144.5 -37.5q-60 0 -110 17.5t-86.5 49t-56.5 75t-20 94.5q0 58 21.5 103t56.5 75t79.5 45.5t91.5 15.5q48 0 92.5 -15.5t82.5 -47.5
q-24 63 -52.5 131t-67.5 122h-270v140h198q-41 65 -60 126.5t-19 118.5q0 79 35 147t100 117t157 77t206 28q230 0 346.5 -89.5t118.5 -256.5l-261 -29q-8 81 -60.5 128t-134.5 47q-47 0 -82 -12.5t-58.5 -34t-35 -51.5t-11.5 -64q0 -58 24 -124.5t62 -127.5h342v-140h-283
q37 -109 37 -221q0 -60 -10 -116q52 -43 94.5 -66t90.5 -23q61 0 93 36.5t46 122.5zM477 252q-37 35 -77.5 53t-75.5 18q-42 0 -69 -24.5t-27 -75.5t26 -74t62 -23q23 0 48 8.5t47 25t39.5 40t26.5 52.5z" />
    <glyph glyph-name="currency" unicode="&#xa4;" horiz-adv-x="1304" 
d="M408 1146q53 36 115 55.5t127 19.5q66 0 128 -19t119 -58l173 172l125 -124l-174 -172q35 -50 54.5 -112t19.5 -128q0 -61 -18 -123.5t-55 -116.5l173 -170l-125 -125l-172 169q-55 -38 -117.5 -56t-130.5 -18q-67 0 -128.5 17t-115.5 55l-169 -167l-125 125l167 166
q-38 57 -56 116t-18 126q0 66 18 128.5t57 118.5l-168 167l125 124zM921 780q0 55 -21.5 103.5t-58.5 85t-86.5 57.5t-104.5 21q-56 0 -105.5 -21.5t-86.5 -58t-58 -85t-21 -102.5q0 -56 21 -104.5t58 -84.5t86.5 -57t105.5 -21t105.5 21t86 57.5t58 85t21.5 103.5z" />
    <glyph glyph-name="yen" unicode="&#xa5;" horiz-adv-x="1276" 
d="M21 1308q13 0 29 -0.5t42.5 -1t67.5 -1t106 -1.5q59 1 103.5 1.5t82 1t71.5 1t73 0.5v-178h-19q-51 0 -73.5 -7.5t-22.5 -27.5q0 -13 8 -31t22 -44l188 -339l188 321q18 31 32 55t14 41t-20.5 24.5t-70.5 7.5h-22v178q27 0 51 -0.5t52.5 -0.5t65 -0.5t88.5 -1.5
q48 1 81.5 1.5t59 0.5t44.5 0.5t38 0.5v-178q-34 0 -54.5 -3.5t-36 -14t-29 -29t-32.5 -47.5q-4 -5 -12.5 -18.5t-20.5 -32t-26 -39.5t-26.5 -40.5t-23.5 -36.5t-17 -26h222v-104h-293l-82 -123h375v-105h-414q-4 -5 -6.5 -15t-4.5 -19q-3 -11 -4 -23v-203q0 -24 4 -38
t16 -22t33 -10.5t54 -2.5h42v-178h-73t-73 0.5t-80.5 1t-93.5 0.5q-45 0 -83 -0.5t-72.5 -0.5t-66.5 -0.5t-66 -0.5v178h42q34 0 54.5 3t32 10.5t15 21t3.5 34.5v206l-15 58h-407v105h369l-80 123h-289v104h223l-112 179q-23 36 -37.5 57t-31 32.5t-39.5 15t-62 3.5v30.5
t-0.5 58t-0.5 58.5v31z" />
    <glyph glyph-name="brokenbar" unicode="&#xa6;" horiz-adv-x="1115" 
d="M661 439h-206v738h206v-738zM661 -120h-206v736h206v-736z" />
    <glyph glyph-name="section" unicode="&#xa7;" horiz-adv-x="1153" 
d="M569 1336q85 0 160.5 -20.5t133.5 -62t93 -103.5t39 -145h-188q-13 107 -68.5 157.5t-164.5 50.5q-45 0 -81.5 -10.5t-62.5 -30t-40 -47.5t-14 -63q0 -36 15 -62t47.5 -47t82 -41t118.5 -45q116 -42 197 -82.5t131.5 -87.5t73.5 -102.5t23 -127.5q0 -84 -43 -149
t-126 -112q61 -48 91 -102t30 -125q0 -74 -30 -132t-86.5 -98.5t-137.5 -61.5t-184 -21q-61 0 -119.5 6t-111.5 20t-100 35.5t-84 53.5l-7 211h176q7 -102 62.5 -152.5t177.5 -50.5q100 0 153 38t53 113q0 33 -16.5 60t-48 50.5t-76 45t-100.5 42.5q-105 39 -188 76.5
t-140.5 83t-88 102.5t-30.5 135q0 83 42 148.5t127 123.5q-110 84 -110 227q0 71 29 127t83 95t132 59.5t176 20.5zM392 727q-44 -39 -61.5 -74.5t-17.5 -70.5q0 -39 19 -69.5t52 -56t77 -47t94.5 -42.5t103.5 -42t105 -46q43 32 62.5 69t19.5 79q0 60 -38.5 100t-102.5 71
t-145.5 60.5t-167.5 68.5z" />
    <glyph glyph-name="dieresis" unicode="&#xa8;" 
d="M656 1359q28 0 51.5 -9.5t40.5 -27t27 -41t10 -50.5q0 -28 -9.5 -51.5t-27 -41t-41 -27t-51.5 -9.5q-29 0 -53 10t-41 27t-27 41t-10 51t10 50.5t27.5 40.5t41.5 27t52 10zM200 1359q27 0 51 -9.5t41 -26.5t27 -40.5t10 -51.5q0 -57 -36.5 -93t-93.5 -36q-29 0 -53 9.5
t-41 27t-27 41t-10 51.5q0 27 10 50.5t28 41t42 27t52 9.5z" />
    <glyph glyph-name="copyright" unicode="&#xa9;" horiz-adv-x="1680" 
d="M841 1427q105 0 200.5 -27.5t177.5 -76.5t148.5 -117t113.5 -149t72.5 -173t25.5 -188q0 -104 -28 -198.5t-77.5 -175.5t-118.5 -146.5t-151 -111.5t-174.5 -71t-189.5 -25q-106 0 -202 27.5t-178 76t-148 116.5t-113 148.5t-72 172t-25 187.5q0 103 27 197t76.5 175.5
t117.5 147.5t150.5 113t175.5 72.5t192 25.5zM1463 696q0 88 -23 168.5t-64.5 150t-99.5 126t-127 96.5t-147.5 62t-161.5 22q-89 0 -169.5 -23.5t-150 -65.5t-125.5 -100t-95.5 -127.5t-61 -148t-21.5 -160.5q0 -90 23.5 -171t65.5 -150t100 -124.5t127 -94.5t146.5 -60
t159.5 -21q88 0 168.5 23t150 64.5t125.5 99t96 126.5t62 147t22 161zM1198 831l-120 -5q-27 94 -88 142t-139 48q-50 0 -93.5 -20t-76 -59.5t-51.5 -98t-19 -136.5q0 -81 18 -143t50 -103.5t75.5 -62.5t94.5 -21q72 0 136.5 42.5t106.5 131.5l105 -33q-27 -65 -65.5 -112
t-85.5 -77t-103 -44t-118 -14q-87 0 -160 33t-126.5 90.5t-83 135.5t-29.5 168q0 94 34 170t91.5 130t133 83.5t157.5 29.5t145.5 -33.5t94.5 -84.5l3 127l113 -4v-280z" />
    <glyph glyph-name="ordfeminine" unicode="&#xaa;" horiz-adv-x="1054" 
d="M837 857q0 -28 2 -43.5t7.5 -22.5t16 -8.5t27.5 -1.5h33v-109h-23.5t-40.5 0.5t-42 0.5h-28q-38 -1 -65 -1t-65 -2l-20 89q-30 -47 -84.5 -74.5t-151.5 -27.5q-59 0 -103 15t-73.5 41t-44.5 61t-15 74q0 46 20 82.5t57.5 62t91.5 39.5t122 14q44 0 88 -5t83 -15v78
q0 51 -35.5 81.5t-110.5 30.5q-123 0 -147 -98l-112 10l4 136q10 4 33.5 11.5t58.5 15t81.5 12.5t102.5 5q88 0 151 -12.5t103.5 -39.5t59.5 -70.5t19 -104.5v-224zM517 975q-72 0 -111 -29t-39 -82q0 -51 32.5 -79.5t82.5 -28.5q66 0 106.5 35t40.5 99v70q-29 8 -56 11.5
t-56 3.5z" />
    <glyph glyph-name="guillemotleft" unicode="&#xab;" horiz-adv-x="1232" 
d="M623 851l-243 -397l243 -395h-285l-240 395l240 397h285zM1157 851l-244 -397l244 -395h-285l-234 395l234 397h285z" />
    <glyph glyph-name="logicalnot" unicode="&#xac;" horiz-adv-x="1537" 
d="M1348 337h-196v415h-965v197h1161v-612z" />
    <glyph glyph-name="uni00AD" unicode="&#xad;" horiz-adv-x="894" 
d="M98 649h697v-341h-697v341z" />
    <glyph glyph-name="registered" unicode="&#xae;" horiz-adv-x="1680" 
d="M1228 399v-87h-102q-47 0 -78.5 19t-52.5 51.5t-34 76.5t-22 94q-9 35 -24 57.5t-36.5 35t-48.5 17.5t-60 5h-80v-224q0 -14 2.5 -23.5t10 -15.5t21 -9t35.5 -4v-88h-34.5t-42 0.5t-42.5 0.5h-35h-30.5t-37 -0.5t-34.5 -0.5h-24v88q25 1 39 6t21 14t9 21.5t2 29.5v503
q0 17 -2 30.5t-9.5 23t-21.5 14.5t-38 7v67h309q73 0 141.5 -8t121 -32t84.5 -66.5t32 -111.5q0 -71 -55 -124t-158 -73q25 -9 47 -20.5t40 -27.5t31.5 -39t20.5 -56q3 -15 7 -40t14 -50t28 -43t50 -18h36zM690 751h101q108 0 163 28t55 98q0 75 -45 105.5t-139 30.5
q-9 0 -31.5 -0.5t-45.5 -0.5h-58v-261zM841 1427q106 0 201.5 -27.5t177.5 -76.5t148.5 -117t113 -149.5t72 -173t25.5 -187.5q0 -104 -28 -198.5t-77.5 -175.5t-118.5 -146.5t-151 -111.5t-175 -71t-190 -25q-106 0 -201.5 27.5t-177.5 76.5t-148 116.5t-113 148.5t-72 172
t-25 187q0 103 27 197t76.5 175.5t117.5 147.5t150.5 113t175.5 72.5t192 25.5zM1463 696q0 89 -23.5 170t-65 150.5t-99.5 125.5t-127 96t-147.5 61.5t-160.5 21.5q-88 0 -168.5 -23.5t-150 -65.5t-125.5 -100t-96 -127.5t-61.5 -148t-21.5 -160.5q0 -90 23.5 -171
t65.5 -150t100 -124.5t127 -94.5t146.5 -60t159.5 -21q88 0 168.5 23t150 64.5t125.5 99t96 126.5t62 147t22 161z" />
    <glyph glyph-name="macron" unicode="&#xaf;" horiz-adv-x="682" 
d="M-110 1368h903v-154h-903v154z" />
    <glyph glyph-name="degree" unicode="&#xb0;" horiz-adv-x="746" 
d="M374 1421q67 0 126.5 -25.5t103.5 -69.5t69.5 -102.5t25.5 -125.5q0 -68 -26 -126.5t-70.5 -102t-104 -68.5t-125.5 -25q-68 0 -127.5 25.5t-103.5 69t-69.5 102t-25.5 125.5t25.5 126t70 102.5t104 69t127.5 25.5zM561 1098q0 36 -14 70t-39.5 60t-60 41.5t-74.5 15.5
q-41 0 -75.5 -15t-60 -40.5t-39.5 -59.5t-14 -72t14.5 -71.5t39.5 -59t59.5 -40.5t75.5 -15q39 0 73 14.5t59.5 40t40.5 59t15 72.5z" />
    <glyph glyph-name="plusminus" unicode="&#xb1;" horiz-adv-x="1537" 
d="M868 932h480v-196h-480v-365h-199v365h-481v196h481v365h199v-365zM1348 15h-1160v196h1160v-196z" />
    <glyph glyph-name="threesuperior" unicode="&#xb3;" horiz-adv-x="1258" 
d="M325 872q1 -75 30 -110t84 -35q41 0 69.5 23.5t28.5 71.5q0 24 -13 41.5t-37 28.5t-57.5 16t-73.5 6v126q74 8 113.5 29.5t39.5 64.5q0 35 -21 57t-56 22q-50 0 -70 -32.5t-20 -92.5l-192 3v205q60 40 132.5 61t154.5 21q70 0 126 -16t95 -46t59.5 -73.5t20.5 -98.5
q0 -25 -8 -49.5t-24.5 -45t-41 -36t-58.5 -22.5q78 -16 116 -67t38 -117q0 -60 -23 -107.5t-66 -80.5t-105 -50.5t-141 -17.5q-53 0 -104 14t-92 50t-67 97t-28 155z" />
    <glyph glyph-name="acute" unicode="&#xb4;" 
d="M458 1338q23 31 58 49t73 18q31 0 61 -8.5t53 -19.5t34.5 -22.5t5.5 -17.5l-362 -289h-139z" />
    <glyph glyph-name="mu" unicode="&#xb5;" horiz-adv-x="1229" 
d="M223 -433q-18 0 -36 5t-32.5 19.5t-24 39.5t-9.5 65q0 72 7.5 163.5t16.5 189t16.5 194.5t7.5 181v250q0 28 -5.5 43t-19.5 21.5t-38.5 7.5t-62.5 1v160h42.5t53.5 -0.5t48.5 -0.5h28.5q66 1 129.5 2t129.5 3v-513q0 -55 7 -98t24.5 -72t47.5 -44.5t76 -15.5
q85 0 138.5 27t79.5 70q5 7 8 32.5t4.5 55.5t1.5 57v39v206q0 35 -5.5 53.5t-20.5 27t-41.5 10t-69.5 1.5v160q48 -1 95 -1h107q62 1 121 2t119 3v-688q0 -20 5.5 -32.5t19.5 -19.5t38 -9t61 -2v-160q-47 0 -83.5 0.5t-74.5 0.5q-66 -1 -131 -1.5t-131 -2.5v140
q-67 -81 -169 -119.5t-225 -38.5q-63 0 -103 18q0 -77 -2 -151t-7 -123q-11 -87 -47 -121.5t-95 -34.5z" />
    <glyph glyph-name="paragraph" unicode="&#xb6;" horiz-adv-x="1387" 
d="M1144 1257v-1477h-180v1477h-193v-1477h-182v882q-125 1 -215.5 30t-149.5 80t-87 122.5t-28 157.5q0 108 42 181t116.5 117t178 62.5t226.5 18.5h615v-174h-143z" />
    <glyph glyph-name="periodcentered" unicode="&#xb7;" horiz-adv-x="646" 
d="M318 869q39 0 70.5 -9t54 -24.5t35 -38t12.5 -49.5q0 -53 -44 -87.5t-128 -34.5q-82 0 -127.5 32t-45.5 90q0 52 46 86.5t127 34.5z" />
    <glyph glyph-name="cedilla" unicode="&#xb8;" 
d="M470 -3l-3 -74q4 1 11 1h13q45 0 81.5 -13t62.5 -36t40 -56t14 -72q0 -43 -18 -76.5t-51 -56.5t-80 -35t-104 -13q-45 0 -102 10.5t-124 39.5l26 91q38 -16 77.5 -24.5t71.5 -8.5q104 0 104 79q0 36 -25.5 52.5t-68.5 17.5q-8 0 -15.5 -1t-15.5 -3l10 178h96z" />
    <glyph glyph-name="ordmasculine" unicode="&#xba;" horiz-adv-x="857" 
d="M424 1331q86 0 157 -22t122 -63t79 -99.5t28 -132.5t-27.5 -133.5t-77.5 -101t-119.5 -63.5t-154.5 -22q-87 0 -158 22t-121 63.5t-77.5 101t-27.5 133.5q0 73 27.5 131.5t77 99.5t119 63.5t153.5 22.5zM431 1213q-78 0 -120 -51.5t-42 -148.5q0 -94 40.5 -145.5
t118.5 -51.5q77 0 118.5 51.5t41.5 148.5q0 94 -41 145.5t-116 51.5z" />
    <glyph glyph-name="guillemotright" unicode="&#xbb;" horiz-adv-x="1232" 
d="M433 851l240 -395l-240 -397h-285l244 397l-244 395h285zM822 851l239 -395l-239 -397h-302l259 397l-243 395h286z" />
    <glyph glyph-name="onequarter" unicode="&#xbc;" horiz-adv-x="2281" 
d="M222 879h124v284q-40 -12 -64.5 -17t-35.5 -5h-12t-12 1v186q65 1 110 10.5t75.5 27t49.5 42t33 55.5h132v-584h122v-181h-522v181zM1345 1322l-397 -1418h-180l396 1418h181zM1923 866v-453h113v-171h-113v-62q0 -7 4.5 -8.5t19.5 -1.5h73v-170h-100.5t-60.5 1
q-8 0 -20 0.5t-20 0.5q-18 0 -35.5 1t-44 1t-66.5 -0.5t-102 -3.5v170h84q20 0 28.5 1t8.5 5v66h-347l-29 171l370 453h237zM1537 411h157v201z" />
    <glyph glyph-name="onehalf" unicode="&#xbd;" horiz-adv-x="2254" 
d="M222 879h124v284q-40 -12 -64.5 -17t-35.5 -5h-12t-12 1v186q65 1 110 10.5t75.5 27t49.5 42t33 55.5h132v-584h122v-181h-522v181zM1345 1322l-397 -1418h-180l396 1418h181zM2045 3h-730v52q0 74 32.5 133t82 107t106.5 85.5t106.5 67t82 53.5t32.5 44t-18.5 29.5
t-50.5 9.5q-35 0 -51.5 -11t-22.5 -24t-6 -24t-1 -11v1l-264 2q0 53 18 99t60 80.5t111.5 54.5t173.5 20q81 0 148 -17t115 -48t74.5 -75.5t26.5 -98.5q0 -46 -18.5 -81.5t-48.5 -63t-68.5 -48t-78.5 -38t-79 -32t-69.5 -30t-49.5 -32.5t-20 -38h164q14 0 22.5 1t13.5 7
t7 18.5t2 35.5h198v-228z" />
    <glyph glyph-name="threequarters" unicode="&#xbe;" horiz-adv-x="2192" 
d="M346 872q1 -75 30 -110t84 -35q41 0 69.5 23.5t28.5 71.5q0 24 -13 41.5t-37 28.5t-57.5 16t-73.5 6v126q74 8 113.5 29.5t39.5 64.5q0 35 -21 57t-56 22q-50 0 -70 -32.5t-20 -92.5l-192 3v205q60 40 132.5 61t154.5 21q70 0 126 -16t95 -46t59.5 -73.5t20.5 -98.5
q0 -25 -8 -49.5t-24.5 -45t-41 -36t-58.5 -22.5q78 -16 116 -67t38 -117q0 -60 -23 -107.5t-66 -80.5t-105 -50.5t-141 -17.5q-53 0 -104 14t-92 50t-67 97t-28 155zM1323 1322l-397 -1418h-180l396 1418h181zM1903 866v-453h113v-171h-113v-62q0 -7 4.5 -8.5t19.5 -1.5h73
v-170h-100.5t-60.5 1q-8 0 -20 0.5t-20 0.5q-18 0 -35.5 1t-44 1t-66.5 -0.5t-102 -3.5v170h84q20 0 28.5 1t8.5 5v66h-347l-29 171l370 453h237zM1517 411h157v201z" />
    <glyph glyph-name="questiondown" unicode="&#xbf;" horiz-adv-x="1082" 
d="M596 415h-202q-4 12 -7.5 28.5t-5.5 33.5t-3.5 31.5t-1.5 22.5q0 64 26.5 102.5t66.5 65t86 47t86 49t66.5 71t26.5 112.5q0 50 -18 89t-48.5 65.5t-72 40.5t-88.5 14q-101 0 -161 -56.5t-60 -175.5h-211l22 275q88 51 193.5 78t228.5 27q135 0 231.5 -26.5t158 -73
t90.5 -109.5t29 -136q0 -89 -38 -156.5t-98.5 -123.5t-135.5 -107t-150 -108zM495 231q78 0 125 -33.5t47 -87.5q0 -53 -44 -87.5t-128 -34.5q-82 0 -127 32t-45 90q0 52 45.5 86.5t126.5 34.5z" />
    <glyph glyph-name="Agrave" unicode="&#xc0;" horiz-adv-x="1454" 
d="M921 1308q87 -236 159 -430q31 -83 61 -164.5t55.5 -150t43.5 -117t24 -64.5q25 -69 39 -109t31.5 -61t44.5 -27.5t78 -7.5v-177q-59 0 -114.5 1t-128.5 1q-86 0 -168.5 -0.5t-178.5 -1.5v165h11.5h15.5t15 0.5t10 0.5q48 2 66 10t18 28q0 12 -5 29.5t-13 40.5l-64 189
h-461q-3 -11 -14 -42.5t-23.5 -67.5t-22.5 -67t-12 -39q-5 -14 -7.5 -25.5t-2.5 -18.5q0 -22 13.5 -29.5t45.5 -8.5q3 0 13 -0.5t22 -0.5h22.5h14.5v-164q-61 0 -123 1t-134 1h-65.5t-59.5 -0.5t-59 -1t-64 -0.5v178q36 4 58.5 7t37.5 11.5t26 25t23 46.5q8 19 25 62
t39.5 101t49.5 126.5t55 139.5t55 140t50 127.5t40 102t25 63.5l46 178h387zM506 593h369l-179 526l-2 1zM984 1448h-139q-10 9 -41.5 33t-73 54.5t-87 65t-84 65.5t-63.5 54t-26 32q0 4 15 13t38.5 18.5t53 17t59.5 7.5q34 0 64.5 -10t47.5 -33z" />
    <glyph glyph-name="Aacute" unicode="&#xc1;" horiz-adv-x="1454" 
d="M921 1308q87 -236 159 -430q31 -83 61 -164.5t55.5 -150t43.5 -117t24 -64.5q25 -69 39 -109t31.5 -61t44.5 -27.5t78 -7.5v-177q-59 0 -114.5 1t-128.5 1q-86 0 -168.5 -0.5t-178.5 -1.5v165h11.5h15.5t15 0.5t10 0.5q48 2 66 10t18 28q0 12 -5 29.5t-13 40.5l-64 189
h-461q-3 -11 -14 -42.5t-23.5 -67.5t-22.5 -67t-12 -39q-5 -14 -7.5 -25.5t-2.5 -18.5q0 -22 13.5 -29.5t45.5 -8.5q3 0 13 -0.5t22 -0.5h22.5h14.5v-164q-61 0 -123 1t-134 1h-65.5t-59.5 -0.5t-59 -1t-64 -0.5v178q36 4 58.5 7t37.5 11.5t26 25t23 46.5q8 19 25 62
t39.5 101t49.5 126.5t55 139.5t55 140t50 127.5t40 102t25 63.5l46 178h387zM506 593h369l-179 526l-2 1zM688 1738q23 31 58 49t73 18q31 0 61 -8.5t53 -19.5t34.5 -22.5t5.5 -17.5l-362 -289h-139z" />
    <glyph glyph-name="Acircumflex" unicode="&#xc2;" horiz-adv-x="1454" 
d="M921 1308q87 -236 159 -430q31 -83 61 -164.5t55.5 -150t43.5 -117t24 -64.5q25 -69 39 -109t31.5 -61t44.5 -27.5t78 -7.5v-177q-59 0 -114.5 1t-128.5 1q-86 0 -168.5 -0.5t-178.5 -1.5v165h11.5h15.5t15 0.5t10 0.5q48 2 66 10t18 28q0 12 -5 29.5t-13 40.5l-64 189
h-461q-3 -11 -14 -42.5t-23.5 -67.5t-22.5 -67t-12 -39q-5 -14 -7.5 -25.5t-2.5 -18.5q0 -22 13.5 -29.5t45.5 -8.5q3 0 13 -0.5t22 -0.5h22.5h14.5v-164q-61 0 -123 1t-134 1h-65.5t-59.5 -0.5t-59 -1t-64 -0.5v178q36 4 58.5 7t37.5 11.5t26 25t23 46.5q8 19 25 62
t39.5 101t49.5 126.5t55 139.5t55 140t50 127.5t40 102t25 63.5l46 178h387zM506 593h369l-179 526l-2 1zM854 1790l221 -337h-154l-194 165l-196 -165h-152l219 337h256z" />
    <glyph glyph-name="Atilde" unicode="&#xc3;" horiz-adv-x="1454" 
d="M921 1308q87 -236 159 -430q31 -83 61 -164.5t55.5 -150t43.5 -117t24 -64.5q25 -69 39 -109t31.5 -61t44.5 -27.5t78 -7.5v-177q-59 0 -114.5 1t-128.5 1q-86 0 -168.5 -0.5t-178.5 -1.5v165h11.5h15.5t15 0.5t10 0.5q48 2 66 10t18 28q0 12 -5 29.5t-13 40.5l-64 189
h-461q-3 -11 -14 -42.5t-23.5 -67.5t-22.5 -67t-12 -39q-5 -14 -7.5 -25.5t-2.5 -18.5q0 -22 13.5 -29.5t45.5 -8.5q3 0 13 -0.5t22 -0.5h22.5h14.5v-164q-61 0 -123 1t-134 1h-65.5t-59.5 -0.5t-59 -1t-64 -0.5v178q36 4 58.5 7t37.5 11.5t26 25t23 46.5q8 19 25 62
t39.5 101t49.5 126.5t55 139.5t55 140t50 127.5t40 102t25 63.5l46 178h387zM506 593h369l-179 526l-2 1zM1076 1759q-15 -121 -73.5 -189t-155.5 -68q-35 0 -68 10t-64.5 22.5t-61.5 22.5t-58 10q-38 0 -62 -23t-38 -63h-118q20 128 77 193t152 65q34 0 67 -10t65 -22
t63 -22t62 -10q37 0 58.5 19.5t37.5 64.5h117z" />
    <glyph glyph-name="Adieresis" unicode="&#xc4;" horiz-adv-x="1454" 
d="M921 1308q87 -236 159 -430q31 -83 61 -164.5t55.5 -150t43.5 -117t24 -64.5q25 -69 39 -109t31.5 -61t44.5 -27.5t78 -7.5v-177q-59 0 -114.5 1t-128.5 1q-86 0 -168.5 -0.5t-178.5 -1.5v165h11.5h15.5t15 0.5t10 0.5q48 2 66 10t18 28q0 12 -5 29.5t-13 40.5l-64 189
h-461q-3 -11 -14 -42.5t-23.5 -67.5t-22.5 -67t-12 -39q-5 -14 -7.5 -25.5t-2.5 -18.5q0 -22 13.5 -29.5t45.5 -8.5q3 0 13 -0.5t22 -0.5h22.5h14.5v-164q-61 0 -123 1t-134 1h-65.5t-59.5 -0.5t-59 -1t-64 -0.5v178q36 4 58.5 7t37.5 11.5t26 25t23 46.5q8 19 25 62
t39.5 101t49.5 126.5t55 139.5t55 140t50 127.5t40 102t25 63.5l46 178h387zM506 593h369l-179 526l-2 1zM956 1759q28 0 51.5 -9.5t40.5 -27t27 -41t10 -50.5q0 -28 -9.5 -51.5t-27 -41t-41 -27t-51.5 -9.5q-29 0 -53 10t-41 27t-27 41t-10 51t10 50.5t27.5 40.5t41.5 27
t52 10zM500 1759q27 0 51 -9.5t41 -26.5t27 -40.5t10 -51.5q0 -57 -36.5 -93t-93.5 -36q-29 0 -53 9.5t-41 27t-27 41t-10 51.5q0 27 10 50.5t28 41t42 27t52 9.5z" />
    <glyph glyph-name="Aring" unicode="&#xc5;" horiz-adv-x="1454" 
d="M921 1308q87 -236 159 -430q31 -83 61 -164.5t55.5 -150t43.5 -117t24 -64.5q25 -69 39 -109t31.5 -61t44.5 -27.5t78 -7.5v-177q-59 0 -114.5 1t-128.5 1q-86 0 -168.5 -0.5t-178.5 -1.5v165h11.5h15.5t15 0.5t10 0.5q48 2 66 10t18 28q0 12 -5 29.5t-13 40.5l-64 189
h-461q-3 -11 -14 -42.5t-23.5 -67.5t-22.5 -67t-12 -39q-5 -14 -7.5 -25.5t-2.5 -18.5q0 -22 13.5 -29.5t45.5 -8.5q3 0 13 -0.5t22 -0.5h22.5h14.5v-164q-61 0 -123 1t-134 1h-65.5t-59.5 -0.5t-59 -1t-64 -0.5v178q36 4 58.5 7t37.5 11.5t26 25t23 46.5q8 19 25 62
t39.5 101t49.5 126.5t55 139.5t55 140t50 127.5t40 102t25 63.5l46 178h387zM506 593h369l-179 526l-2 1zM726 1880q50 0 93.5 -18t75.5 -48.5t50.5 -71t18.5 -86.5q0 -48 -19 -89.5t-51.5 -72t-75.5 -48t-92 -17.5q-50 0 -93.5 18t-75.5 48.5t-50.5 72t-18.5 88.5t18.5 88
t50.5 71t75.5 47.5t93.5 17.5zM726 1778q-26 0 -49 -10t-40 -26.5t-26.5 -38.5t-9.5 -47q0 -26 9.5 -49t26.5 -39.5t40 -26t49 -9.5t48.5 9.5t39.5 26.5t26.5 39.5t9.5 48.5q0 25 -10 47.5t-26.5 39t-39.5 26t-48 9.5z" />
    <glyph glyph-name="AE" unicode="&#xc6;" horiz-adv-x="2010" 
d="M598 1117l116 191h1194v-366h-196v45q0 46 -4 71.5t-11.5 37.5t-19 14t-26.5 2h-417v-363h250q9 0 17.5 1.5t15 9t10.5 24.5t4 48h82v-331h-82q0 31 -3.5 47.5t-9.5 24t-14.5 9t-18.5 1.5h-251v-386h427q18 0 29 4t17 22.5t8.5 56.5t2.5 106h194v-386h-1165v178h44
q42 0 65.5 4.5t34.5 12t13 17.5t2 21v275h-434l-113 -194q-24 -41 -37 -66.5t-13 -40.5q0 -18 21.5 -23.5t69.5 -5.5h57v-178q-65 1 -121.5 1.5t-122.5 0.5h-73t-66 -0.5t-65 -1t-70 -0.5v178q40 0 65.5 8.5t45 27t38 49.5t45.5 76zM559 673h343v457h-76z" />
    <glyph glyph-name="Ccedilla" unicode="&#xc7;" horiz-adv-x="1446" 
d="M835 168q76 0 133.5 16t96.5 52t60.5 94t25.5 142l204 -44l-15 -304q-118 -79 -251 -114.5t-288 -35.5q-182 0 -313 53t-215 145t-124 216t-40 266q0 149 45.5 274t130.5 215t207 140t276 50q46 0 95 -8t94 -23t83.5 -36t65.5 -47l5 86h222v-410l-205 1q-8 114 -82 178.5
t-214 64.5q-85 0 -152 -31t-113.5 -91.5t-71.5 -151t-25 -208.5q0 -116 25 -207t72 -153.5t114.5 -95.5t153.5 -33zM743 -3l-3 -74q4 1 11 1h13q45 0 81.5 -13t62.5 -36t40 -56t14 -72q0 -43 -18 -76.5t-51 -56.5t-80 -35t-104 -13q-45 0 -102 10.5t-124 39.5l26 91
q38 -16 77.5 -24.5t71.5 -8.5q104 0 104 79q0 36 -25.5 52.5t-68.5 17.5q-8 0 -15.5 -1t-15.5 -3l10 178h96z" />
    <glyph glyph-name="Egrave" unicode="&#xc8;" horiz-adv-x="1316" 
d="M1211 1308v-364h-195v41q0 48 -10 74t-28 37.5t-44 13.5t-58 2h-335v-363h197q22 0 37.5 2.5t26.5 11.5t18.5 28t12.5 52h85v-354h-86q-6 32 -13 51t-18 28.5t-26 12t-37 2.5h-197v-389h349q37 0 62 5t40.5 22t22.5 48.5t7 84.5v32h193v-386h-1147v178h74q26 0 40.5 9
t22 25t9 36t1.5 43v720q0 22 -1 44t-8 39t-21.5 27.5t-42.5 10.5h-70v176h1139zM915 1448h-139q-10 9 -41.5 33t-73 54.5t-87 65t-84 65.5t-63.5 54t-26 32q0 4 15 13t38.5 18.5t53 17t59.5 7.5q34 0 64.5 -10t47.5 -33z" />
    <glyph glyph-name="Eacute" unicode="&#xc9;" horiz-adv-x="1316" 
d="M619 1738q23 31 58 49t73 18q31 0 61 -8.5t53 -19.5t34.5 -22.5t5.5 -17.5l-362 -289h-139zM1211 1308v-364h-195v41q0 48 -10 74t-28 37.5t-44 13.5t-58 2h-335v-363h197q22 0 37.5 2.5t26.5 11.5t18.5 28t12.5 52h85v-354h-86q-6 32 -13 51t-18 28.5t-26 12t-37 2.5
h-197v-389h349q37 0 62 5t40.5 22t22.5 48.5t7 84.5v32h193v-386h-1147v178h74q26 0 40.5 9t22 25t9 36t1.5 43v720q0 22 -1 44t-8 39t-21.5 27.5t-42.5 10.5h-70v176h1139z" />
    <glyph glyph-name="Ecircumflex" unicode="&#xca;" horiz-adv-x="1316" 
d="M785 1790l221 -337h-154l-194 165l-196 -165h-152l219 337h256zM1211 1308v-364h-195v41q0 48 -10 74t-28 37.5t-44 13.5t-58 2h-335v-363h197q22 0 37.5 2.5t26.5 11.5t18.5 28t12.5 52h85v-354h-86q-6 32 -13 51t-18 28.5t-26 12t-37 2.5h-197v-389h349q37 0 62 5
t40.5 22t22.5 48.5t7 84.5v32h193v-386h-1147v178h74q26 0 40.5 9t22 25t9 36t1.5 43v720q0 22 -1 44t-8 39t-21.5 27.5t-42.5 10.5h-70v176h1139z" />
    <glyph glyph-name="Edieresis" unicode="&#xcb;" horiz-adv-x="1316" 
d="M887 1759q28 0 51.5 -9.5t40.5 -27t27 -41t10 -50.5q0 -28 -9.5 -51.5t-27 -41t-41 -27t-51.5 -9.5q-29 0 -53 10t-41 27t-27 41t-10 51t10 50.5t27.5 40.5t41.5 27t52 10zM431 1759q27 0 51 -9.5t41 -26.5t27 -40.5t10 -51.5q0 -57 -36.5 -93t-93.5 -36q-29 0 -53 9.5
t-41 27t-27 41t-10 51.5q0 27 10 50.5t28 41t42 27t52 9.5zM1211 1308v-364h-195v41q0 48 -10 74t-28 37.5t-44 13.5t-58 2h-335v-363h197q22 0 37.5 2.5t26.5 11.5t18.5 28t12.5 52h85v-354h-86q-6 32 -13 51t-18 28.5t-26 12t-37 2.5h-197v-389h349q37 0 62 5t40.5 22
t22.5 48.5t7 84.5v32h193v-386h-1147v178h74q26 0 40.5 9t22 25t9 36t1.5 43v720q0 22 -1 44t-8 39t-21.5 27.5t-42.5 10.5h-70v176h1139z" />
    <glyph glyph-name="Igrave" unicode="&#xcc;" horiz-adv-x="761" 
d="M75 1308q45 -1 82 -1.5t69 -0.5h61.5h58.5h106.5h86t76 0.5t76.5 1.5v-178h-42q-36 0 -56.5 -6.5t-31 -19t-13 -30t-2.5 -39.5v-766q0 -27 2 -44.5t12 -28t30.5 -14.5t58.5 -4h42v-178q-37 0 -72 0.5t-71.5 0.5t-78 0.5t-90.5 0.5q-92 0 -162.5 -1t-141.5 -1v178h40
q39 0 60 7t31 21t11.5 35t1.5 49v725q0 29 -2 50.5t-12 36t-31 21.5t-59 7h-40v178zM638 1448h-139q-10 9 -41.5 33t-73 54.5t-87 65t-84 65.5t-63.5 54t-26 32q0 4 15 13t38.5 18.5t53 17t59.5 7.5q34 0 64.5 -10t47.5 -33z" />
    <glyph glyph-name="Iacute" unicode="&#xcd;" horiz-adv-x="761" 
d="M75 1308q45 -1 82 -1.5t69 -0.5h61.5h58.5h106.5h86t76 0.5t76.5 1.5v-178h-42q-36 0 -56.5 -6.5t-31 -19t-13 -30t-2.5 -39.5v-766q0 -27 2 -44.5t12 -28t30.5 -14.5t58.5 -4h42v-178q-37 0 -72 0.5t-71.5 0.5t-78 0.5t-90.5 0.5q-92 0 -162.5 -1t-141.5 -1v178h40
q39 0 60 7t31 21t11.5 35t1.5 49v725q0 29 -2 50.5t-12 36t-31 21.5t-59 7h-40v178zM346 1738q23 31 58 49t73 18q31 0 61 -8.5t53 -19.5t34.5 -22.5t5.5 -17.5l-362 -289h-139z" />
    <glyph glyph-name="Icircumflex" unicode="&#xce;" horiz-adv-x="761" 
d="M75 1308q45 -1 82 -1.5t69 -0.5h61.5h58.5h106.5h86t76 0.5t76.5 1.5v-178h-42q-36 0 -56.5 -6.5t-31 -19t-13 -30t-2.5 -39.5v-766q0 -27 2 -44.5t12 -28t30.5 -14.5t58.5 -4h42v-178q-37 0 -72 0.5t-71.5 0.5t-78 0.5t-90.5 0.5q-92 0 -162.5 -1t-141.5 -1v178h40
q39 0 60 7t31 21t11.5 35t1.5 49v725q0 29 -2 50.5t-12 36t-31 21.5t-59 7h-40v178zM512 1790l221 -337h-154l-194 165l-196 -165h-152l219 337h256z" />
    <glyph glyph-name="Idieresis" unicode="&#xcf;" horiz-adv-x="761" 
d="M75 1308q45 -1 82 -1.5t69 -0.5h61.5h58.5h106.5h86t76 0.5t76.5 1.5v-178h-42q-36 0 -56.5 -6.5t-31 -19t-13 -30t-2.5 -39.5v-766q0 -27 2 -44.5t12 -28t30.5 -14.5t58.5 -4h42v-178q-37 0 -72 0.5t-71.5 0.5t-78 0.5t-90.5 0.5q-92 0 -162.5 -1t-141.5 -1v178h40
q39 0 60 7t31 21t11.5 35t1.5 49v725q0 29 -2 50.5t-12 36t-31 21.5t-59 7h-40v178zM614 1759q28 0 51.5 -9.5t40.5 -27t27 -41t10 -50.5q0 -28 -9.5 -51.5t-27 -41t-41 -27t-51.5 -9.5q-29 0 -53 10t-41 27t-27 41t-10 51t10 50.5t27.5 40.5t41.5 27t52 10zM158 1759
q27 0 51 -9.5t41 -26.5t27 -40.5t10 -51.5q0 -57 -36.5 -93t-93.5 -36q-29 0 -53 9.5t-41 27t-27 41t-10 51.5q0 27 10 50.5t28 41t42 27t52 9.5z" />
    <glyph glyph-name="Eth" unicode="&#xd0;" horiz-adv-x="1584" 
d="M727 792v-265h-661v265h661zM625 1308q426 0 635 -161.5t209 -485.5q0 -187 -58.5 -313.5t-166 -204t-259 -110.5t-338.5 -33h-582v178h49q31 0 49 8.5t27 23t11.5 34.5t2.5 44v36.5t-0.5 86.5t-0.5 120v136v368q0 21 -3.5 38t-13 30t-27 20.5t-45.5 7.5h-49v177h560z
M531 194h144q110 0 192.5 27t137 84.5t82 146.5t27.5 213q0 234 -108.5 341.5t-331.5 107.5h-143v-920z" />
    <glyph glyph-name="Ntilde" unicode="&#xd1;" horiz-adv-x="1543" 
d="M319 1308h24h42.5h52h52h43h24.5l571 -963h2l-1 701q0 28 -4 44.5t-15 25.5t-30.5 11.5t-50.5 2.5h-46v178q75 0 134.5 -1t108.5 -1h22.5h35.5t43 0.5t46 0.5q54 0 118 1v-178h-51q-34 0 -52 -7.5t-26.5 -21t-10 -33t-1.5 -42.5v-48v-119.5v-166.5v-190v-516h-329
l-601 1002h-2l1 -722q0 -31 3.5 -48.5t15 -26.5t31.5 -11t53 -2h49v-178q-57 0 -115.5 1t-135.5 1q-43 0 -78 -0.5t-66.5 -0.5t-61.5 -0.5t-62 -0.5v178h52q37 0 56.5 7t28.5 21t10 35.5t1 50.5v737q0 30 -2 49.5t-11.5 31t-28.5 16t-52 4.5h-52v178h265zM1121 1759
q-15 -121 -73.5 -189t-155.5 -68q-35 0 -68 10t-64.5 22.5t-61.5 22.5t-58 10q-38 0 -62 -23t-38 -63h-118q20 128 77 193t152 65q34 0 67 -10t65 -22t63 -22t62 -10q37 0 58.5 19.5t37.5 64.5h117z" />
    <glyph glyph-name="Ograve" unicode="&#xd2;" horiz-adv-x="1575" 
d="M788 1333q165 0 292.5 -52t215 -143.5t133 -215.5t45.5 -267t-45.5 -267t-132.5 -216t-214 -145t-291 -53q-166 0 -295 52t-217 143.5t-134 216t-46 269.5q0 143 45 266.5t132.5 215t216 144t295.5 52.5zM787 1139q-86 0 -147.5 -33t-101 -95.5t-58 -152t-18.5 -201.5
q0 -117 20 -208t60 -153.5t101 -95t144 -32.5q84 0 145.5 33.5t101 96.5t59 153.5t19.5 204.5q0 234 -80 358.5t-245 124.5zM1045 1448h-139q-10 9 -41.5 33t-73 54.5t-87 65t-84 65.5t-63.5 54t-26 32q0 4 15 13t38.5 18.5t53 17t59.5 7.5q34 0 64.5 -10t47.5 -33z" />
    <glyph glyph-name="Oacute" unicode="&#xd3;" horiz-adv-x="1575" 
d="M749 1738q23 31 58 49t73 18q31 0 61 -8.5t53 -19.5t34.5 -22.5t5.5 -17.5l-362 -289h-139zM788 1333q165 0 292.5 -52t215 -143.5t133 -215.5t45.5 -267t-45.5 -267t-132.5 -216t-214 -145t-291 -53q-166 0 -295 52t-217 143.5t-134 216t-46 269.5q0 143 45 266.5
t132.5 215t216 144t295.5 52.5zM787 1139q-86 0 -147.5 -33t-101 -95.5t-58 -152t-18.5 -201.5q0 -117 20 -208t60 -153.5t101 -95t144 -32.5q84 0 145.5 33.5t101 96.5t59 153.5t19.5 204.5q0 234 -80 358.5t-245 124.5z" />
    <glyph glyph-name="Ocircumflex" unicode="&#xd4;" horiz-adv-x="1575" 
d="M915 1790l221 -337h-154l-194 165l-196 -165h-152l219 337h256zM788 1333q165 0 292.5 -52t215 -143.5t133 -215.5t45.5 -267t-45.5 -267t-132.5 -216t-214 -145t-291 -53q-166 0 -295 52t-217 143.5t-134 216t-46 269.5q0 143 45 266.5t132.5 215t216 144t295.5 52.5z
M787 1139q-86 0 -147.5 -33t-101 -95.5t-58 -152t-18.5 -201.5q0 -117 20 -208t60 -153.5t101 -95t144 -32.5q84 0 145.5 33.5t101 96.5t59 153.5t19.5 204.5q0 234 -80 358.5t-245 124.5z" />
    <glyph glyph-name="Otilde" unicode="&#xd5;" horiz-adv-x="1575" 
d="M788 1333q165 0 292.5 -52t215 -143.5t133 -215.5t45.5 -267t-45.5 -267t-132.5 -216t-214 -145t-291 -53q-166 0 -295 52t-217 143.5t-134 216t-46 269.5q0 143 45 266.5t132.5 215t216 144t295.5 52.5zM787 1139q-86 0 -147.5 -33t-101 -95.5t-58 -152t-18.5 -201.5
q0 -117 20 -208t60 -153.5t101 -95t144 -32.5q84 0 145.5 33.5t101 96.5t59 153.5t19.5 204.5q0 234 -80 358.5t-245 124.5zM1137 1759q-15 -121 -73.5 -189t-155.5 -68q-35 0 -68 10t-64.5 22.5t-61.5 22.5t-58 10q-38 0 -62 -23t-38 -63h-118q20 128 77 193t152 65
q34 0 67 -10t65 -22t63 -22t62 -10q37 0 58.5 19.5t37.5 64.5h117z" />
    <glyph glyph-name="Odieresis" unicode="&#xd6;" horiz-adv-x="1575" 
d="M1017 1759q28 0 51.5 -9.5t40.5 -27t27 -41t10 -50.5q0 -28 -9.5 -51.5t-27 -41t-41 -27t-51.5 -9.5q-29 0 -53 10t-41 27t-27 41t-10 51t10 50.5t27.5 40.5t41.5 27t52 10zM561 1759q27 0 51 -9.5t41 -26.5t27 -40.5t10 -51.5q0 -57 -36.5 -93t-93.5 -36q-29 0 -53 9.5
t-41 27t-27 41t-10 51.5q0 27 10 50.5t28 41t42 27t52 9.5zM788 1333q165 0 292.5 -52t215 -143.5t133 -215.5t45.5 -267t-45.5 -267t-132.5 -216t-214 -145t-291 -53q-166 0 -295 52t-217 143.5t-134 216t-46 269.5q0 143 45 266.5t132.5 215t216 144t295.5 52.5zM787 1139
q-86 0 -147.5 -33t-101 -95.5t-58 -152t-18.5 -201.5q0 -117 20 -208t60 -153.5t101 -95t144 -32.5q84 0 145.5 33.5t101 96.5t59 153.5t19.5 204.5q0 234 -80 358.5t-245 124.5z" />
    <glyph glyph-name="multiply" unicode="&#xd7;" horiz-adv-x="1536" 
d="M1184 1184l139 -138l-412 -409l413 -407l-140 -140l-413 409l-414 -409l-138 140l412 407l-411 409l137 138l414 -408z" />
    <glyph glyph-name="Oslash" unicode="&#xd8;" horiz-adv-x="1575" 
d="M1393 1319l-122 -159q97 -87 150.5 -213t53.5 -297q0 -152 -48 -276.5t-137.5 -213.5t-217 -137.5t-285.5 -48.5q-116 0 -209 23.5t-174 74.5l-112 -150l-131 51l134 178q-98 91 -147 216t-49 282q0 152 47.5 278t136.5 217t216.5 141t287.5 50q108 0 205 -25t172 -73
l97 127zM1011 1051q-46 52 -99 74t-124 22q-167 0 -249 -129t-82 -369q0 -66 12.5 -120.5t43.5 -107.5zM562 267q81 -102 225 -102q89 0 151.5 36t102 102t57.5 158.5t18 205.5q0 69 -13 127.5t-40 106.5z" />
    <glyph glyph-name="Ugrave" unicode="&#xd9;" horiz-adv-x="1411" 
d="M47 1308q15 0 47.5 -0.5t70.5 -1t76.5 -1t66.5 -0.5h76.5t76.5 0.5t81.5 1t90.5 1.5v-178h-33q-36 0 -55.5 -9.5t-29 -25t-11.5 -36t-2 -41.5v-521q0 -80 12.5 -141.5t42.5 -103t81 -63t128 -21.5q70 0 116 20t73 60t38 99t11 137v542q0 19 -2 37.5t-12 33.5t-30.5 24
t-56.5 9h-36v178q13 -1 46 -1.5t73 -0.5h80h69h42t57.5 0.5t66 1t66.5 0.5v-178h-47q-35 0 -52.5 -11.5t-25 -28.5t-7.5 -36.5v-35.5v-518q0 -129 -29 -227.5t-91.5 -165t-162 -100t-240.5 -33.5q-142 0 -243.5 31.5t-166 96t-94.5 162t-30 229.5v560q0 11 -2 24.5t-11 25
t-26.5 19.5t-48.5 8h-43v178zM962 1448h-139q-10 9 -41.5 33t-73 54.5t-87 65t-84 65.5t-63.5 54t-26 32q0 4 15 13t38.5 18.5t53 17t59.5 7.5q34 0 64.5 -10t47.5 -33z" />
    <glyph glyph-name="Uacute" unicode="&#xda;" horiz-adv-x="1411" 
d="M666 1738q23 31 58 49t73 18q31 0 61 -8.5t53 -19.5t34.5 -22.5t5.5 -17.5l-362 -289h-139zM47 1308q15 0 47.5 -0.5t70.5 -1t76.5 -1t66.5 -0.5h76.5t76.5 0.5t81.5 1t90.5 1.5v-178h-33q-36 0 -55.5 -9.5t-29 -25t-11.5 -36t-2 -41.5v-521q0 -80 12.5 -141.5t42.5 -103
t81 -63t128 -21.5q70 0 116 20t73 60t38 99t11 137v542q0 19 -2 37.5t-12 33.5t-30.5 24t-56.5 9h-36v178q13 -1 46 -1.5t73 -0.5h80h69h42t57.5 0.5t66 1t66.5 0.5v-178h-47q-35 0 -52.5 -11.5t-25 -28.5t-7.5 -36.5v-35.5v-518q0 -129 -29 -227.5t-91.5 -165t-162 -100
t-240.5 -33.5q-142 0 -243.5 31.5t-166 96t-94.5 162t-30 229.5v560q0 11 -2 24.5t-11 25t-26.5 19.5t-48.5 8h-43v178z" />
    <glyph glyph-name="Ucircumflex" unicode="&#xdb;" horiz-adv-x="1411" 
d="M832 1790l221 -337h-154l-194 165l-196 -165h-152l219 337h256zM47 1308q15 0 47.5 -0.5t70.5 -1t76.5 -1t66.5 -0.5h76.5t76.5 0.5t81.5 1t90.5 1.5v-178h-33q-36 0 -55.5 -9.5t-29 -25t-11.5 -36t-2 -41.5v-521q0 -80 12.5 -141.5t42.5 -103t81 -63t128 -21.5
q70 0 116 20t73 60t38 99t11 137v542q0 19 -2 37.5t-12 33.5t-30.5 24t-56.5 9h-36v178q13 -1 46 -1.5t73 -0.5h80h69h42t57.5 0.5t66 1t66.5 0.5v-178h-47q-35 0 -52.5 -11.5t-25 -28.5t-7.5 -36.5v-35.5v-518q0 -129 -29 -227.5t-91.5 -165t-162 -100t-240.5 -33.5
q-142 0 -243.5 31.5t-166 96t-94.5 162t-30 229.5v560q0 11 -2 24.5t-11 25t-26.5 19.5t-48.5 8h-43v178z" />
    <glyph glyph-name="Udieresis" unicode="&#xdc;" horiz-adv-x="1411" 
d="M935 1759q28 0 51.5 -9.5t40.5 -27t27 -41t10 -50.5q0 -28 -9.5 -51.5t-27 -41t-41 -27t-51.5 -9.5q-29 0 -53 10t-41 27t-27 41t-10 51t10 50.5t27.5 40.5t41.5 27t52 10zM479 1759q27 0 51 -9.5t41 -26.5t27 -40.5t10 -51.5q0 -57 -36.5 -93t-93.5 -36q-29 0 -53 9.5
t-41 27t-27 41t-10 51.5q0 27 10 50.5t28 41t42 27t52 9.5zM47 1308q15 0 47.5 -0.5t70.5 -1t76.5 -1t66.5 -0.5h76.5t76.5 0.5t81.5 1t90.5 1.5v-178h-33q-36 0 -55.5 -9.5t-29 -25t-11.5 -36t-2 -41.5v-521q0 -80 12.5 -141.5t42.5 -103t81 -63t128 -21.5q70 0 116 20
t73 60t38 99t11 137v542q0 19 -2 37.5t-12 33.5t-30.5 24t-56.5 9h-36v178q13 -1 46 -1.5t73 -0.5h80h69h42t57.5 0.5t66 1t66.5 0.5v-178h-47q-35 0 -52.5 -11.5t-25 -28.5t-7.5 -36.5v-35.5v-518q0 -129 -29 -227.5t-91.5 -165t-162 -100t-240.5 -33.5q-142 0 -243.5 31.5
t-166 96t-94.5 162t-30 229.5v560q0 11 -2 24.5t-11 25t-26.5 19.5t-48.5 8h-43v178z" />
    <glyph glyph-name="Yacute" unicode="&#xdd;" horiz-adv-x="1320" 
d="M16 1308q7 0 29 -0.5t50 -1l56 -1t46 -0.5q46 0 89 0.5t90.5 1t101.5 1t121 0.5v-178h-31q-49 0 -70 -7.5t-21 -27.5q3 -6 7.5 -15.5t10 -20.5t10.5 -22t10 -18q6 -12 20.5 -37.5t33 -57.5t39 -67t39 -67t32.5 -57.5t20 -37.5l197 327q15 25 25 44t12 33q-4 16 -24 22
t-62 8q-4 0 -15 0.5t-16 0.5v178q59 -1 112 -1q22 0 45.5 -0.5t44.5 -0.5h38h28h99.5t119.5 2v-178q-33 0 -53 -3.5t-35.5 -13t-29.5 -28t-34 -48.5q-25 -35 -55 -80t-62 -93.5t-64 -98t-60.5 -94t-52 -81t-38.5 -58.5v-262q0 -23 2 -40t12 -28.5t29.5 -17.5t55.5 -6h49
v-178h-72.5t-73.5 0.5t-80 1t-92 0.5q-30 0 -72.5 -0.5t-86 -0.5t-81.5 -0.5t-57 -0.5v178h48q39 0 59 9.5t29 23.5t9.5 29.5t0.5 27.5v266q-15 22 -39.5 60.5t-54 85t-62 97.5t-62 97.5t-54 85t-38.5 61.5q-24 37 -38.5 58t-31 32.5t-39.5 14.5t-62 4q0 44 -0.5 88.5
t-0.5 89.5zM617 1742q23 31 58 49t73 18q31 0 61 -8.5t53 -19.5t34.5 -22.5t5.5 -17.5l-362 -289h-139z" />
    <glyph glyph-name="Thorn" unicode="&#xde;" horiz-adv-x="1357" 
d="M73 1308q15 0 57 -0.5t94.5 -1t107.5 -1t94 -0.5q138 0 281 3v-112h-35q-26 0 -47 -2.5t-37 -11.5t-24.5 -27t-8.5 -50v-49h218q141 0 241 -29.5t163.5 -81.5t93 -123t29.5 -155q0 -86 -25.5 -157.5t-89 -123t-172.5 -80t-276 -28.5h-182v-51q0 -36 5.5 -59t19 -35.5
t36.5 -17t58 -4.5h35v-111h-68t-68 0.5t-74.5 1t-86.5 0.5q-53 0 -97.5 -0.5t-85 -0.5t-78.5 -0.5t-78 -0.5v111h39q42 0 66 11.5t35 32t13.5 47.5t2.5 57q0 20 -1 41.5t-1 42.5v716q0 28 -4.5 53t-15 43.5t-28.5 29.5t-46 11h-60v112zM555 458h158q134 0 194.5 55t60.5 158
q0 102 -63 152t-207 50h-143v-415z" />
    <glyph glyph-name="germandbls" unicode="&#xdf;" horiz-adv-x="1337" 
d="M960 742q1 -1 1.5 -1t1.5 -1q146 -24 224 -114.5t78 -242.5q0 -89 -25.5 -163.5t-76.5 -128.5t-128.5 -84t-181.5 -30q-29 0 -61 4.5t-64 14.5v137q11 -1 23.5 -0.5t24.5 2.5q37 5 69 20.5t55.5 44.5t36.5 73.5t13 109.5q0 74 -13.5 125t-45 84t-83 50.5t-127.5 23.5v135
q99 4 143 53t44 145q0 89 -52 138t-137 49q-103 0 -151.5 -64.5t-48.5 -201.5v-666q0 -27 3.5 -44.5t16 -27.5t36 -14t63.5 -4v-164q-33 0 -64.5 0.5t-64.5 0.5t-69.5 0.5t-79.5 0.5q-83 0 -147.5 -1t-130.5 -1v164q48 0 75 1.5t39.5 11t15 29.5t2.5 57v613q0 116 28 202.5
t89.5 143.5t159.5 85t238 28q112 0 201 -20.5t151.5 -61t96 -101.5t33.5 -143q0 -103 -54 -170t-157 -97z" />
    <glyph glyph-name="agrave" unicode="&#xe0;" horiz-adv-x="1203" 
d="M1050 272q0 -41 2.5 -64t11 -33.5t23.5 -12.5t41 -2h48v-160h-35t-59 0.5t-61.5 0.5h-41.5q-28 0 -51 -0.5t-44.5 -1t-44.5 -1t-51 -1.5l-30 130q-22 -35 -52 -62.5t-72 -47t-97 -30t-126 -10.5q-86 0 -151.5 22.5t-109 60.5t-65.5 89.5t-22 109.5q0 67 29.5 121t85 91.5
t134.5 58t179 20.5q65 0 130 -7.5t123 -22.5v115q0 76 -52.5 121t-162.5 45q-182 0 -217 -145l-165 15l6 200q15 7 49 18t86 21.5t120 18t151 7.5q130 0 223 -18.5t152.5 -58.5t87.5 -103.5t28 -154.5v-329zM578 446q-105 0 -163 -43t-58 -121q0 -37 13 -59.5t35.5 -43
t54 -31.5t67.5 -11q49 0 89 13t68.5 38.5t44 55.5t15.5 77v103q-42 12 -83 17t-83 5zM858 1048h-139q-10 9 -41.5 33t-73 54.5t-87 65t-84 65.5t-63.5 54t-26 32q0 4 15 13t38.5 18.5t53 17t59.5 7.5q34 0 64.5 -10t47.5 -33z" />
    <glyph glyph-name="aacute" unicode="&#xe1;" horiz-adv-x="1203" 
d="M1050 272q0 -41 2.5 -64t11 -33.5t23.5 -12.5t41 -2h48v-160h-35t-59 0.5t-61.5 0.5h-41.5q-28 0 -51 -0.5t-44.5 -1t-44.5 -1t-51 -1.5l-30 130q-22 -35 -52 -62.5t-72 -47t-97 -30t-126 -10.5q-86 0 -151.5 22.5t-109 60.5t-65.5 89.5t-22 109.5q0 67 29.5 121t85 91.5
t134.5 58t179 20.5q65 0 130 -7.5t123 -22.5v115q0 76 -52.5 121t-162.5 45q-182 0 -217 -145l-165 15l6 200q15 7 49 18t86 21.5t120 18t151 7.5q130 0 223 -18.5t152.5 -58.5t87.5 -103.5t28 -154.5v-329zM578 446q-105 0 -163 -43t-58 -121q0 -37 13 -59.5t35.5 -43
t54 -31.5t67.5 -11q49 0 89 13t68.5 38.5t44 55.5t15.5 77v103q-42 12 -83 17t-83 5zM562 1338q23 31 58 49t73 18q31 0 61 -8.5t53 -19.5t34.5 -22.5t5.5 -17.5l-362 -289h-139z" />
    <glyph glyph-name="acircumflex" unicode="&#xe2;" horiz-adv-x="1203" 
d="M1050 272q0 -41 2.5 -64t11 -33.5t23.5 -12.5t41 -2h48v-160h-35t-59 0.5t-61.5 0.5h-41.5q-28 0 -51 -0.5t-44.5 -1t-44.5 -1t-51 -1.5l-30 130q-22 -35 -52 -62.5t-72 -47t-97 -30t-126 -10.5q-86 0 -151.5 22.5t-109 60.5t-65.5 89.5t-22 109.5q0 67 29.5 121t85 91.5
t134.5 58t179 20.5q65 0 130 -7.5t123 -22.5v115q0 76 -52.5 121t-162.5 45q-182 0 -217 -145l-165 15l6 200q15 7 49 18t86 21.5t120 18t151 7.5q130 0 223 -18.5t152.5 -58.5t87.5 -103.5t28 -154.5v-329zM578 446q-105 0 -163 -43t-58 -121q0 -37 13 -59.5t35.5 -43
t54 -31.5t67.5 -11q49 0 89 13t68.5 38.5t44 55.5t15.5 77v103q-42 12 -83 17t-83 5zM728 1390l221 -337h-154l-194 165l-196 -165h-152l219 337h256z" />
    <glyph glyph-name="atilde" unicode="&#xe3;" horiz-adv-x="1203" 
d="M1050 272q0 -41 2.5 -64t11 -33.5t23.5 -12.5t41 -2h48v-160h-35t-59 0.5t-61.5 0.5h-41.5q-28 0 -51 -0.5t-44.5 -1t-44.5 -1t-51 -1.5l-30 130q-22 -35 -52 -62.5t-72 -47t-97 -30t-126 -10.5q-86 0 -151.5 22.5t-109 60.5t-65.5 89.5t-22 109.5q0 67 29.5 121t85 91.5
t134.5 58t179 20.5q65 0 130 -7.5t123 -22.5v115q0 76 -52.5 121t-162.5 45q-182 0 -217 -145l-165 15l6 200q15 7 49 18t86 21.5t120 18t151 7.5q130 0 223 -18.5t152.5 -58.5t87.5 -103.5t28 -154.5v-329zM578 446q-105 0 -163 -43t-58 -121q0 -37 13 -59.5t35.5 -43
t54 -31.5t67.5 -11q49 0 89 13t68.5 38.5t44 55.5t15.5 77v103q-42 12 -83 17t-83 5zM951 1359q-15 -121 -73.5 -189t-155.5 -68q-35 0 -68 10t-64.5 22.5t-61.5 22.5t-58 10q-38 0 -62 -23t-38 -63h-118q20 128 77 193t152 65q34 0 67 -10t65 -22t63 -22t62 -10
q37 0 58.5 19.5t37.5 64.5h117z" />
    <glyph glyph-name="adieresis" unicode="&#xe4;" horiz-adv-x="1203" 
d="M1050 272q0 -41 2.5 -64t11 -33.5t23.5 -12.5t41 -2h48v-160h-35t-59 0.5t-61.5 0.5h-41.5q-28 0 -51 -0.5t-44.5 -1t-44.5 -1t-51 -1.5l-30 130q-22 -35 -52 -62.5t-72 -47t-97 -30t-126 -10.5q-86 0 -151.5 22.5t-109 60.5t-65.5 89.5t-22 109.5q0 67 29.5 121t85 91.5
t134.5 58t179 20.5q65 0 130 -7.5t123 -22.5v115q0 76 -52.5 121t-162.5 45q-182 0 -217 -145l-165 15l6 200q15 7 49 18t86 21.5t120 18t151 7.5q130 0 223 -18.5t152.5 -58.5t87.5 -103.5t28 -154.5v-329zM578 446q-105 0 -163 -43t-58 -121q0 -37 13 -59.5t35.5 -43
t54 -31.5t67.5 -11q49 0 89 13t68.5 38.5t44 55.5t15.5 77v103q-42 12 -83 17t-83 5zM830 1359q28 0 51.5 -9.5t40.5 -27t27 -41t10 -50.5q0 -28 -9.5 -51.5t-27 -41t-41 -27t-51.5 -9.5q-29 0 -53 10t-41 27t-27 41t-10 51t10 50.5t27.5 40.5t41.5 27t52 10zM374 1359
q27 0 51 -9.5t41 -26.5t27 -40.5t10 -51.5q0 -57 -36.5 -93t-93.5 -36q-29 0 -53 9.5t-41 27t-27 41t-10 51.5q0 27 10 50.5t28 41t42 27t52 9.5z" />
    <glyph glyph-name="aring" unicode="&#xe5;" horiz-adv-x="1203" 
d="M1050 272q0 -41 2.5 -64t11 -33.5t23.5 -12.5t41 -2h48v-160h-35t-59 0.5t-61.5 0.5h-41.5q-28 0 -51 -0.5t-44.5 -1t-44.5 -1t-51 -1.5l-30 130q-22 -35 -52 -62.5t-72 -47t-97 -30t-126 -10.5q-86 0 -151.5 22.5t-109 60.5t-65.5 89.5t-22 109.5q0 67 29.5 121t85 91.5
t134.5 58t179 20.5q65 0 130 -7.5t123 -22.5v115q0 76 -52.5 121t-162.5 45q-182 0 -217 -145l-165 15l6 200q15 7 49 18t86 21.5t120 18t151 7.5q130 0 223 -18.5t152.5 -58.5t87.5 -103.5t28 -154.5v-329zM578 446q-105 0 -163 -43t-58 -121q0 -37 13 -59.5t35.5 -43
t54 -31.5t67.5 -11q49 0 89 13t68.5 38.5t44 55.5t15.5 77v103q-42 12 -83 17t-83 5zM601 1480q50 0 93.5 -18t75.5 -48.5t50.5 -71t18.5 -86.5q0 -48 -19 -89.5t-51.5 -72t-75.5 -48t-92 -17.5q-50 0 -93.5 18t-75.5 48.5t-50.5 72t-18.5 88.5t18.5 88t50.5 71t75.5 47.5
t93.5 17.5zM601 1378q-26 0 -49 -10t-40 -26.5t-26.5 -38.5t-9.5 -47q0 -26 9.5 -49t26.5 -39.5t40 -26t49 -9.5t48.5 9.5t39.5 26.5t26.5 39.5t9.5 48.5q0 25 -10 47.5t-26.5 39t-39.5 26t-48 9.5z" />
    <glyph glyph-name="ae" unicode="&#xe6;" horiz-adv-x="1865" 
d="M852 152q-83 -96 -188 -137.5t-238 -41.5q-80 0 -146 20t-113 57t-72.5 89t-25.5 117q0 66 30 119t86 90.5t134.5 58t176.5 20.5q63 0 129 -7t127 -20v101q-2 49 -13.5 84.5t-36.5 58.5t-65 34.5t-98 11.5q-103 0 -155.5 -36t-61.5 -114l-201 13l16 199q177 67 432 67
q128 0 222.5 -31t148.5 -94q60 57 149.5 91t190.5 34q126 0 221.5 -34.5t159.5 -100.5t96.5 -161.5t32.5 -216.5l-60 -9h-668q2 -142 66.5 -221t190.5 -79q162 0 216 157l236 -19q-39 -137 -161 -209.5t-312 -72.5q-300 0 -446 182zM752 413q-42 9 -87.5 15t-88.5 6
q-99 0 -156 -43t-57 -123q0 -35 12.5 -65t35 -51.5t53.5 -34t69 -13.5q106 0 162.5 55.5t56.5 175.5v78zM1500 516v18t-1 18q-8 115 -61 179t-150 64q-104 0 -160.5 -73t-65.5 -206h438z" />
    <glyph glyph-name="ccedilla" unicode="&#xe7;" horiz-adv-x="1129" 
d="M1021 561h-174q-14 111 -69.5 163.5t-144.5 52.5q-57 0 -101.5 -23.5t-75 -66.5t-46 -103.5t-15.5 -133.5q0 -75 16.5 -129.5t48 -96.5t76.5 -64.5t103 -22.5q86 0 137 49t66 129l213 -27q-14 -76 -52 -135t-96.5 -96t-136 -58.5t-170.5 -21.5q-118 0 -214 34t-163.5 93
t-104.5 147t-37 197q0 105 37.5 193t101.5 151.5t149.5 99t182.5 35.5q75 0 146.5 -20.5t128.5 -71.5l12 75q18 -1 41.5 -2t48 -2t48.5 -2.5t44 -3.5v-339zM585 -3l-3 -74q4 1 11 1h13q45 0 81.5 -13t62.5 -36t40 -56t14 -72q0 -43 -18 -76.5t-51 -56.5t-80 -35t-104 -13
q-45 0 -102 10.5t-124 39.5l26 91q38 -16 77.5 -24.5t71.5 -8.5q104 0 104 79q0 36 -25.5 52.5t-68.5 17.5q-8 0 -15.5 -1t-15.5 -3l10 178h96z" />
    <glyph glyph-name="egrave" unicode="&#xe8;" horiz-adv-x="1198" 
d="M1068 415h-680q1 -143 70 -210.5t189 -67.5q85 0 143.5 39t83.5 94l228 -18q-40 -137 -164.5 -206t-313.5 -69q-138 0 -240 36t-170 97t-101.5 149t-33.5 192q0 111 37.5 201t106.5 153t166 97t216 34q115 0 210 -32.5t163 -97t106 -160.5t38 -223zM836 545v7
q0 3 -0.5 6.5t-0.5 7.5q-9 106 -66 164.5t-150 58.5q-103 0 -161.5 -65t-66.5 -178h445v-1zM856 1048h-139q-10 9 -41.5 33t-73 54.5t-87 65t-84 65.5t-63.5 54t-26 32q0 4 15 13t38.5 18.5t53 17t59.5 7.5q34 0 64.5 -10t47.5 -33z" />
    <glyph glyph-name="eacute" unicode="&#xe9;" horiz-adv-x="1198" 
d="M560 1338q23 31 58 49t73 18q31 0 61 -8.5t53 -19.5t34.5 -22.5t5.5 -17.5l-362 -289h-139zM1068 415h-680q1 -143 70 -210.5t189 -67.5q85 0 143.5 39t83.5 94l228 -18q-40 -137 -164.5 -206t-313.5 -69q-138 0 -240 36t-170 97t-101.5 149t-33.5 192q0 111 37.5 201
t106.5 153t166 97t216 34q115 0 210 -32.5t163 -97t106 -160.5t38 -223zM836 545v7q0 3 -0.5 6.5t-0.5 7.5q-9 106 -66 164.5t-150 58.5q-103 0 -161.5 -65t-66.5 -178h445v-1z" />
    <glyph glyph-name="ecircumflex" unicode="&#xea;" horiz-adv-x="1198" 
d="M726 1390l221 -337h-154l-194 165l-196 -165h-152l219 337h256zM1068 415h-680q1 -143 70 -210.5t189 -67.5q85 0 143.5 39t83.5 94l228 -18q-40 -137 -164.5 -206t-313.5 -69q-138 0 -240 36t-170 97t-101.5 149t-33.5 192q0 111 37.5 201t106.5 153t166 97t216 34
q115 0 210 -32.5t163 -97t106 -160.5t38 -223zM836 545v7q0 3 -0.5 6.5t-0.5 7.5q-9 106 -66 164.5t-150 58.5q-103 0 -161.5 -65t-66.5 -178h445v-1z" />
    <glyph glyph-name="edieresis" unicode="&#xeb;" horiz-adv-x="1198" 
d="M828 1359q28 0 51.5 -9.5t40.5 -27t27 -41t10 -50.5q0 -28 -9.5 -51.5t-27 -41t-41 -27t-51.5 -9.5q-29 0 -53 10t-41 27t-27 41t-10 51t10 50.5t27.5 40.5t41.5 27t52 10zM372 1359q27 0 51 -9.5t41 -26.5t27 -40.5t10 -51.5q0 -57 -36.5 -93t-93.5 -36q-29 0 -53 9.5
t-41 27t-27 41t-10 51.5q0 27 10 50.5t28 41t42 27t52 9.5zM1068 415h-680q1 -143 70 -210.5t189 -67.5q85 0 143.5 39t83.5 94l228 -18q-40 -137 -164.5 -206t-313.5 -69q-138 0 -240 36t-170 97t-101.5 149t-33.5 192q0 111 37.5 201t106.5 153t166 97t216 34
q115 0 210 -32.5t163 -97t106 -160.5t38 -223zM836 545v7q0 3 -0.5 6.5t-0.5 7.5q-9 106 -66 164.5t-150 58.5q-103 0 -161.5 -65t-66.5 -178h445v-1z" />
    <glyph glyph-name="igrave" unicode="&#xec;" horiz-adv-x="655" 
d="M486 254q0 -31 4.5 -49t17 -27.5t35.5 -12.5t60 -3v-162q-34 0 -75.5 0.5t-84 0.5t-82 0.5t-69.5 0.5q-36 0 -67 -0.5t-59 -0.5t-55 -0.5t-55 -0.5v162q42 0 66.5 2.5t37.5 12t17 27.5t4 50v438q0 21 -7 32t-22 16.5t-37.5 6.5t-53.5 1q0 41 0.5 80t0.5 80q42 0 80 -0.5
t74 -0.5q65 0 132.5 1t137.5 4v-658zM588 1048h-139q-10 9 -41.5 33t-73 54.5t-87 65t-84 65.5t-63.5 54t-26 32q0 4 15 13t38.5 18.5t53 17t59.5 7.5q34 0 64.5 -10t47.5 -33z" />
    <glyph glyph-name="iacute" unicode="&#xed;" horiz-adv-x="655" 
d="M293 1338q23 31 58 49t73 18q31 0 61 -8.5t53 -19.5t34.5 -22.5t5.5 -17.5l-362 -289h-139zM486 254q0 -31 4.5 -49t17 -27.5t35.5 -12.5t60 -3v-162q-34 0 -75.5 0.5t-84 0.5t-82 0.5t-69.5 0.5q-36 0 -67 -0.5t-59 -0.5t-55 -0.5t-55 -0.5v162q42 0 66.5 2.5t37.5 12
t17 27.5t4 50v438q0 21 -7 32t-22 16.5t-37.5 6.5t-53.5 1q0 41 0.5 80t0.5 80q42 0 80 -0.5t74 -0.5q65 0 132.5 1t137.5 4v-658z" />
    <glyph glyph-name="icircumflex" unicode="&#xee;" horiz-adv-x="655" 
d="M459 1390l221 -337h-154l-194 165l-196 -165h-152l219 337h256zM486 254q0 -31 4.5 -49t17 -27.5t35.5 -12.5t60 -3v-162q-34 0 -75.5 0.5t-84 0.5t-82 0.5t-69.5 0.5q-36 0 -67 -0.5t-59 -0.5t-55 -0.5t-55 -0.5v162q42 0 66.5 2.5t37.5 12t17 27.5t4 50v438q0 21 -7 32
t-22 16.5t-37.5 6.5t-53.5 1q0 41 0.5 80t0.5 80q42 0 80 -0.5t74 -0.5q65 0 132.5 1t137.5 4v-658z" />
    <glyph glyph-name="idieresis" unicode="&#xef;" horiz-adv-x="655" 
d="M561 1359q28 0 51.5 -9.5t40.5 -27t27 -41t10 -50.5q0 -28 -9.5 -51.5t-27 -41t-41 -27t-51.5 -9.5q-29 0 -53 10t-41 27t-27 41t-10 51t10 50.5t27.5 40.5t41.5 27t52 10zM105 1359q27 0 51 -9.5t41 -26.5t27 -40.5t10 -51.5q0 -57 -36.5 -93t-93.5 -36q-29 0 -53 9.5
t-41 27t-27 41t-10 51.5q0 27 10 50.5t28 41t42 27t52 9.5zM486 254q0 -31 4.5 -49t17 -27.5t35.5 -12.5t60 -3v-162q-34 0 -75.5 0.5t-84 0.5t-82 0.5t-69.5 0.5q-36 0 -67 -0.5t-59 -0.5t-55 -0.5t-55 -0.5v162q42 0 66.5 2.5t37.5 12t17 27.5t4 50v438q0 21 -7 32
t-22 16.5t-37.5 6.5t-53.5 1q0 41 0.5 80t0.5 80q42 0 80 -0.5t74 -0.5q65 0 132.5 1t137.5 4v-658z" />
    <glyph glyph-name="eth" unicode="&#xf0;" horiz-adv-x="1267" 
d="M766 887q-22 55 -56.5 109t-82.5 101l-265 -106l-75 70l272 105q-72 66 -161 131l210 39q48 -17 91 -41.5t78 -50.5l236 93l74 -70l-234 -89q67 -67 126 -142t103.5 -156.5t70.5 -168.5t26 -177q0 -138 -36 -243t-105 -176.5t-170 -108t-231 -36.5q-125 0 -227.5 33.5
t-175 96.5t-112 153.5t-39.5 204.5q0 106 36 194t101 151t155 98t197 35q55 0 104.5 -14t87.5 -37zM396 450q0 -72 16 -130t46 -98.5t73.5 -62.5t99.5 -22q113 0 174.5 85t61.5 240q0 70 -15.5 127t-45 97.5t-73 62.5t-100.5 22q-115 0 -176 -84.5t-61 -236.5z" />
    <glyph glyph-name="ntilde" unicode="&#xf1;" horiz-adv-x="1341" 
d="M42 0v14.5v29.5t-0.5 37t-0.5 37v29v15q43 0 70 2t42 10t20.5 24t5.5 45v454q0 19 -8 29.5t-24.5 15t-41.5 5.5t-58 1v160q43 0 82 -0.5t75 -0.5q69 0 134 1t137 4v-150q28 33 65 62.5t82 52t98 36t113 15.5q85 0 149.5 -21t108 -66t65.5 -116t22 -170v-333q0 -25 8 -37
t23.5 -17t38.5 -5.5t53 -0.5v-162h-60t-60 0.5t-66 1t-77 0.5q-78 0 -147.5 -1t-138.5 -1v162q45 0 69.5 2.5t35.5 10.5t13 23t2 40v274q0 55 -8 97t-27 70t-51 42.5t-79 14.5q-40 0 -72.5 -8.5t-58 -22t-44.5 -31.5t-32 -36q-11 -32 -13.5 -70.5t-2.5 -83.5v-246
q0 -29 8 -44t25 -22t44 -8.5t65 -1.5v-162h-71t-70.5 0.5t-77 1t-89.5 0.5q-83 0 -147.5 -1t-128.5 -1zM1019 1359q-15 -121 -73.5 -189t-155.5 -68q-35 0 -68 10t-64.5 22.5t-61.5 22.5t-58 10q-38 0 -62 -23t-38 -63h-118q20 128 77 193t152 65q34 0 67 -10t65 -22t63 -22
t62 -10q37 0 58.5 19.5t37.5 64.5h117z" />
    <glyph glyph-name="ograve" unicode="&#xf2;" horiz-adv-x="1256" 
d="M628 936q111 0 211 -31t175 -92t119 -151.5t44 -208.5q0 -115 -43 -205t-117 -148t-174 -90.5t-215 -32.5q-116 0 -216 32t-174.5 90t-117 148t-42.5 206q0 114 42 204t116 152t174.5 94.5t217.5 32.5zM629 771q-114 0 -176 -84t-62 -233q0 -150 61 -233.5t174 -83.5
q56 0 100 22t75 63t47 101t16 135q0 73 -16 131t-46 98.5t-74 62t-99 21.5zM885 1048h-139q-10 9 -41.5 33t-73 54.5t-87 65t-84 65.5t-63.5 54t-26 32q0 4 15 13t38.5 18.5t53 17t59.5 7.5q34 0 64.5 -10t47.5 -33z" />
    <glyph glyph-name="oacute" unicode="&#xf3;" horiz-adv-x="1256" 
d="M589 1338q23 31 58 49t73 18q31 0 61 -8.5t53 -19.5t34.5 -22.5t5.5 -17.5l-362 -289h-139zM628 936q111 0 211 -31t175 -92t119 -151.5t44 -208.5q0 -115 -43 -205t-117 -148t-174 -90.5t-215 -32.5q-116 0 -216 32t-174.5 90t-117 148t-42.5 206q0 114 42 204t116 152
t174.5 94.5t217.5 32.5zM629 771q-114 0 -176 -84t-62 -233q0 -150 61 -233.5t174 -83.5q56 0 100 22t75 63t47 101t16 135q0 73 -16 131t-46 98.5t-74 62t-99 21.5z" />
    <glyph glyph-name="ocircumflex" unicode="&#xf4;" horiz-adv-x="1256" 
d="M755 1390l221 -337h-154l-194 165l-196 -165h-152l219 337h256zM628 936q111 0 211 -31t175 -92t119 -151.5t44 -208.5q0 -115 -43 -205t-117 -148t-174 -90.5t-215 -32.5q-116 0 -216 32t-174.5 90t-117 148t-42.5 206q0 114 42 204t116 152t174.5 94.5t217.5 32.5z
M629 771q-114 0 -176 -84t-62 -233q0 -150 61 -233.5t174 -83.5q56 0 100 22t75 63t47 101t16 135q0 73 -16 131t-46 98.5t-74 62t-99 21.5z" />
    <glyph glyph-name="otilde" unicode="&#xf5;" horiz-adv-x="1256" 
d="M628 936q111 0 211 -31t175 -92t119 -151.5t44 -208.5q0 -115 -43 -205t-117 -148t-174 -90.5t-215 -32.5q-116 0 -216 32t-174.5 90t-117 148t-42.5 206q0 114 42 204t116 152t174.5 94.5t217.5 32.5zM629 771q-114 0 -176 -84t-62 -233q0 -150 61 -233.5t174 -83.5
q56 0 100 22t75 63t47 101t16 135q0 73 -16 131t-46 98.5t-74 62t-99 21.5zM977 1359q-15 -121 -73.5 -189t-155.5 -68q-35 0 -68 10t-64.5 22.5t-61.5 22.5t-58 10q-38 0 -62 -23t-38 -63h-118q20 128 77 193t152 65q34 0 67 -10t65 -22t63 -22t62 -10q37 0 58.5 19.5
t37.5 64.5h117z" />
    <glyph glyph-name="odieresis" unicode="&#xf6;" horiz-adv-x="1256" 
d="M857 1359q28 0 51.5 -9.5t40.5 -27t27 -41t10 -50.5q0 -28 -9.5 -51.5t-27 -41t-41 -27t-51.5 -9.5q-29 0 -53 10t-41 27t-27 41t-10 51t10 50.5t27.5 40.5t41.5 27t52 10zM401 1359q27 0 51 -9.5t41 -26.5t27 -40.5t10 -51.5q0 -57 -36.5 -93t-93.5 -36q-29 0 -53 9.5
t-41 27t-27 41t-10 51.5q0 27 10 50.5t28 41t42 27t52 9.5zM628 936q111 0 211 -31t175 -92t119 -151.5t44 -208.5q0 -115 -43 -205t-117 -148t-174 -90.5t-215 -32.5q-116 0 -216 32t-174.5 90t-117 148t-42.5 206q0 114 42 204t116 152t174.5 94.5t217.5 32.5zM629 771
q-114 0 -176 -84t-62 -233q0 -150 61 -233.5t174 -83.5q56 0 100 22t75 63t47 101t16 135q0 73 -16 131t-46 98.5t-74 62t-99 21.5z" />
    <glyph glyph-name="divide" unicode="&#xf7;" horiz-adv-x="1537" 
d="M769 1164q29 0 54 -11t43 -30t28.5 -43.5t10.5 -52.5q0 -29 -10.5 -53.5t-29 -42.5t-43.5 -28.5t-53 -10.5q-29 0 -54.5 10.5t-44 29t-29 43t-10.5 52.5t11 53t29.5 43.5t43.5 29.5t54 11zM1348 541h-1161v196h1161v-196zM769 385q28 0 53 -11t43.5 -30t29 -44t10.5 -52
q0 -28 -10.5 -52.5t-29 -43t-43.5 -29t-53 -10.5q-29 0 -54.5 10.5t-44 29t-29 43t-10.5 52.5q0 29 11 54t30 43.5t44 29t53 10.5z" />
    <glyph glyph-name="oslash" unicode="&#xf8;" horiz-adv-x="1256" 
d="M1142 974l-130 -159q80 -66 122.5 -156t42.5 -206q0 -110 -39 -199t-110 -152t-172 -97.5t-224 -34.5q-164 0 -299 64l-116 -140l-107 32l131 164q-80 67 -121 158.5t-41 206.5q0 108 38.5 197t109.5 152t172 97.5t227 34.5q83 0 155 -16t141 -48l114 133zM781 718
q-29 29 -67.5 43t-83.5 14q-56 0 -101 -21t-76 -61.5t-47.5 -98.5t-16.5 -131q0 -48 7 -90t24 -87zM475 188q29 -28 68.5 -41t83.5 -13q57 0 101.5 23.5t75.5 67.5t47 106.5t16 141.5q-3 44 -10.5 80t-21.5 68z" />
    <glyph glyph-name="ugrave" unicode="&#xf9;" horiz-adv-x="1336" 
d="M477 -20q-85 0 -144 27.5t-95.5 82.5t-52.5 140t-16 199v245q0 28 -5.5 43t-19.5 21.5t-38.5 7.5t-62.5 1v160h42.5t53.5 -0.5t48.5 -0.5h28.5q66 1 129.5 2t129.5 3v-522q0 -55 7 -98t24.5 -72t47.5 -44.5t76 -15.5q85 0 138.5 27t79.5 70q11 30 12.5 65.5t1.5 74.5v259
q0 35 -5.5 53.5t-20.5 27t-41.5 10t-69.5 1.5v160q48 -1 95 -1h107q62 1 121 2t119 3v-688q0 -20 5.5 -32.5t19.5 -19.5t38 -9t61 -2v-160q-47 0 -83.5 0.5t-74.5 0.5q-66 -1 -131 -1.5t-131 -2.5v140q-67 -80 -169 -118.5t-225 -38.5zM925 1048h-139q-10 9 -41.5 33
t-73 54.5t-87 65t-84 65.5t-63.5 54t-26 32q0 4 15 13t38.5 18.5t53 17t59.5 7.5q34 0 64.5 -10t47.5 -33z" />
    <glyph glyph-name="uacute" unicode="&#xfa;" horiz-adv-x="1336" 
d="M629 1338q23 31 58 49t73 18q31 0 61 -8.5t53 -19.5t34.5 -22.5t5.5 -17.5l-362 -289h-139zM477 -20q-85 0 -144 27.5t-95.5 82.5t-52.5 140t-16 199v245q0 28 -5.5 43t-19.5 21.5t-38.5 7.5t-62.5 1v160h42.5t53.5 -0.5t48.5 -0.5h28.5q66 1 129.5 2t129.5 3v-522
q0 -55 7 -98t24.5 -72t47.5 -44.5t76 -15.5q85 0 138.5 27t79.5 70q11 30 12.5 65.5t1.5 74.5v259q0 35 -5.5 53.5t-20.5 27t-41.5 10t-69.5 1.5v160q48 -1 95 -1h107q62 1 121 2t119 3v-688q0 -20 5.5 -32.5t19.5 -19.5t38 -9t61 -2v-160q-47 0 -83.5 0.5t-74.5 0.5
q-66 -1 -131 -1.5t-131 -2.5v140q-67 -80 -169 -118.5t-225 -38.5z" />
    <glyph glyph-name="ucircumflex" unicode="&#xfb;" horiz-adv-x="1336" 
d="M795 1390l221 -337h-154l-194 165l-196 -165h-152l219 337h256zM477 -20q-85 0 -144 27.5t-95.5 82.5t-52.5 140t-16 199v245q0 28 -5.5 43t-19.5 21.5t-38.5 7.5t-62.5 1v160h42.5t53.5 -0.5t48.5 -0.5h28.5q66 1 129.5 2t129.5 3v-522q0 -55 7 -98t24.5 -72t47.5 -44.5
t76 -15.5q85 0 138.5 27t79.5 70q11 30 12.5 65.5t1.5 74.5v259q0 35 -5.5 53.5t-20.5 27t-41.5 10t-69.5 1.5v160q48 -1 95 -1h107q62 1 121 2t119 3v-688q0 -20 5.5 -32.5t19.5 -19.5t38 -9t61 -2v-160q-47 0 -83.5 0.5t-74.5 0.5q-66 -1 -131 -1.5t-131 -2.5v140
q-67 -80 -169 -118.5t-225 -38.5z" />
    <glyph glyph-name="udieresis" unicode="&#xfc;" horiz-adv-x="1336" 
d="M897 1359q28 0 51.5 -9.5t40.5 -27t27 -41t10 -50.5q0 -28 -9.5 -51.5t-27 -41t-41 -27t-51.5 -9.5q-29 0 -53 10t-41 27t-27 41t-10 51t10 50.5t27.5 40.5t41.5 27t52 10zM441 1359q27 0 51 -9.5t41 -26.5t27 -40.5t10 -51.5q0 -57 -36.5 -93t-93.5 -36q-29 0 -53 9.5
t-41 27t-27 41t-10 51.5q0 27 10 50.5t28 41t42 27t52 9.5zM477 -20q-85 0 -144 27.5t-95.5 82.5t-52.5 140t-16 199v245q0 28 -5.5 43t-19.5 21.5t-38.5 7.5t-62.5 1v160h42.5t53.5 -0.5t48.5 -0.5h28.5q66 1 129.5 2t129.5 3v-522q0 -55 7 -98t24.5 -72t47.5 -44.5
t76 -15.5q85 0 138.5 27t79.5 70q11 30 12.5 65.5t1.5 74.5v259q0 35 -5.5 53.5t-20.5 27t-41.5 10t-69.5 1.5v160q48 -1 95 -1h107q62 1 121 2t119 3v-688q0 -20 5.5 -32.5t19.5 -19.5t38 -9t61 -2v-160q-47 0 -83.5 0.5t-74.5 0.5q-66 -1 -131 -1.5t-131 -2.5v140
q-67 -80 -169 -118.5t-225 -38.5z" />
    <glyph glyph-name="yacute" unicode="&#xfd;" horiz-adv-x="1140" 
d="M-16 908q74 0 137.5 -1t113.5 -1q66 0 138 0.5t164 1.5v-162q-16 -2 -32.5 -1.5t-30.5 -0.5q-29 -3 -45 -12t-20 -31q3 -15 9 -32t14 -34.5t16.5 -34.5t14.5 -31l153 -350q12 29 31.5 76t43 103.5t48.5 119t48 121.5q16 39 21 66q-6 23 -31.5 32t-89.5 9v162
q67 -1 118 -1.5t103 -0.5q56 0 115 0.5t132 1.5v-28.5v-53t0.5 -53t1.5 -27.5q-42 -1 -66 -6t-39 -17t-26.5 -33.5t-29.5 -54.5q-12 -28 -39.5 -88t-63 -136t-74.5 -160.5t-74.5 -161t-63 -136.5t-39.5 -88q-37 -79 -70.5 -132t-71.5 -85.5t-85 -46.5t-110 -14h-49t-49 -1
v169h38.5t32.5 1q39 1 64.5 10t46 30.5t39.5 58t45 93.5q-87 188 -157 338q-30 64 -58.5 125.5t-51.5 111t-37.5 81t-16.5 35.5q-15 32 -26 51t-27 29t-42.5 12.5t-72.5 0.5v176zM531 1338q23 31 58 49t73 18q31 0 61 -8.5t53 -19.5t34.5 -22.5t5.5 -17.5l-362 -289h-139z
" />
    <glyph glyph-name="thorn" unicode="&#xfe;" horiz-adv-x="1330" 
d="M465 803q58 59 140 93t180 34q102 0 186.5 -34t145 -96t94.5 -149t34 -192q0 -111 -33.5 -200.5t-95 -152.5t-147.5 -97t-190 -34q-96 0 -175.5 31t-138.5 93l-1 -247q0 -32 2.5 -53t10.5 -35q10 -10 27.5 -13.5t48.5 -3.5h54v-161q-32 0 -73.5 0.5t-85.5 0.5h-87.5
h-78.5h-61.5h-69.5t-66.5 -0.5t-53.5 -0.5v161q32 1 60.5 4.5t52.5 6.5q4 6 7 25.5t4.5 44.5t2 51t0.5 45v1063q0 53 -5.5 95t-20.5 57q-16 8 -39.5 8.5t-55.5 0.5v161q14 -1 28.5 -1h29.5h97q66 0 133.5 1.5t138.5 3.5zM693 754q-56 0 -100.5 -20.5t-75 -59t-47 -94
t-16.5 -125.5q0 -72 16 -129t47 -97t75 -61t101 -21q55 0 99.5 19.5t76 58.5t49 97t17.5 135q0 140 -63 218.5t-179 78.5z" />
    <glyph glyph-name="ydieresis" unicode="&#xff;" horiz-adv-x="1140" 
d="M-16 908q74 0 137.5 -1t113.5 -1q66 0 138 0.5t164 1.5v-162q-16 -2 -32.5 -1.5t-30.5 -0.5q-29 -3 -45 -12t-20 -31q3 -15 9 -32t14 -34.5t16.5 -34.5t14.5 -31l153 -350q12 29 31.5 76t43 103.5t48.5 119t48 121.5q16 39 21 66q-6 23 -31.5 32t-89.5 9v162
q67 -1 118 -1.5t103 -0.5q56 0 115 0.5t132 1.5v-28.5v-53t0.5 -53t1.5 -27.5q-42 -1 -66 -6t-39 -17t-26.5 -33.5t-29.5 -54.5q-12 -28 -39.5 -88t-63 -136t-74.5 -160.5t-74.5 -161t-63 -136.5t-39.5 -88q-37 -79 -70.5 -132t-71.5 -85.5t-85 -46.5t-110 -14h-49t-49 -1
v169h38.5t32.5 1q39 1 64.5 10t46 30.5t39.5 58t45 93.5q-87 188 -157 338q-30 64 -58.5 125.5t-51.5 111t-37.5 81t-16.5 35.5q-15 32 -26 51t-27 29t-42.5 12.5t-72.5 0.5v176zM799 1359q28 0 51.5 -9.5t40.5 -27t27 -41t10 -50.5q0 -28 -9.5 -51.5t-27 -41t-41 -27
t-51.5 -9.5q-29 0 -53 10t-41 27t-27 41t-10 51t10 50.5t27.5 40.5t41.5 27t52 10zM343 1359q27 0 51 -9.5t41 -26.5t27 -40.5t10 -51.5q0 -57 -36.5 -93t-93.5 -36q-29 0 -53 9.5t-41 27t-27 41t-10 51.5q0 27 10 50.5t28 41t42 27t52 9.5z" />
    <glyph glyph-name="dotlessi" unicode="&#x131;" horiz-adv-x="655" 
d="M486 254q0 -31 4.5 -49t17 -27.5t35.5 -12.5t60 -3v-162q-34 0 -75.5 0.5t-84 0.5t-82 0.5t-69.5 0.5q-36 0 -67 -0.5t-59 -0.5t-55 -0.5t-55 -0.5v162q42 0 66.5 2.5t37.5 12t17 27.5t4 50v438q0 21 -7 32t-22 16.5t-37.5 6.5t-53.5 1q0 41 0.5 80t0.5 80q42 0 80 -0.5
t74 -0.5q65 0 132.5 1t137.5 4v-658z" />
    <glyph glyph-name="Lslash" unicode="&#x141;" horiz-adv-x="1190" 
d="M66 1308q7 0 35.5 -0.5t64.5 -1t72.5 -1t60.5 -0.5h94t94 0.5t100 1t112 1.5v-178h-65q-34 0 -53 -10t-28.5 -26t-11.5 -36.5t-2 -41.5v-209l274 100v-227l-274 -99v-266q0 -63 1 -118h323q38 0 59.5 16t32 47.5t13.5 77.5t3 106h183v-444h-1088v178h47q36 0 56.5 9
t30 24t11.5 36t2 45v170l-136 -49v227l136 49v339q0 20 -3 38.5t-13 32.5t-30 22.5t-54 8.5h-47v178z" />
    <glyph glyph-name="lslash" unicode="&#x142;" horiz-adv-x="650" 
d="M478 814l173 64v-227l-173 -64v-322q0 -32 5 -52t18.5 -31t37 -15.5t60.5 -4.5v-162h-67t-67.5 0.5t-72.5 1t-81 0.5q-80 0 -141 -1t-123 -1v162q47 0 72.5 6t37.5 20.5t14 38.5t2 60v189l-173 -63v227l173 63v375q0 24 -7.5 38t-23 21t-38 9t-52.5 2v161q10 0 33 -0.5
t47.5 -0.5t45.5 0.5t28 0.5q66 0 132 1t140 3v-499z" />
    <glyph glyph-name="OE" unicode="&#x152;" horiz-adv-x="2148" 
d="M2036 1308v-366h-196v51q0 41 -2.5 64.5t-8.5 35.5t-16 15.5t-25 3.5h-428v-362h257q9 0 16.5 1.5t13.5 10t9.5 27t3.5 52.5h81v-354h-81q0 37 -3 57t-8.5 29t-13 10.5t-15.5 1.5h-260v-388h434q17 0 27 6t16 25.5t8 57t2 100.5h194v-386h-1086q-119 0 -228.5 13
t-204.5 43t-172.5 79t-133 122t-85.5 171.5t-30 227.5q0 165 49 287.5t144 203.5t234.5 121t321.5 40h1186zM891 1112q-122 0 -208.5 -28t-141 -85.5t-80 -144.5t-25.5 -205q0 -125 30.5 -211.5t90.5 -140t148 -77.5t202 -24h127v916h-143z" />
    <glyph glyph-name="oe" unicode="&#x153;" horiz-adv-x="1939" 
d="M994 110q-26 -33 -65.5 -59t-89.5 -44t-108 -27.5t-120 -9.5q-142 0 -242.5 40.5t-164.5 108t-93.5 156t-29.5 183.5q0 117 39.5 206.5t110 149.5t168.5 91t215 31q126 0 226.5 -38.5t157.5 -112.5q63 75 160.5 113t212.5 38q211 0 332.5 -109t157.5 -335
q3 -20 4.5 -39.5t2.5 -37.5h-720v-30q5 -129 68.5 -199.5t179.5 -70.5q161 0 218 154l233 -20q-20 -63 -58.5 -114.5t-97 -88t-137 -56.5t-177.5 -20q-125 0 -220.5 34t-162.5 106zM393 456q0 -152 56.5 -232.5t168.5 -80.5q52 0 93.5 18.5t70.5 56.5t44.5 96.5t15.5 138.5
q0 150 -57 231.5t-165 81.5q-107 0 -167 -78.5t-60 -231.5zM1578 517q-2 63 -15.5 114.5t-39.5 87.5t-64 56t-89 20q-50 0 -89.5 -19.5t-68 -55.5t-45.5 -87.5t-21 -115.5h432z" />
    <glyph glyph-name="Scaron" unicode="&#x160;" horiz-adv-x="1199" 
d="M403 1791l195 -167l196 167h153l-221 -337h-257l-218 337h152zM1064 943h-192q-4 13 -6.5 25t-5.5 24q-17 89 -76 136.5t-179 47.5q-49 0 -88 -12t-66.5 -34t-42.5 -52t-15 -67q0 -57 35 -94t95 -66.5t139 -57t167 -65.5q58 -24 109.5 -56.5t90.5 -76t61.5 -101
t22.5 -131.5q0 -79 -31 -149.5t-88.5 -124t-140.5 -84.5t-187 -31q-50 0 -99.5 8.5t-95 24.5t-85 39t-69.5 52v-98h-219v406h192q6 -26 12 -48q10 -51 29.5 -90.5t52.5 -66.5t81 -41t115 -14q51 0 92.5 12t71.5 34.5t46 56t16 75.5q0 57 -34.5 95.5t-91 67.5t-127.5 53.5
t-144 54.5q-158 65 -234.5 153t-76.5 213q0 79 29.5 147t86 118t137.5 78.5t185 28.5q90 0 177.5 -22t164.5 -83q0 14 -0.5 28t-0.5 26v27h26.5t48 -0.5t58 -0.5h54.5v-365z" />
    <glyph glyph-name="scaron" unicode="&#x161;" horiz-adv-x="1032" 
d="M320 1391l195 -167l196 167h153l-221 -337h-257l-218 337h152zM900 633h-158q-16 73 -75.5 116t-157.5 46q-40 0 -68.5 -8t-46.5 -21.5t-26.5 -31t-8.5 -36.5q0 -24 15 -41.5t43 -32.5t68.5 -28.5t92.5 -28.5q88 -24 155.5 -50.5t114 -61.5t70.5 -81.5t24 -112.5
q0 -75 -32 -128.5t-84.5 -88.5t-119.5 -51t-138 -16q-102 0 -170.5 25.5t-112.5 77.5l-4 -79q-47 0 -91.5 3t-90.5 3v284h181q4 -45 24.5 -79t52.5 -56.5t73 -33.5t87 -11q70 0 115 26t45 71q0 30 -24.5 51.5t-65 39.5t-93 35t-108.5 37q-67 24 -120.5 49t-91 57t-57.5 75
t-20 103q0 62 23.5 112.5t68.5 86t111 55t150 19.5q88 0 164 -22.5t120 -67.5q1 6 3.5 18.5t5.5 25.5q4 15 7 33q30 -3 58 -6q24 -2 49.5 -4t42.5 -4v-268z" />
    <glyph glyph-name="Ydieresis" unicode="&#x178;" horiz-adv-x="1320" 
d="M16 1308q7 0 29 -0.5t50 -1l56 -1t46 -0.5q46 0 89 0.5t90.5 1t101.5 1t121 0.5v-178h-31q-49 0 -70 -7.5t-21 -27.5q3 -6 7.5 -15.5t10 -20.5t10.5 -22t10 -18q6 -12 20.5 -37.5t33 -57.5t39 -67t39 -67t32.5 -57.5t20 -37.5l197 327q15 25 25 44t12 33q-4 16 -24 22
t-62 8q-4 0 -15 0.5t-16 0.5v178q59 -1 112 -1q22 0 45.5 -0.5t44.5 -0.5h38h28h99.5t119.5 2v-178q-33 0 -53 -3.5t-35.5 -13t-29.5 -28t-34 -48.5q-25 -35 -55 -80t-62 -93.5t-64 -98t-60.5 -94t-52 -81t-38.5 -58.5v-262q0 -23 2 -40t12 -28.5t29.5 -17.5t55.5 -6h49
v-178h-72.5t-73.5 0.5t-80 1t-92 0.5q-30 0 -72.5 -0.5t-86 -0.5t-81.5 -0.5t-57 -0.5v178h48q39 0 59 9.5t29 23.5t9.5 29.5t0.5 27.5v266q-15 22 -39.5 60.5t-54 85t-62 97.5t-62 97.5t-54 85t-38.5 61.5q-24 37 -38.5 58t-31 32.5t-39.5 14.5t-62 4q0 44 -0.5 88.5
t-0.5 89.5zM890 1759q28 0 51.5 -9.5t40.5 -27t27 -41t10 -50.5q0 -28 -9.5 -51.5t-27 -41t-41 -27t-51.5 -9.5q-29 0 -53 10t-41 27t-27 41t-10 51t10 50.5t27.5 40.5t41.5 27t52 10zM434 1759q27 0 51 -9.5t41 -26.5t27 -40.5t10 -51.5q0 -57 -36.5 -93t-93.5 -36
q-29 0 -53 9.5t-41 27t-27 41t-10 51.5q0 27 10 50.5t28 41t42 27t52 9.5z" />
    <glyph glyph-name="Zcaron" unicode="&#x17d;" horiz-adv-x="1267" 
d="M437 1791l195 -167l196 167h153l-221 -337h-257l-218 337h152zM1193 1306v-195l-766 -928h484q38 0 61 11t35 36.5t16 67.5t4 103h187v-401h-1162v204l757 918h-380q-56 0 -89.5 -1t-51 -9t-23 -27t-5.5 -56v-106h-185v383h1118z" />
    <glyph glyph-name="zcaron" unicode="&#x17e;" horiz-adv-x="1090" 
d="M349 1391l195 -167l196 167h153l-221 -337h-257l-218 337h152zM1001 906v-172l-572 -587h296q37 0 67 1.5t50.5 11t31.5 30t11 58.5v13.5v22.5t-0.5 22.5t-1.5 13.5h29t35 0.5t34.5 0.5h28.5v-321h-934v180l571 582h-285q-51 0 -80 -4.5t-44 -21t-19.5 -48t-5.5 -86.5
h-123v304h911z" />
    <glyph glyph-name="florin" unicode="&#x192;" horiz-adv-x="1142" 
d="M1047 1094h-72q0 42 -19.5 62.5t-51.5 20.5q-30 0 -51 -10t-36.5 -31t-26 -54.5t-18.5 -79.5l-22 -128h178l-29 -185h-187q-29 -148 -58 -293.5t-58 -293.5q-24 -124 -53 -218.5t-72.5 -158t-105.5 -96t-151 -32.5q-54 0 -106 4t-117 13l43 247h75q0 -17 2 -32.5
t8.5 -27.5t18.5 -19t31 -7q30 0 51.5 13t39.5 46.5t33.5 91t32.5 146.5l118 617h-164l29 185h175l22 115q17 100 53 167.5t89 108.5t121 58.5t148 17.5q40 0 83 -5t92 -14z" />
    <glyph glyph-name="uni0200" unicode="&#x200;" horiz-adv-x="1454" 
d="M921 1308q87 -236 159 -430q31 -83 61 -164.5t55.5 -150t43.5 -117t24 -64.5q25 -69 39 -109t31.5 -61t44.5 -27.5t78 -7.5v-177q-59 0 -114.5 1t-128.5 1q-86 0 -168.5 -0.5t-178.5 -1.5v165h11.5h15.5t15 0.5t10 0.5q48 2 66 10t18 28q0 12 -5 29.5t-13 40.5l-64 189
h-461q-3 -11 -14 -42.5t-23.5 -67.5t-22.5 -67t-12 -39q-5 -14 -7.5 -25.5t-2.5 -18.5q0 -22 13.5 -29.5t45.5 -8.5q3 0 13 -0.5t22 -0.5h22.5h14.5v-164q-61 0 -123 1t-134 1h-65.5t-59.5 -0.5t-59 -1t-64 -0.5v178q36 4 58.5 7t37.5 11.5t26 25t23 46.5q8 19 25 62
t39.5 101t49.5 126.5t55 139.5t55 140t50 127.5t40 102t25 63.5l46 178h387zM506 593h369l-179 526l-2 1zM761 1448h-132l-187 199q-15 14 -34 32t-35.5 36.5t-28 37t-11.5 33.5q0 9 9 14.5t22 9t27.5 5t25.5 1.5q25 0 52 -4t52.5 -14t47.5 -25.5t36 -39.5zM1121 1448h-132
l-207 202q-16 15 -35 32.5t-35 35t-26.5 34.5t-10.5 33q0 9 9 14.5t22 9.5t27.5 5.5t24.5 1.5q44 0 86.5 -10t87.5 -39z" />
    <glyph glyph-name="uni0201" unicode="&#x201;" horiz-adv-x="1203" 
d="M1050 272q0 -41 2.5 -64t11 -33.5t23.5 -12.5t41 -2h48v-160h-35t-59 0.5t-61.5 0.5h-41.5q-28 0 -51 -0.5t-44.5 -1t-44.5 -1t-51 -1.5l-30 130q-22 -35 -52 -62.5t-72 -47t-97 -30t-126 -10.5q-86 0 -151.5 22.5t-109 60.5t-65.5 89.5t-22 109.5q0 67 29.5 121t85 91.5
t134.5 58t179 20.5q65 0 130 -7.5t123 -22.5v115q0 76 -52.5 121t-162.5 45q-182 0 -217 -145l-165 15l6 200q15 7 49 18t86 21.5t120 18t151 7.5q130 0 223 -18.5t152.5 -58.5t87.5 -103.5t28 -154.5v-329zM578 446q-105 0 -163 -43t-58 -121q0 -37 13 -59.5t35.5 -43
t54 -31.5t67.5 -11q49 0 89 13t68.5 38.5t44 55.5t15.5 77v103q-42 12 -83 17t-83 5zM635 1048h-132l-187 199q-15 14 -34 32t-35.5 36.5t-28 37t-11.5 33.5q0 9 9 14.5t22 9t27.5 5t25.5 1.5q25 0 52 -4t52.5 -14t47.5 -25.5t36 -39.5zM995 1048h-132l-207 202
q-16 15 -35 32.5t-35 35t-26.5 34.5t-10.5 33q0 9 9 14.5t22 9.5t27.5 5.5t24.5 1.5q44 0 86.5 -10t87.5 -39z" />
    <glyph glyph-name="uni0202" unicode="&#x202;" horiz-adv-x="1454" 
d="M921 1308q87 -236 159 -430q31 -83 61 -164.5t55.5 -150t43.5 -117t24 -64.5q25 -69 39 -109t31.5 -61t44.5 -27.5t78 -7.5v-177q-59 0 -114.5 1t-128.5 1q-86 0 -168.5 -0.5t-178.5 -1.5v165h11.5h15.5t15 0.5t10 0.5q48 2 66 10t18 28q0 12 -5 29.5t-13 40.5l-64 189
h-461q-3 -11 -14 -42.5t-23.5 -67.5t-22.5 -67t-12 -39q-5 -14 -7.5 -25.5t-2.5 -18.5q0 -22 13.5 -29.5t45.5 -8.5q3 0 13 -0.5t22 -0.5h22.5h14.5v-164q-61 0 -123 1t-134 1h-65.5t-59.5 -0.5t-59 -1t-64 -0.5v178q36 4 58.5 7t37.5 11.5t26 25t23 46.5q8 19 25 62
t39.5 101t49.5 126.5t55 139.5t55 140t50 127.5t40 102t25 63.5l46 178h387zM506 593h369l-179 526l-2 1zM375 1476q23 140 114.5 213t234.5 73q150 0 241 -73t114 -213h-120q-25 66 -78.5 94.5t-148.5 28.5q-97 0 -157.5 -30t-77.5 -93h-122z" />
    <glyph glyph-name="uni0203" unicode="&#x203;" horiz-adv-x="1203" 
d="M1050 272q0 -41 2.5 -64t11 -33.5t23.5 -12.5t41 -2h48v-160h-35t-59 0.5t-61.5 0.5h-41.5q-28 0 -51 -0.5t-44.5 -1t-44.5 -1t-51 -1.5l-30 130q-22 -35 -52 -62.5t-72 -47t-97 -30t-126 -10.5q-86 0 -151.5 22.5t-109 60.5t-65.5 89.5t-22 109.5q0 67 29.5 121t85 91.5
t134.5 58t179 20.5q65 0 130 -7.5t123 -22.5v115q0 76 -52.5 121t-162.5 45q-182 0 -217 -145l-165 15l6 200q15 7 49 18t86 21.5t120 18t151 7.5q130 0 223 -18.5t152.5 -58.5t87.5 -103.5t28 -154.5v-329zM578 446q-105 0 -163 -43t-58 -121q0 -37 13 -59.5t35.5 -43
t54 -31.5t67.5 -11q49 0 89 13t68.5 38.5t44 55.5t15.5 77v103q-42 12 -83 17t-83 5zM249 1076q23 140 114.5 213t234.5 73q150 0 241 -73t114 -213h-120q-25 66 -78.5 94.5t-148.5 28.5q-97 0 -157.5 -30t-77.5 -93h-122z" />
    <glyph glyph-name="uni0204" unicode="&#x204;" horiz-adv-x="1316" 
d="M1211 1308v-364h-195v41q0 48 -10 74t-28 37.5t-44 13.5t-58 2h-335v-363h197q22 0 37.5 2.5t26.5 11.5t18.5 28t12.5 52h85v-354h-86q-6 32 -13 51t-18 28.5t-26 12t-37 2.5h-197v-389h349q37 0 62 5t40.5 22t22.5 48.5t7 84.5v32h193v-386h-1147v178h74q26 0 40.5 9
t22 25t9 36t1.5 43v720q0 22 -1 44t-8 39t-21.5 27.5t-42.5 10.5h-70v176h1139zM692 1448h-132l-187 199q-15 14 -34 32t-35.5 36.5t-28 37t-11.5 33.5q0 9 9 14.5t22 9t27.5 5t25.5 1.5q25 0 52 -4t52.5 -14t47.5 -25.5t36 -39.5zM1052 1448h-132l-207 202q-16 15 -35 32.5
t-35 35t-26.5 34.5t-10.5 33q0 9 9 14.5t22 9.5t27.5 5.5t24.5 1.5q44 0 86.5 -10t87.5 -39z" />
    <glyph glyph-name="uni0205" unicode="&#x205;" horiz-adv-x="1198" 
d="M1068 415h-680q1 -143 70 -210.5t189 -67.5q85 0 143.5 39t83.5 94l228 -18q-40 -137 -164.5 -206t-313.5 -69q-138 0 -240 36t-170 97t-101.5 149t-33.5 192q0 111 37.5 201t106.5 153t166 97t216 34q115 0 210 -32.5t163 -97t106 -160.5t38 -223zM836 545v7
q0 3 -0.5 6.5t-0.5 7.5q-9 106 -66 164.5t-150 58.5q-103 0 -161.5 -65t-66.5 -178h445v-1zM633 1048h-132l-187 199q-15 14 -34 32t-35.5 36.5t-28 37t-11.5 33.5q0 9 9 14.5t22 9t27.5 5t25.5 1.5q25 0 52 -4t52.5 -14t47.5 -25.5t36 -39.5zM993 1048h-132l-207 202
q-16 15 -35 32.5t-35 35t-26.5 34.5t-10.5 33q0 9 9 14.5t22 9.5t27.5 5.5t24.5 1.5q44 0 86.5 -10t87.5 -39z" />
    <glyph glyph-name="uni0206" unicode="&#x206;" horiz-adv-x="1316" 
d="M1211 1308v-364h-195v41q0 48 -10 74t-28 37.5t-44 13.5t-58 2h-335v-363h197q22 0 37.5 2.5t26.5 11.5t18.5 28t12.5 52h85v-354h-86q-6 32 -13 51t-18 28.5t-26 12t-37 2.5h-197v-389h349q37 0 62 5t40.5 22t22.5 48.5t7 84.5v32h193v-386h-1147v178h74q26 0 40.5 9
t22 25t9 36t1.5 43v720q0 22 -1 44t-8 39t-21.5 27.5t-42.5 10.5h-70v176h1139zM306 1476q23 140 114.5 213t234.5 73q150 0 241 -73t114 -213h-120q-25 66 -78.5 94.5t-148.5 28.5q-97 0 -157.5 -30t-77.5 -93h-122z" />
    <glyph glyph-name="uni0207" unicode="&#x207;" horiz-adv-x="1198" 
d="M1068 415h-680q1 -143 70 -210.5t189 -67.5q85 0 143.5 39t83.5 94l228 -18q-40 -137 -164.5 -206t-313.5 -69q-138 0 -240 36t-170 97t-101.5 149t-33.5 192q0 111 37.5 201t106.5 153t166 97t216 34q115 0 210 -32.5t163 -97t106 -160.5t38 -223zM836 545v7
q0 3 -0.5 6.5t-0.5 7.5q-9 106 -66 164.5t-150 58.5q-103 0 -161.5 -65t-66.5 -178h445v-1zM247 1076q23 140 114.5 213t234.5 73q150 0 241 -73t114 -213h-120q-25 66 -78.5 94.5t-148.5 28.5q-97 0 -157.5 -30t-77.5 -93h-122z" />
    <glyph glyph-name="uni0208" unicode="&#x208;" horiz-adv-x="761" 
d="M75 1308q45 -1 82 -1.5t69 -0.5h61.5h58.5h106.5h86t76 0.5t76.5 1.5v-178h-42q-36 0 -56.5 -6.5t-31 -19t-13 -30t-2.5 -39.5v-766q0 -27 2 -44.5t12 -28t30.5 -14.5t58.5 -4h42v-178q-37 0 -72 0.5t-71.5 0.5t-78 0.5t-90.5 0.5q-92 0 -162.5 -1t-141.5 -1v178h40
q39 0 60 7t31 21t11.5 35t1.5 49v725q0 29 -2 50.5t-12 36t-31 21.5t-59 7h-40v178zM418 1448h-132l-187 199q-15 14 -34 32t-35.5 36.5t-28 37t-11.5 33.5q0 9 9 14.5t22 9t27.5 5t25.5 1.5q25 0 52 -4t52.5 -14t47.5 -25.5t36 -39.5zM778 1448h-132l-207 202
q-16 15 -35 32.5t-35 35t-26.5 34.5t-10.5 33q0 9 9 14.5t22 9.5t27.5 5.5t24.5 1.5q44 0 86.5 -10t87.5 -39z" />
    <glyph glyph-name="uni0209" unicode="&#x209;" horiz-adv-x="655" 
d="M486 254q0 -31 4.5 -49t17 -27.5t35.5 -12.5t60 -3v-162q-34 0 -75.5 0.5t-84 0.5t-82 0.5t-69.5 0.5q-36 0 -67 -0.5t-59 -0.5t-55 -0.5t-55 -0.5v162q42 0 66.5 2.5t37.5 12t17 27.5t4 50v438q0 21 -7 32t-22 16.5t-37.5 6.5t-53.5 1q0 41 0.5 80t0.5 80q42 0 80 -0.5
t74 -0.5q65 0 132.5 1t137.5 4v-658zM365 1048h-132l-187 199q-15 14 -34 32t-35.5 36.5t-28 37t-11.5 33.5q0 9 9 14.5t22 9t27.5 5t25.5 1.5q25 0 52 -4t52.5 -14t47.5 -25.5t36 -39.5zM725 1048h-132l-207 202q-16 15 -35 32.5t-35 35t-26.5 34.5t-10.5 33q0 9 9 14.5
t22 9.5t27.5 5.5t24.5 1.5q44 0 86.5 -10t87.5 -39z" />
    <glyph glyph-name="uni020A" unicode="&#x20a;" horiz-adv-x="761" 
d="M75 1308q45 -1 82 -1.5t69 -0.5h61.5h58.5h106.5h86t76 0.5t76.5 1.5v-178h-42q-36 0 -56.5 -6.5t-31 -19t-13 -30t-2.5 -39.5v-766q0 -27 2 -44.5t12 -28t30.5 -14.5t58.5 -4h42v-178q-37 0 -72 0.5t-71.5 0.5t-78 0.5t-90.5 0.5q-92 0 -162.5 -1t-141.5 -1v178h40
q39 0 60 7t31 21t11.5 35t1.5 49v725q0 29 -2 50.5t-12 36t-31 21.5t-59 7h-40v178zM32 1476q23 140 114.5 213t234.5 73q150 0 241 -73t114 -213h-120q-25 66 -78.5 94.5t-148.5 28.5q-97 0 -157.5 -30t-77.5 -93h-122z" />
    <glyph glyph-name="uni020B" unicode="&#x20b;" horiz-adv-x="655" 
d="M315 1335q37 0 68.5 -8.5t55 -24t36.5 -38.5t13 -51q0 -56 -46.5 -90t-126.5 -34q-78 0 -125 31t-47 93q0 55 47 88.5t125 33.5zM486 254q0 -31 4.5 -49t17 -27.5t35.5 -12.5t60 -3v-162q-34 0 -75.5 0.5t-84 0.5t-82 0.5t-69.5 0.5q-36 0 -67 -0.5t-59 -0.5t-55 -0.5
t-55 -0.5v162q42 0 66.5 2.5t37.5 12t17 27.5t4 50v438q0 21 -7 32t-22 16.5t-37.5 6.5t-53.5 1q0 41 0.5 80t0.5 80q42 0 80 -0.5t74 -0.5q65 0 132.5 1t137.5 4v-658zM-21 1076q23 140 114.5 213t234.5 73q150 0 241 -73t114 -213h-120q-25 66 -78.5 94.5t-148.5 28.5
q-97 0 -157.5 -30t-77.5 -93h-122z" />
    <glyph glyph-name="uni020C" unicode="&#x20c;" horiz-adv-x="1575" 
d="M788 1333q165 0 292.5 -52t215 -143.5t133 -215.5t45.5 -267t-45.5 -267t-132.5 -216t-214 -145t-291 -53q-166 0 -295 52t-217 143.5t-134 216t-46 269.5q0 143 45 266.5t132.5 215t216 144t295.5 52.5zM787 1139q-86 0 -147.5 -33t-101 -95.5t-58 -152t-18.5 -201.5
q0 -117 20 -208t60 -153.5t101 -95t144 -32.5q84 0 145.5 33.5t101 96.5t59 153.5t19.5 204.5q0 234 -80 358.5t-245 124.5zM821 1448h-132l-187 199q-15 14 -34 32t-35.5 36.5t-28 37t-11.5 33.5q0 9 9 14.5t22 9t27.5 5t25.5 1.5q25 0 52 -4t52.5 -14t47.5 -25.5t36 -39.5
zM1181 1448h-132l-207 202q-16 15 -35 32.5t-35 35t-26.5 34.5t-10.5 33q0 9 9 14.5t22 9.5t27.5 5.5t24.5 1.5q44 0 86.5 -10t87.5 -39z" />
    <glyph glyph-name="uni020D" unicode="&#x20d;" horiz-adv-x="1256" 
d="M628 936q111 0 211 -31t175 -92t119 -151.5t44 -208.5q0 -115 -43 -205t-117 -148t-174 -90.5t-215 -32.5q-116 0 -216 32t-174.5 90t-117 148t-42.5 206q0 114 42 204t116 152t174.5 94.5t217.5 32.5zM629 771q-114 0 -176 -84t-62 -233q0 -150 61 -233.5t174 -83.5
q56 0 100 22t75 63t47 101t16 135q0 73 -16 131t-46 98.5t-74 62t-99 21.5zM662 1048h-132l-187 199q-15 14 -34 32t-35.5 36.5t-28 37t-11.5 33.5q0 9 9 14.5t22 9t27.5 5t25.5 1.5q25 0 52 -4t52.5 -14t47.5 -25.5t36 -39.5zM1022 1048h-132l-207 202q-16 15 -35 32.5
t-35 35t-26.5 34.5t-10.5 33q0 9 9 14.5t22 9.5t27.5 5.5t24.5 1.5q44 0 86.5 -10t87.5 -39z" />
    <glyph glyph-name="uni020E" unicode="&#x20e;" horiz-adv-x="1575" 
d="M788 1333q165 0 292.5 -52t215 -143.5t133 -215.5t45.5 -267t-45.5 -267t-132.5 -216t-214 -145t-291 -53q-166 0 -295 52t-217 143.5t-134 216t-46 269.5q0 143 45 266.5t132.5 215t216 144t295.5 52.5zM787 1139q-86 0 -147.5 -33t-101 -95.5t-58 -152t-18.5 -201.5
q0 -117 20 -208t60 -153.5t101 -95t144 -32.5q84 0 145.5 33.5t101 96.5t59 153.5t19.5 204.5q0 234 -80 358.5t-245 124.5zM435 1476q23 140 114.5 213t234.5 73q150 0 241 -73t114 -213h-120q-25 66 -78.5 94.5t-148.5 28.5q-97 0 -157.5 -30t-77.5 -93h-122z" />
    <glyph glyph-name="uni020F" unicode="&#x20f;" horiz-adv-x="1256" 
d="M628 936q111 0 211 -31t175 -92t119 -151.5t44 -208.5q0 -115 -43 -205t-117 -148t-174 -90.5t-215 -32.5q-116 0 -216 32t-174.5 90t-117 148t-42.5 206q0 114 42 204t116 152t174.5 94.5t217.5 32.5zM629 771q-114 0 -176 -84t-62 -233q0 -150 61 -233.5t174 -83.5
q56 0 100 22t75 63t47 101t16 135q0 73 -16 131t-46 98.5t-74 62t-99 21.5zM276 1076q23 140 114.5 213t234.5 73q150 0 241 -73t114 -213h-120q-25 66 -78.5 94.5t-148.5 28.5q-97 0 -157.5 -30t-77.5 -93h-122z" />
    <glyph glyph-name="uni0210" unicode="&#x210;" horiz-adv-x="1474" 
d="M1201 362q9 -50 17.5 -86.5t20 -60.5t28 -35.5t40.5 -11.5q35 0 53 20t18 68l116 14v-5.5t-0.5 -10t-0.5 -10v-5.5q-2 -70 -21.5 -120t-55.5 -82.5t-86.5 -47.5t-114.5 -15q-77 0 -134 22t-98 66t-68 110.5t-44 156.5q-15 80 -35.5 133t-45.5 88q-27 22 -65 29.5t-94 7.5
h-87l-1 -337q0 -23 4.5 -37.5t15.5 -22t30 -10t49 -2.5h44v-178h-73.5t-74.5 0.5t-80.5 1t-91.5 0.5q-48 0 -87.5 -0.5t-74.5 -0.5t-67.5 -0.5t-66.5 -0.5v178h32q43 0 66.5 6.5t34 19.5t12 32t1.5 44v747q0 28 -2.5 47.5t-14 32t-35.5 18t-67 5.5h-27v178h639
q73 0 144.5 -5t136 -19.5t120 -39.5t96 -65t63.5 -97t23 -134q0 -54 -18 -102.5t-52.5 -87.5t-84 -67t-112.5 -42q30 -14 57.5 -35t50.5 -54t40.5 -81t27.5 -117zM543 732h155q67 0 116.5 9.5t81.5 32.5t48 60t16 93q0 59 -19 97.5t-55.5 61t-91 31t-126.5 8.5h-125v-393z
M771 1448h-132l-187 199q-15 14 -34 32t-35.5 36.5t-28 37t-11.5 33.5q0 9 9 14.5t22 9t27.5 5t25.5 1.5q25 0 52 -4t52.5 -14t47.5 -25.5t36 -39.5zM1131 1448h-132l-207 202q-16 15 -35 32.5t-35 35t-26.5 34.5t-10.5 33q0 9 9 14.5t22 9.5t27.5 5.5t24.5 1.5
q44 0 86.5 -10t87.5 -39z" />
    <glyph glyph-name="uni0211" unicode="&#x211;" horiz-adv-x="920" 
d="M223 907q171 1 252 5v-192q38 103 122.5 156t208.5 53q23 0 46.5 -2t47.5 -6v-302q-9 1 -22.5 1h-22.5q-16 0 -36.5 -0.5t-34.5 -1.5q-11 42 -35.5 60t-67.5 18q-38 0 -70 -15t-56.5 -42.5t-40 -67t-20.5 -87.5q-3 -10 -5 -45t-3 -76.5t-1 -80v-55.5q0 -26 7.5 -39
t25.5 -19t47 -6.5t71 -0.5v-162q-40 0 -78.5 0.5t-78.5 0.5t-84.5 0.5t-96.5 0.5q-41 0 -74.5 -0.5t-63 -0.5t-58 -0.5t-58.5 -0.5v162q42 0 66.5 2t35.5 10q20 5 26.5 21.5t6.5 54.5v441q0 22 -7.5 33.5t-23.5 16.5t-41 6t-60 1v160q17 0 176 -1zM497 1048h-132l-187 199
q-15 14 -34 32t-35.5 36.5t-28 37t-11.5 33.5q0 9 9 14.5t22 9t27.5 5t25.5 1.5q25 0 52 -4t52.5 -14t47.5 -25.5t36 -39.5zM857 1048h-132l-207 202q-16 15 -35 32.5t-35 35t-26.5 34.5t-10.5 33q0 9 9 14.5t22 9.5t27.5 5.5t24.5 1.5q44 0 86.5 -10t87.5 -39z" />
    <glyph glyph-name="uni0212" unicode="&#x212;" horiz-adv-x="1474" 
d="M1201 362q9 -50 17.5 -86.5t20 -60.5t28 -35.5t40.5 -11.5q35 0 53 20t18 68l116 14v-5.5t-0.5 -10t-0.5 -10v-5.5q-2 -70 -21.5 -120t-55.5 -82.5t-86.5 -47.5t-114.5 -15q-77 0 -134 22t-98 66t-68 110.5t-44 156.5q-15 80 -35.5 133t-45.5 88q-27 22 -65 29.5t-94 7.5
h-87l-1 -337q0 -23 4.5 -37.5t15.5 -22t30 -10t49 -2.5h44v-178h-73.5t-74.5 0.5t-80.5 1t-91.5 0.5q-48 0 -87.5 -0.5t-74.5 -0.5t-67.5 -0.5t-66.5 -0.5v178h32q43 0 66.5 6.5t34 19.5t12 32t1.5 44v747q0 28 -2.5 47.5t-14 32t-35.5 18t-67 5.5h-27v178h639
q73 0 144.5 -5t136 -19.5t120 -39.5t96 -65t63.5 -97t23 -134q0 -54 -18 -102.5t-52.5 -87.5t-84 -67t-112.5 -42q30 -14 57.5 -35t50.5 -54t40.5 -81t27.5 -117zM543 732h155q67 0 116.5 9.5t81.5 32.5t48 60t16 93q0 59 -19 97.5t-55.5 61t-91 31t-126.5 8.5h-125v-393z
M385 1476q23 140 114.5 213t234.5 73q150 0 241 -73t114 -213h-120q-25 66 -78.5 94.5t-148.5 28.5q-97 0 -157.5 -30t-77.5 -93h-122z" />
    <glyph glyph-name="uni0213" unicode="&#x213;" horiz-adv-x="920" 
d="M223 907q171 1 252 5v-192q38 103 122.5 156t208.5 53q23 0 46.5 -2t47.5 -6v-302q-9 1 -22.5 1h-22.5q-16 0 -36.5 -0.5t-34.5 -1.5q-11 42 -35.5 60t-67.5 18q-38 0 -70 -15t-56.5 -42.5t-40 -67t-20.5 -87.5q-3 -10 -5 -45t-3 -76.5t-1 -80v-55.5q0 -26 7.5 -39
t25.5 -19t47 -6.5t71 -0.5v-162q-40 0 -78.5 0.5t-78.5 0.5t-84.5 0.5t-96.5 0.5q-41 0 -74.5 -0.5t-63 -0.5t-58 -0.5t-58.5 -0.5v162q42 0 66.5 2t35.5 10q20 5 26.5 21.5t6.5 54.5v441q0 22 -7.5 33.5t-23.5 16.5t-41 6t-60 1v160q17 0 176 -1zM108 1076
q23 140 114.5 213t234.5 73q150 0 241 -73t114 -213h-120q-25 66 -78.5 94.5t-148.5 28.5q-97 0 -157.5 -30t-77.5 -93h-122z" />
    <glyph glyph-name="uni0214" unicode="&#x214;" horiz-adv-x="1411" 
d="M47 1308q15 0 47.5 -0.5t70.5 -1t76.5 -1t66.5 -0.5h76.5t76.5 0.5t81.5 1t90.5 1.5v-178h-33q-36 0 -55.5 -9.5t-29 -25t-11.5 -36t-2 -41.5v-521q0 -80 12.5 -141.5t42.5 -103t81 -63t128 -21.5q70 0 116 20t73 60t38 99t11 137v542q0 19 -2 37.5t-12 33.5t-30.5 24
t-56.5 9h-36v178q13 -1 46 -1.5t73 -0.5h80h69h42t57.5 0.5t66 1t66.5 0.5v-178h-47q-35 0 -52.5 -11.5t-25 -28.5t-7.5 -36.5v-35.5v-518q0 -129 -29 -227.5t-91.5 -165t-162 -100t-240.5 -33.5q-142 0 -243.5 31.5t-166 96t-94.5 162t-30 229.5v560q0 11 -2 24.5t-11 25
t-26.5 19.5t-48.5 8h-43v178zM739 1448h-132l-187 199q-15 14 -34 32t-35.5 36.5t-28 37t-11.5 33.5q0 9 9 14.5t22 9t27.5 5t25.5 1.5q25 0 52 -4t52.5 -14t47.5 -25.5t36 -39.5zM1099 1448h-132l-207 202q-16 15 -35 32.5t-35 35t-26.5 34.5t-10.5 33q0 9 9 14.5t22 9.5
t27.5 5.5t24.5 1.5q44 0 86.5 -10t87.5 -39z" />
    <glyph glyph-name="uni0215" unicode="&#x215;" horiz-adv-x="1336" 
d="M477 -20q-85 0 -144 27.5t-95.5 82.5t-52.5 140t-16 199v245q0 28 -5.5 43t-19.5 21.5t-38.5 7.5t-62.5 1v160h42.5t53.5 -0.5t48.5 -0.5h28.5q66 1 129.5 2t129.5 3v-522q0 -55 7 -98t24.5 -72t47.5 -44.5t76 -15.5q85 0 138.5 27t79.5 70q11 30 12.5 65.5t1.5 74.5v259
q0 35 -5.5 53.5t-20.5 27t-41.5 10t-69.5 1.5v160q48 -1 95 -1h107q62 1 121 2t119 3v-688q0 -20 5.5 -32.5t19.5 -19.5t38 -9t61 -2v-160q-47 0 -83.5 0.5t-74.5 0.5q-66 -1 -131 -1.5t-131 -2.5v140q-67 -80 -169 -118.5t-225 -38.5zM702 1048h-132l-187 199
q-15 14 -34 32t-35.5 36.5t-28 37t-11.5 33.5q0 9 9 14.5t22 9t27.5 5t25.5 1.5q25 0 52 -4t52.5 -14t47.5 -25.5t36 -39.5zM1062 1048h-132l-207 202q-16 15 -35 32.5t-35 35t-26.5 34.5t-10.5 33q0 9 9 14.5t22 9.5t27.5 5.5t24.5 1.5q44 0 86.5 -10t87.5 -39z" />
    <glyph glyph-name="uni0216" unicode="&#x216;" horiz-adv-x="1411" 
d="M47 1308q15 0 47.5 -0.5t70.5 -1t76.5 -1t66.5 -0.5h76.5t76.5 0.5t81.5 1t90.5 1.5v-178h-33q-36 0 -55.5 -9.5t-29 -25t-11.5 -36t-2 -41.5v-521q0 -80 12.5 -141.5t42.5 -103t81 -63t128 -21.5q70 0 116 20t73 60t38 99t11 137v542q0 19 -2 37.5t-12 33.5t-30.5 24
t-56.5 9h-36v178q13 -1 46 -1.5t73 -0.5h80h69h42t57.5 0.5t66 1t66.5 0.5v-178h-47q-35 0 -52.5 -11.5t-25 -28.5t-7.5 -36.5v-35.5v-518q0 -129 -29 -227.5t-91.5 -165t-162 -100t-240.5 -33.5q-142 0 -243.5 31.5t-166 96t-94.5 162t-30 229.5v560q0 11 -2 24.5t-11 25
t-26.5 19.5t-48.5 8h-43v178zM353 1476q23 140 114.5 213t234.5 73q150 0 241 -73t114 -213h-120q-25 66 -78.5 94.5t-148.5 28.5q-97 0 -157.5 -30t-77.5 -93h-122z" />
    <glyph glyph-name="uni0217" unicode="&#x217;" horiz-adv-x="1336" 
d="M477 -20q-85 0 -144 27.5t-95.5 82.5t-52.5 140t-16 199v245q0 28 -5.5 43t-19.5 21.5t-38.5 7.5t-62.5 1v160h42.5t53.5 -0.5t48.5 -0.5h28.5q66 1 129.5 2t129.5 3v-522q0 -55 7 -98t24.5 -72t47.5 -44.5t76 -15.5q85 0 138.5 27t79.5 70q11 30 12.5 65.5t1.5 74.5v259
q0 35 -5.5 53.5t-20.5 27t-41.5 10t-69.5 1.5v160q48 -1 95 -1h107q62 1 121 2t119 3v-688q0 -20 5.5 -32.5t19.5 -19.5t38 -9t61 -2v-160q-47 0 -83.5 0.5t-74.5 0.5q-66 -1 -131 -1.5t-131 -2.5v140q-67 -80 -169 -118.5t-225 -38.5zM316 1076q23 140 114.5 213t234.5 73
q150 0 241 -73t114 -213h-120q-25 66 -78.5 94.5t-148.5 28.5q-97 0 -157.5 -30t-77.5 -93h-122z" />
    <glyph glyph-name="uni0218" unicode="&#x218;" horiz-adv-x="1199" 
d="M1064 943h-192q-4 13 -6.5 25t-5.5 24q-17 89 -76 136.5t-179 47.5q-49 0 -88 -12t-66.5 -34t-42.5 -52t-15 -67q0 -57 35 -94t95 -66.5t139 -57t167 -65.5q58 -24 109.5 -56.5t90.5 -76t61.5 -101t22.5 -131.5q0 -79 -31 -149.5t-88.5 -124t-140.5 -84.5t-187 -31
q-50 0 -99.5 8.5t-95 24.5t-85 39t-69.5 52v-98h-219v406h192q6 -26 12 -48q10 -51 29.5 -90.5t52.5 -66.5t81 -41t115 -14q51 0 92.5 12t71.5 34.5t46 56t16 75.5q0 57 -34.5 95.5t-91 67.5t-127.5 53.5t-144 54.5q-158 65 -234.5 153t-76.5 213q0 79 29.5 147t86 118
t137.5 78.5t185 28.5q90 0 177.5 -22t164.5 -83q0 14 -0.5 28t-0.5 26v27h26.5t48 -0.5t58 -0.5h54.5v-365zM827 -173l-40 -229q-12 -69 -36.5 -125.5t-60 -98t-81 -66t-99.5 -30.5l-72 127q31 6 49.5 25t28 43t12.5 48l5 40l-76 24l27 242h343z" />
    <glyph glyph-name="uni0219" unicode="&#x219;" horiz-adv-x="1032" 
d="M900 633h-158q-16 73 -75.5 116t-157.5 46q-40 0 -68.5 -8t-46.5 -21.5t-26.5 -31t-8.5 -36.5q0 -24 15 -41.5t43 -32.5t68.5 -28.5t92.5 -28.5q88 -24 155.5 -50.5t114 -61.5t70.5 -81.5t24 -112.5q0 -75 -32 -128.5t-84.5 -88.5t-119.5 -51t-138 -16
q-102 0 -170.5 25.5t-112.5 77.5l-4 -79q-47 0 -91.5 3t-90.5 3v284h181q4 -45 24.5 -79t52.5 -56.5t73 -33.5t87 -11q70 0 115 26t45 71q0 30 -24.5 51.5t-65 39.5t-93 35t-108.5 37q-67 24 -120.5 49t-91 57t-57.5 75t-20 103q0 62 23.5 112.5t68.5 86t111 55t150 19.5
q88 0 164 -22.5t120 -67.5q1 6 3.5 18.5t5.5 25.5q4 15 7 33q30 -3 58 -6q24 -2 49.5 -4t42.5 -4v-268zM742 -173l-40 -229q-12 -69 -36.5 -125.5t-60 -98t-81 -66t-99.5 -30.5l-72 127q31 6 49.5 25t28 43t12.5 48l5 40l-76 24l27 242h343z" />
    <glyph glyph-name="uni021A" unicode="&#x21a;" horiz-adv-x="1324" 
d="M57 1308q97 -1 185 -1q37 0 76.5 -0.5t77 -0.5h70.5h57h378q43 0 90.5 0.5t95 0.5t93.5 0.5t87 0.5v-442h-158v135q0 35 -4 56.5t-20 33.5t-47.5 16t-85.5 4h-125v-856q0 -11 2.5 -24.5t12 -25t29 -19.5t52.5 -8h56v-178h-71.5t-71 0.5t-77.5 1t-92 0.5q-35 0 -75.5 -0.5
t-83 -0.5t-83.5 -0.5t-77 -0.5v178h56q37 0 56.5 10t28.5 26t10 36.5t1 40.5v820h-160q-41 0 -66 -3.5t-38.5 -12.5t-18 -24t-4.5 -38v-32.5v-46t0.5 -49t0.5 -39.5h-157v442zM856 -173l-40 -229q-12 -69 -36.5 -125.5t-60 -98t-81 -66t-99.5 -30.5l-72 127q31 6 49.5 25
t28 43t12.5 48l5 40l-76 24l27 242h343z" />
    <glyph glyph-name="uni021B" unicode="&#x21b;" horiz-adv-x="792" 
d="M464 1183v-275h245v-160h-244v-406q0 -44 2.5 -76.5t11.5 -54t26 -32.5t45 -11q67 0 67 93l111 14v-32q-2 -74 -20.5 -123t-53.5 -81.5t-85 -47t-114 -14.5q-155 0 -225.5 82.5t-70.5 228.5v460h-152v149q11 0 39.5 2.5t58.5 4.5q34 3 75 6q0 3 2.5 19.5t6.5 39.5t8.5 50
t8 51t6 42t2.5 24zM590 -173l-40 -229q-12 -69 -36.5 -125.5t-60 -98t-81 -66t-99.5 -30.5l-72 127q31 6 49.5 25t28 43t12.5 48l5 40l-76 24l27 242h343z" />
    <glyph glyph-name="circumflex" unicode="&#x2c6;" 
d="M553 1390l221 -337h-154l-194 165l-196 -165h-152l219 337h256z" />
    <glyph glyph-name="caron" unicode="&#x2c7;" 
d="M230 1391l195 -167l196 167h153l-221 -337h-257l-218 337h152z" />
    <glyph glyph-name="uni02C9" unicode="&#x2c9;" horiz-adv-x="682" 
d="M-110 1368h903v-154h-903v154z" />
    <glyph glyph-name="breve" unicode="&#x2d8;" 
d="M195 1362q17 -63 77.5 -93t157.5 -30q95 0 148.5 28.5t78.5 94.5h120q-23 -140 -114 -213t-241 -73q-143 0 -234.5 73t-114.5 213h122z" />
    <glyph glyph-name="dotaccent" unicode="&#x2d9;" 
d="M427 1364q29 0 53.5 -10t42 -28t27.5 -42.5t10 -52.5q0 -29 -10 -53t-27.5 -42t-42 -28t-53.5 -10t-54 10.5t-43 28.5t-28 42.5t-10 52.5t10.5 52t28.5 42t42.5 28t53.5 10z" />
    <glyph glyph-name="ring" unicode="&#x2da;" 
d="M426 1480q50 0 93.5 -18t75.5 -48.5t50.5 -71t18.5 -86.5q0 -48 -19 -89.5t-51.5 -72t-75.5 -48t-92 -17.5q-50 0 -93.5 18t-75.5 48.5t-50.5 72t-18.5 88.5t18.5 88t50.5 71t75.5 47.5t93.5 17.5zM426 1378q-26 0 -49 -10t-40 -26.5t-26.5 -38.5t-9.5 -47q0 -26 9.5 -49
t26.5 -39.5t40 -26t49 -9.5t48.5 9.5t39.5 26.5t26.5 39.5t9.5 48.5q0 25 -10 47.5t-26.5 39t-39.5 26t-48 9.5z" />
    <glyph glyph-name="ogonek" unicode="&#x2db;" 
d="M478 27q-52 -66 -79.5 -116t-27.5 -97q0 -61 32 -89.5t83 -28.5q35 0 72 12.5t81 36.5l15 -68q-54 -52 -108 -78t-122 -26q-53 0 -94.5 13.5t-71 38.5t-45 59t-15.5 76q0 62 42.5 125.5t123.5 141.5h114z" />
    <glyph glyph-name="tilde" unicode="&#x2dc;" 
d="M775 1359q-15 -121 -73.5 -189t-155.5 -68q-35 0 -68 10t-64.5 22.5t-61.5 22.5t-58 10q-38 0 -62 -23t-38 -63h-118q20 128 77 193t152 65q34 0 67 -10t65 -22t63 -22t62 -10q37 0 58.5 19.5t37.5 64.5h117z" />
    <glyph glyph-name="hungarumlaut" unicode="&#x2dd;" 
d="M651 1333q14 24 36 39.5t47.5 25.5t52.5 14t52 4q11 0 25.5 -1.5t27.5 -5t22 -9t9 -14.5q0 -15 -11.5 -33.5t-28 -37t-35.5 -36.5t-34 -32l-187 -199h-132zM324 1367q45 29 87.5 39t86.5 10q10 0 24.5 -1.5t27.5 -5.5t22 -9.5t9 -14.5q0 -16 -10.5 -33t-26.5 -34.5
t-35 -35t-35 -32.5l-207 -202h-132z" />
    <glyph glyph-name="uni030F" unicode="&#x30f;" 
d="M563 1048h-132l-187 199q-15 14 -34 32t-35.5 36.5t-28 37t-11.5 33.5q0 9 9 14.5t22 9t27.5 5t25.5 1.5q25 0 52 -4t52.5 -14t47.5 -25.5t36 -39.5zM923 1048h-132l-207 202q-16 15 -35 32.5t-35 35t-26.5 34.5t-10.5 33q0 9 9 14.5t22 9.5t27.5 5.5t24.5 1.5
q44 0 86.5 -10t87.5 -39z" />
    <glyph glyph-name="uni0311" unicode="&#x311;" 
d="M73 1076q23 140 114.5 213t234.5 73q150 0 241 -73t114 -213h-120q-25 66 -78.5 94.5t-148.5 28.5q-97 0 -157.5 -30t-77.5 -93h-122z" />
    <glyph glyph-name="uni0326" unicode="&#x326;" horiz-adv-x="646" 
d="M514 -173l-40 -229q-12 -69 -36.5 -125.5t-60 -98t-81 -66t-99.5 -30.5l-72 127q31 6 49.5 25t28 43t12.5 48l5 40l-76 24l27 242h343z" />
    <glyph glyph-name="uni03A9" unicode="&#x3a9;" horiz-adv-x="1763" 
d="M440 214q-56 35 -111.5 87t-100 120.5t-72.5 153t-28 185.5q0 136 55 251.5t155 199.5t239.5 131.5t308.5 47.5q170 0 308 -48.5t236 -133t151 -200.5t53 -251q0 -100 -26 -182t-70 -149t-101.5 -119.5t-121.5 -92.5v-6h345v-208h-668v162q72 44 134.5 98t109.5 121
t74 148.5t27 181.5q0 88 -31 173.5t-89 152.5t-141.5 108t-188.5 41q-98 0 -181.5 -35t-145 -98t-96.5 -151.5t-35 -195.5q0 -90 26.5 -172t73 -152.5t109.5 -126.5t136 -93v-162h-672v208h338v6z" />
    <glyph glyph-name="endash" unicode="&#x2013;" horiz-adv-x="1024" 
d="M1030 640v-227h-1036v227h1036z" />
    <glyph glyph-name="emdash" unicode="&#x2014;" horiz-adv-x="2048" 
d="M2054 640v-227h-2060v227h2060z" />
    <glyph glyph-name="quoteleft" unicode="&#x2018;" horiz-adv-x="646" 
d="M182 1119q0 65 21.5 106.5t58 65t86 32.5t105.5 9h24l1 -151q-45 -8 -58 -34.5t-13 -70.5v-22.5t0.5 -26t1 -23.5t1.5 -15l79 29q2 -21 5.5 -52.5t7.5 -65.5t7.5 -65.5t5.5 -52.5h-287q-6 41 -14 84t-15 86t-12 85t-5 82z" />
    <glyph glyph-name="quoteright" unicode="&#x2019;" horiz-adv-x="646" 
d="M515 995q0 -65 -21.5 -106.5t-58 -65t-86 -32.5t-105.5 -9h-24l-1 151q45 8 58 34.5t13 70.5v22.5t-0.5 26t-1 23t-1.5 15.5l-79 -29q-2 21 -5.5 52.5t-7.5 65.5t-7.5 65.5t-5.5 52.5h287q6 -41 14 -84t15 -86t12 -85t5 -82z" />
    <glyph glyph-name="quotesinglbase" unicode="&#x201a;" horiz-adv-x="646" 
d="M510 251l-41 -229q-24 -140 -97 -223.5t-180 -96.5l-72 127q31 6 49.5 25t28 43t12.5 48l5 40l-60 24l28 242h327z" />
    <glyph glyph-name="quotedblleft" unicode="&#x201c;" horiz-adv-x="1034" 
d="M599 1119q0 65 21.5 106.5t58 65t86 32.5t105.5 9h24l1 -151q-45 -8 -58 -34.5t-13 -70.5v-22.5t0.5 -26t1 -23.5t1.5 -15l79 29q2 -21 5.5 -52.5t7.5 -65.5t7.5 -65.5t5.5 -52.5h-287q-6 41 -14 84t-15 86t-12 85t-5 82zM182 1119q0 65 21.5 106.5t58 65t86 32.5
t105.5 9h24l1 -151q-45 -8 -58 -34.5t-13 -70.5v-22.5t0.5 -26t1 -23.5t1.5 -15l79 29q2 -21 5.5 -52.5t7.5 -65.5t7.5 -65.5t5.5 -52.5h-287q-6 41 -14 84t-15 86t-12 85t-5 82z" />
    <glyph glyph-name="quotedblright" unicode="&#x201d;" horiz-adv-x="1034" 
d="M515 995q0 -65 -21.5 -106.5t-58 -65t-86 -32.5t-105.5 -9h-24l-1 151q45 8 58 34.5t13 70.5v22.5t-0.5 26t-1 23t-1.5 15.5l-79 -29q-2 21 -5.5 52.5t-7.5 65.5t-7.5 65.5t-5.5 52.5h287q6 -41 14 -84t15 -86t12 -85t5 -82zM932 995q0 -65 -21.5 -106.5t-58 -65
t-86 -32.5t-105.5 -9h-24l-1 151q45 8 58 34.5t13 70.5v22.5t-0.5 26t-1 23t-1.5 15.5l-79 -29q-2 21 -5.5 52.5t-7.5 65.5t-7.5 65.5t-5.5 52.5h287q6 -41 14 -84t15 -86t12 -85t5 -82z" />
    <glyph glyph-name="quotedblbase" unicode="&#x201e;" horiz-adv-x="1161" 
d="M510 251l-40 -229q-24 -140 -97 -223.5t-181 -96.5l-71 127q31 6 49 25t27.5 43t13 48t5.5 40l-60 24l27 242h327zM1034 251q-1 -5 -4 -22.5t-7 -40t-8 -48.5t-8 -48.5t-7.5 -40l-4.5 -22.5q-24 -142 -96 -228t-182 -99l-72 127q31 4 49 22.5t27 41.5t12 46.5t5 38.5
l-61 23l30 250h327z" />
    <glyph glyph-name="dagger" unicode="&#x2020;" horiz-adv-x="1175" 
d="M489 -313l-39 797q20 57 38 126.5t20 146.5q-76 -5 -143.5 -16t-133.5 -30h-146v194h162q57 -19 120.5 -28.5t139.5 -13.5q0 64 -15.5 115t-41.5 92v239h275v-239q-26 -41 -41.5 -92t-15.5 -115q76 4 139.5 13.5t121.5 28.5h162v-194h-128q-36 7 -70.5 14.5t-70 13.5
t-73.5 10.5t-82 7.5q2 -77 20 -146.5t38 -126.5l-39 -797h-197z" />
    <glyph glyph-name="daggerdbl" unicode="&#x2021;" horiz-adv-x="1155" 
d="M497 250q-17 84 -28 145t-18 117q7 62 18 127.5t28 154.5q-74 -5 -138.5 -17t-127.5 -31h-157v199h173q54 -19 115 -29.5t134 -14.5q0 60 -16 102.5t-41 79.5v226h275v-226q-25 -37 -41 -79.5t-16 -102.5q73 4 134 15t115 29h173v-199h-158q-63 19 -126.5 31t-138.5 17
q17 -89 27.5 -154.5t18.5 -127.5q-8 -56 -18.5 -117t-27.5 -145q74 5 138.5 17t126.5 30h158v-198h-173q-55 18 -115.5 29t-133.5 15q0 -64 16 -110.5t41 -88.5v-224h-275v224q25 42 41 88.5t16 110.5q-74 -4 -134 -15t-115 -29h-173v198h157q63 -18 128 -30t138 -17z" />
    <glyph glyph-name="bullet" unicode="&#x2022;" horiz-adv-x="1160" 
d="M275 731q0 62 24.5 116.5t66 95.5t97 65t117.5 24t117 -24t96.5 -65.5t65.5 -96t24 -115.5t-24.5 -115.5t-66 -96t-96.5 -65.5t-117 -24q-63 0 -118.5 24t-96.5 65.5t-65 96t-24 115.5z" />
    <glyph glyph-name="ellipsis" unicode="&#x2026;" horiz-adv-x="1938" 
d="M318 231q39 0 70.5 -9t54 -24.5t35 -38t12.5 -49.5q0 -53 -44 -87.5t-128 -34.5q-82 0 -127.5 32t-45.5 90q0 52 46 86.5t127 34.5zM964 231q39 0 70.5 -9t54 -24.5t35 -38t12.5 -49.5q0 -53 -44 -87.5t-128 -34.5q-82 0 -127.5 32t-45.5 90q0 52 46 86.5t127 34.5z
M1610 231q39 0 70.5 -9t54 -24.5t35 -38t12.5 -49.5q0 -53 -44 -87.5t-128 -34.5q-82 0 -127.5 32t-45.5 90q0 52 46 86.5t127 34.5z" />
    <glyph glyph-name="perthousand" unicode="&#x2030;" horiz-adv-x="2465" 
d="M397 1335q79 0 140.5 -26t103.5 -73t64 -114.5t22 -149.5q0 -86 -23 -153.5t-65.5 -114.5t-104 -71.5t-139.5 -24.5t-139.5 25t-104 72t-65 114.5t-22.5 152.5t23 152t65.5 114t104.5 72t140 25zM1372 1322l-889 -1337h-160l889 1337h160zM396 1220q-70 0 -101.5 -62
t-31.5 -189t32 -185.5t101 -58.5q33 0 58 13.5t41.5 43t25 76.5t8.5 114q0 131 -30.5 189.5t-102.5 58.5zM1297 699q78 0 139 -25.5t103 -73t64 -115t22 -152.5t-23 -152t-66 -113.5t-104.5 -71t-137.5 -24.5q-78 0 -140 25t-104.5 72t-65 114.5t-22.5 152.5t23 152.5
t66 114t105.5 71.5t140.5 25zM2071 699q78 0 139.5 -25t103.5 -72t64.5 -114t22.5 -151q0 -87 -23 -154.5t-66 -114.5t-104.5 -71.5t-138.5 -24.5q-78 0 -139.5 25t-104 72t-65 114.5t-22.5 152.5t23 152.5t66 114t105 71.5t139 25zM1295 584q-70 0 -102 -62.5t-32 -188.5
q0 -127 31.5 -185.5t102.5 -58.5q69 0 101.5 57.5t32.5 188.5t-31 190t-103 59zM2069 584q-69 0 -101 -62.5t-32 -185.5q0 -131 32.5 -189t101.5 -58t101.5 57.5t32.5 188.5q0 130 -31 189.5t-104 59.5z" />
    <glyph glyph-name="guilsinglleft" unicode="&#x2039;" horiz-adv-x="686" 
d="M620 851l-256 -395l256 -397h-285l-252 397l252 395h285z" />
    <glyph glyph-name="guilsinglright" unicode="&#x203a;" horiz-adv-x="686" 
d="M363 851l239 -395l-239 -397h-286l243 397l-243 395h286z" />
    <glyph glyph-name="fraction" unicode="&#x2044;" horiz-adv-x="490" 
d="M778 1322l-904 -1337h-160l905 1337h159z" />
    <glyph glyph-name="foursuperior" unicode="&#x2074;" horiz-adv-x="919" 
d="M680 866v-453h113v-171h-113v-62q0 -7 4.5 -8.5t19.5 -1.5h73v-170h-100.5t-60.5 1q-8 0 -20 0.5t-20 0.5q-18 0 -35.5 1t-44 1t-66.5 -0.5t-102 -3.5v170h84q20 0 28.5 1t8.5 5v66h-347l-29 171l370 453h237zM294 411h157v201z" />
    <glyph glyph-name="Euro" unicode="&#x20ac;" horiz-adv-x="1360" 
d="M1276 369q-23 -71 -60.5 -140t-97.5 -124t-148 -89t-212 -34q-148 0 -253 45t-176 118t-112 165.5t-59 187.5h-127v128h111q-2 15 -2 30.5v29.5v35.5t2 35.5h-111v129h128q21 103 64.5 196t108.5 164t152 113t194 42q103 0 192.5 -31.5t152.5 -94.5v99h233v-407h-245
q-13 44 -37 81.5t-55 64.5t-68 42.5t-76 15.5q-48 0 -89 -24t-73.5 -64t-56 -91.5t-38.5 -105.5h311v-129h-333q-2 -16 -2 -32.5v-33.5v-33t2 -32h333v-128h-311q14 -55 37.5 -106.5t56.5 -91.5t76.5 -64.5t97.5 -24.5q49 0 88 19.5t69.5 52.5t53.5 77t41 92z" />
    <glyph glyph-name="trademark" unicode="&#x2122;" horiz-adv-x="1792" 
d="M773 1263h-34q0 25 -5 40t-12.5 22.5t-17.5 9.5t-19 2h-143v-523q0 -5 1 -11.5t8.5 -12.5t23.5 -10t45 -4v-45h-313v45q29 0 45 3.5t23.5 9t8.5 12.5t1 14v522h-148q-8 0 -17 -2t-16 -9.5t-11.5 -22.5t-4.5 -40h-29v138h611zM1241 964h2l144 437h272v-40q-25 0 -38.5 -4
t-20 -9.5t-7.5 -12.5t-1 -13v-501q0 -7 1 -14t8 -12t22 -8.5t42 -3.5v-52h-285v53q24 0 37.5 3t20 8t7.5 11.5t1 14.5v444h-2l-172 -535h-86l-171 537h-2v-449q0 -8 1 -14t8 -10.5t22 -7t43 -2.5v-53h-271v52q29 0 44.5 3.5t23 8.5t8.5 11.5t1 12.5v509q0 3 -1 7t-8 7.5
t-22 6.5t-42 3v49h280z" />
    <glyph glyph-name="partialdiff" unicode="&#x2202;" horiz-adv-x="1202" 
d="M819 524q-4 45 -21.5 85.5t-46.5 70.5t-68.5 48t-86.5 18q-57 0 -105.5 -27t-84 -74.5t-56 -113t-20.5 -142.5q0 -133 51.5 -205t148.5 -72q60 0 111 32.5t89 88.5t61 131t28 160zM534 883q68 0 122.5 -19t95 -48t67.5 -62.5t40 -61.5q5 33 6.5 71t1.5 67q0 96 -17.5 176
t-51 137.5t-82.5 89.5t-113 32t-114 -11t-87.5 -26.5t-64 -32.5t-44.5 -28q-6 11 -16 26.5t-19.5 32t-18.5 32.5t-13 28q13 21 43 45t76 44.5t107 33.5t135 13q117 0 213 -47t165 -134t106.5 -211.5t37.5 -280.5q0 -168 -44.5 -309t-123.5 -243t-187.5 -159t-237.5 -57
q-103 0 -183 36.5t-135 96.5t-84 137t-29 158q0 100 34 186.5t94.5 150.5t142.5 100.5t178 36.5z" />
    <glyph glyph-name="Delta" unicode="&#x2206;" horiz-adv-x="1562" 
d="M55 142l551 1260h354l546 -1261v-141h-1451v142zM1163 209l-275 680q-14 33 -32 77.5t-35 89t-31.5 82.5t-21.5 57h-12q-4 -13 -16 -47t-27.5 -76t-31.5 -85.5t-29 -76.5l-278 -701h789z" />
    <glyph glyph-name="product" unicode="&#x220f;" horiz-adv-x="1652" 
d="M1602 1410v-149h-218v-1421q13 -6 33.5 -9.5t70.5 -3.5v-104h-460v104q24 0 40.5 1t28 2.5t19 4t13.5 5.5v1421h-610v-1421q7 -3 15 -5.5t19 -4t27.5 -2.5t41.5 -1v-104h-459v104q24 0 40.5 1t28 2.5t19.5 4t15 5.5v1421h-219v149h1555z" />
    <glyph glyph-name="minus" unicode="&#x2212;" horiz-adv-x="1537" 
d="M1348 539h-1161v198h1161v-198z" />
    <glyph glyph-name="uni2215" unicode="&#x2215;" horiz-adv-x="368" 
d="M567 1375h171l-934 -1375h-171z" />
    <glyph glyph-name="uni2219" unicode="&#x2219;" horiz-adv-x="743" 
d="M565 847v-300h-389v300h389z" />
    <glyph glyph-name="radical" unicode="&#x221a;" horiz-adv-x="1345" 
d="M1367 1633q-1 -7 -4.5 -27t-8 -43t-8 -43t-4.5 -27q-3 0 -10 4t-15.5 9t-15.5 9t-10 4q-134 -424 -273 -846.5t-276 -845.5h-150l-346 874l-148 -57l-38 109l336 127q27 -72 58 -155t62 -164t58 -154.5t47 -125.5q21 -30 41 -56.5t40 -58.5q10 18 29.5 74t46 138.5
t59 186.5t67.5 217.5t71 232t70.5 230t65.5 211.5t56 177h200z" />
    <glyph glyph-name="infinity" unicode="&#x221e;" horiz-adv-x="1679" 
d="M841 705q35 53 72 98.5t79.5 78.5t93 52t111.5 19q67 0 126 -27.5t103 -76.5t69.5 -116t25.5 -146q0 -84 -25 -153t-69 -118t-103 -75.5t-126 -26.5q-46 0 -89.5 12.5t-86.5 41.5t-87 76.5t-90 116.5q-39 -58 -78.5 -104t-83 -78.5t-92 -49.5t-104.5 -17q-68 0 -128 28
t-105 77t-71 116t-26 146q0 82 24.5 150.5t68 118t104 77t131.5 27.5q55 0 103 -16.5t91 -48t83 -77.5t79 -105zM766 603q-63 93 -129 144t-152 51q-47 0 -86 -16.5t-67 -45.5t-43 -69.5t-15 -88.5q0 -45 15 -84.5t42 -69t64 -46t81 -16.5t83 17t74.5 48t68 75.5t64.5 100.5
zM916 558q69 -100 136.5 -145t145.5 -45q47 0 85 17.5t65 47t42 68.5t15 82q0 48 -15 89t-41.5 70.5t-63.5 46.5t-80 17q-44 0 -82.5 -19t-74 -52t-68.5 -78.5t-64 -98.5z" />
    <glyph glyph-name="integral" unicode="&#x222b;" horiz-adv-x="1142" 
d="M506 989q19 100 56 167.5t89 108.5t119 58.5t147 17.5q40 0 83 -5t92 -14l-45 -228h-72q0 42 -19.5 62.5t-51.5 20.5q-30 0 -51 -10t-36 -31.5t-25.5 -54.5t-19.5 -79l-176 -900q-24 -124 -53 -218.5t-72.5 -158t-105.5 -96t-151 -32.5q-54 0 -106 4t-117 13l43 247h75
q0 -17 2 -32.5t8.5 -27.5t18.5 -19t31 -7q30 0 51.5 13t39.5 46.5t33.5 91t32.5 146.5z" />
    <glyph glyph-name="approxequal" unicode="&#x2248;" horiz-adv-x="1488" 
d="M1357 796q-86 -86 -174 -129.5t-178 -43.5q-57 0 -118.5 18.5t-141.5 52.5q-38 15 -72.5 28t-66 22.5t-61 15.5t-58.5 6q-80 0 -152 -39.5t-158 -112.5l-52 133q40 39 85 70.5t91.5 54.5t94.5 35.5t95 12.5q64 0 129 -18.5t137 -48.5q41 -19 74.5 -33t62.5 -23t55 -13.5
t52 -4.5q40 0 76.5 8.5t73 26.5t74.5 46t80 67zM1357 419q-88 -84 -172.5 -127.5t-181.5 -43.5q-57 0 -119 18t-140 50q-75 31 -137.5 51.5t-118.5 20.5q-42 0 -79.5 -10t-75 -29.5t-75.5 -47.5t-81 -65l-52 134q83 79 177 126.5t189 47.5q65 0 130 -19t136 -49
q37 -16 69.5 -30t62.5 -24t58 -16t56 -6q39 0 74.5 9t72 27.5t74.5 47.5t81 69z" />
    <glyph glyph-name="notequal" unicode="&#x2260;" horiz-adv-x="1488" 
d="M989 859h317v-149h-399l-167 -263h566v-146h-649l-183 -279l-118 73l134 206h-310v146h393l166 263h-559v149h641l182 276l118 -75z" />
    <glyph glyph-name="lessequal" unicode="&#x2264;" horiz-adv-x="1488" 
d="M405 760v-2l898 -329v-162l-1119 421l3 144l1115 419v-162zM1303 15h-1119v151h1119v-151z" />
    <glyph glyph-name="greaterequal" unicode="&#x2265;" horiz-adv-x="1488" 
d="M1302 686l-1115 -419v162l897 329v2l-898 329v162l1116 -419v-146zM1298 15h-1113v151h1113v-151z" />
    <glyph glyph-name="lozenge" unicode="&#x25ca;" horiz-adv-x="1198" 
d="M688 1523l452 -891l-489 -871h-141l-455 871l489 891h144zM541 1198l-305 -563l291 -570l67 -130l64 130l301 565l-286 568l-61 135z" />
    <glyph glyph-name="fi" unicode="&#xfb01;" horiz-adv-x="1405" 
d="M1236 254q0 -31 4.5 -49t17 -27.5t35.5 -12.5t60 -3v-162q-34 0 -75.5 0.5t-84 0.5t-82 0.5t-69.5 0.5q-36 0 -67 -0.5t-59 -0.5t-55 -0.5t-55 -0.5v162q42 0 66.5 2.5t37.5 12t17 27.5t4 50v438q0 20 -6.5 31.5t-20.5 16.5t-35.5 6.5t-50.5 1.5h-317v-509
q0 -29 11 -44.5t31.5 -23t50.5 -8.5t69 -1v-162q-59 0 -120 1q-52 0 -113 0.5t-117 0.5q-40 0 -84 -0.5t-81 -0.5q-43 -1 -85 -1v77v29t0.5 26t0.5 20v10q40 0 65.5 2t40 10t20 24t5.5 44v506h-142v160h142v137q0 55 22.5 97.5t62 75t93 55t116 37t130.5 21t136 6.5
q93 0 180 -14.5t154.5 -40t108 -60t40.5 -73.5q0 -56 -46.5 -82t-126.5 -26q-32 0 -58.5 2.5t-48 9.5t-36.5 20t-22 33q-9 21 -29.5 37t-46 27.5t-53.5 17t-53 5.5q-110 0 -163.5 -35t-53.5 -122v-128h317q39 0 76 -0.5t72 -0.5q65 0 132.5 1t137.5 4v-658z" />
    <glyph glyph-name="fl" unicode="&#xfb02;" horiz-adv-x="1412" 
d="M1240 265q0 -32 5 -52t18.5 -31t37 -15.5t60.5 -4.5v-162h-67t-67.5 0.5t-72.5 1t-81 0.5q-80 0 -141 -1t-123 -1v162q47 0 72.5 6t37.5 20.5t14 38.5t2 60v748q0 48 -1.5 75.5t-4 42t-6.5 18.5t-9 4h-244q-57 0 -90.5 -15.5t-51 -43.5t-22.5 -67.5t-5 -86.5v-54h213
v-160h-213v-509q0 -29 11 -44.5t31.5 -23t50.5 -8.5t69 -1v-162q-59 0 -120 1q-52 0 -113 0.5t-117 0.5q-40 0 -84 -0.5t-81 -0.5q-43 -1 -85 -1v77v29t0.5 26t0.5 20v10q40 0 65.5 2t40 10t20 24t5.5 44v506h-142v160h142v63q0 186 110.5 276t327.5 90q75 0 151.5 -4
t153 -8.5t152 -8t150.5 -3.5v-1048z" />
    <glyph glyph-name="NULL" horiz-adv-x="0" 
 />
    <glyph glyph-name="twosuperior" horiz-adv-x="905" 
d="M802 653h-730v52q0 74 32.5 133t82 107t106.5 85.5t106.5 67t82 53.5t32.5 44t-18.5 29.5t-50.5 9.5q-35 0 -51.5 -11t-22.5 -24t-6 -24t-1 -11v1l-264 2q0 53 18 99t60 80.5t111.5 54.5t173.5 20q81 0 148 -17t115 -48t74.5 -75.5t26.5 -98.5q0 -46 -18.5 -81.5
t-48.5 -63t-68.5 -48t-78.5 -38t-79 -32t-69.5 -30t-49.5 -32.5t-20 -38h164q14 0 22.5 1t13.5 7t7 18.5t2 35.5h198v-228z" />
    <glyph glyph-name="onesuperior" horiz-adv-x="905" 
d="M222 879h124v284q-40 -12 -64.5 -17t-35.5 -5h-12t-12 1v186q65 1 110 10.5t75.5 27t49.5 42t33 55.5h132v-584h122v-181h-522v181z" />
    </font>
</defs>
</svg>
