<?xml version="1.0" standalone="no"?>
<!DOCTYPE svg PUBLIC "-//W3C//DTD SVG 1.1//EN" "http://www.w3.org/Graphics/SVG/1.1/DTD/svg11.dtd" >
<svg>
<metadata>
Created by FontForge 20090914 at Mon May 23 16:17:52 2016
 By www-data
Copyright (C) 1993; Type Market Ltd. Moscow, 119136, Box 20; phone:(095)1427712; Created by A.Kustov
</metadata>
<defs>
<font id="Mistral" horiz-adv-x="393" >
  <font-face 
    font-family="Mistral"
    font-weight="400"
    font-stretch="normal"
    units-per-em="1000"
    panose-1="0 0 0 0 0 0 0 0 0 0"
    ascent="800"
    descent="-200"
    x-height="230.001"
    cap-height="527.999"
    bbox="-23.9932 -263.999 918.001 744"
    underline-thickness="50"
    underline-position="-75"
    unicode-range="U+0020-U+2122"
  />
<missing-glyph horiz-adv-x="744" 
d="M46 0v744h652v-744h-652zM652 46v652h-560v-652h560z" />
    <glyph glyph-name=".notdef" horiz-adv-x="744" 
d="M46 0v744h652v-744h-652zM652 46v652h-560v-652h560z" />
    <glyph glyph-name="space" unicode=" " 
 />
    <glyph glyph-name="exclam" unicode="!" horiz-adv-x="244" 
d="M135 131c0 10.667 1.33105 23.666 3.99805 38.999s6 26.333 10 33c0 7.33301 1 17.666 3 30.999s4 22 6 26c4.66699 10.667 8.33398 27.834 11.001 51.501l7 63.5c2 4.66699 4.66699 17.5 8 38.5s5.5 35.667 6.5 44s3.33301 21.333 7 39s5.5 29.5 5.5 35.5
c0 11.333 -3.66699 17 -11 17c-9.33301 0 -18.833 -3.33301 -28.5 -10s-18.5 -14.334 -26.5 -23.001c-12.667 -3.33301 -21.334 -9.16602 -26.001 -17.499s-7 -24.833 -7 -49.5c0 -11.333 -1 -21.5 -3 -30.5s-4 -18.833 -6 -29.5c0 -6.66699 4.33301 -10 13 -10
c2 -5.33301 3 -11.666 3 -18.999c0 -11.333 -1.33301 -22.833 -4 -34.5s-5 -18.5 -7 -20.5c0.666992 -6 0.333984 -15.333 -0.999023 -28c-4.66699 -40.667 -7 -66 -7 -76c-3.33301 -6 -5.66602 -12.833 -6.99902 -20.5s-2 -15.167 -2 -22.5c0 -10 1 -17 3 -21
c0 -12.667 -0.666992 -23.667 -2 -33s-1.33301 -15.333 0 -18c6.66699 -2.66699 16 2 28 14s19.667 22.333 23 31zM66.998 -21.001c4.66699 -1.33301 12.335 -1.16797 23.002 0.499023l29 4.5c7.33301 0 11.5 4.66699 12.5 14s2.16699 18.333 3.5 27
c2.66699 12 1 20.333 -5 25s-14 7 -24 7c-6.66699 0 -11.334 -0.666992 -14.001 -2c-8 -5.33301 -15 -11.166 -21 -17.499s-10.667 -12.833 -14 -19.5c-2.66699 -2.66699 -2.33398 -9.66699 0.999023 -21s6.33301 -17.333 9 -18z" />
    <glyph glyph-name="quotedbl" unicode="&#x22;" horiz-adv-x="219" 
d="M37 475c-2 0 -3.5 -3.66406 -4.5 -10.9971s-1.5 -15 -1.5 -23c0 -6.66699 -4.33301 -25 -13 -55l-10 -31c-2.66699 -11.333 1.33301 -17 12 -17c10 0 20.333 10.167 31 30.5s16 36.166 16 47.499c3.33301 0.666992 10.333 15.334 21 44.001
c6.66699 17.333 11.334 30 14.001 38s4 12.667 4 14c0 3.33301 -2.5 6.16602 -7.5 8.49902s-8.5 3.83301 -10.5 4.5c-7.33301 3.33301 -11.333 4.66602 -12 3.99902c-18 -6.66699 -31 -16.334 -39 -29.001c-2 -3.33301 -3 -7 -3 -11s0.166992 -6.83301 0.5 -8.5
s1.16602 -3.5 2.49902 -5.5zM147 475.003c-2 0 -3.49902 -3.66406 -4.49902 -10.9971s-1.5 -15 -1.5 -23c0 -6 -2.83301 -18.167 -8.5 -36.5l-15.5 -49.5c-0.666992 -2 -1 -4 -1 -6v-4c0 -4.66699 3.66699 -7 11 -7c10 0 20.667 10.167 32 30.5s17 36.166 17 47.499
c2.66699 0.666992 8 11 16 31l19 49c2.66699 9.33301 4 14.666 4 15.999c0 3.33301 -2.66699 6 -8 8c-4 2.66699 -7 4.33398 -9 5.00098c-6.66699 3.33301 -10.667 4.66602 -12 3.99902c-19.333 -6.66699 -32.333 -16.334 -39 -29.001c-2 -3.33301 -3 -7 -3 -11
s0.166992 -6.83301 0.5 -8.5s1.16602 -3.5 2.49902 -5.5z" />
    <glyph glyph-name="numbersign" unicode="#" 
 />
    <glyph glyph-name="dollar" unicode="$" horiz-adv-x="332" 
d="M137 -12c0 -6 -0.337891 -11.0039 -1.00488 -15.0039l-2 -12c0 -6.66699 6.66699 -10 20 -10c2 4 3.33301 12.167 4 24.5s2 20.5 4 24.5c11.333 6 21 11.667 29 17s17.333 12.833 28 22.5l31 29c10 9.66699 16.167 15.167 18.5 16.5s6 2.83301 11 4.5
s8.83301 5.16699 11.5 10.5c0 7.33301 -0.5 12.5 -1.5 15.5s-5.16699 5.5 -12.5 7.5c0 35.333 -15 67.333 -45 96l-38 35c-1.33301 6 -0.5 24.333 2.5 55s6.5 63 10.5 97c14.667 2 32.834 8.5 54.501 19.5s36.834 22.167 45.501 33.5c6 10 9 20.667 9 32
c0 12.667 -4.33301 23.334 -13 32.001c-3.33301 2 -7.33301 3 -12 3c-7.33301 0 -18 -3 -32 -9c-20.667 -8.66699 -34 -13.667 -40 -15c0.666992 8.66699 1.33398 16.5 2.00098 23.5s1.66699 15.5 3 25.5c0 3.33301 -1 6 -3 8l-14 2c-8.66699 0 -13 -1.33301 -13 -4
c-1.33301 -5.33301 -3 -20.333 -5 -45c-2 -13.333 -3 -22.666 -3 -27.999l-55 -36c-15.333 -10.667 -29 -24 -41 -40c-11.333 -13.333 -19.666 -26.666 -24.999 -39.999s-8 -26 -8 -38c0 -14 3.33301 -28.333 10 -43c2.66699 -6.66699 9 -17.667 19 -33
c5.33301 -6.66699 18 -19 38 -37c16.667 -14.667 26.667 -25 30 -31c0 -16 -0.666992 -32 -2 -48c-3.33301 -39.333 -5 -62 -5 -68l-72 -31c-30.667 -15.333 -44.667 -29 -42 -41c2.66699 -9.33301 8 -16.166 16 -20.499s17.667 -6.5 29 -6.5
c10.667 0 21.334 1.66699 32.001 5s19.667 7.33301 27 12zM210.995 108.996c-0.666992 -10 -4.99902 -17 -12.999 -21c-11.333 -3.33301 -20 -6 -26 -8c0 6 1 16 3 30c4.66699 32 7 48.667 7 50l12 -12l10 -18c5.33301 -10 7.66602 -17 6.99902 -21zM177.996 399.996
c11.333 0 19.667 -3.66797 25 -11.001s8 -16.666 8 -27.999c0 -16.667 -4 -33 -12 -49s-16.333 -24 -25 -24c-3.33301 0 -6 1 -8 3c-7.33301 7.33301 -14 17.666 -20 30.999s-9 26.333 -9 39s3 22.334 9 29.001s16.667 10 32 10z" />
    <glyph glyph-name="percent" unicode="%" horiz-adv-x="488" 
d="M33 248c3.33301 -2 7.33301 -7.66895 12 -17.002s12.334 -14.666 23.001 -15.999c-0.666992 -1.33301 3.16602 -3.83301 11.499 -7.5s16.166 -5.5 23.499 -5.5c8.66699 0 15.334 2.33301 20.001 7c9.33301 0 19.333 7.33301 30 22l42 62
c7.33301 29.333 13.5 56.833 18.5 82.5s7.5 45.167 7.5 58.5c1.33301 8 2 13.667 2 17c0 19.333 -5.5 37.333 -16.5 54s-24.5 25 -40.5 25c-11.333 0 -22.333 -5.33301 -33 -16c0.666992 7.33301 -3 11 -11 11s-16.5 -2.66699 -25.5 -8s-13.167 -11 -12.5 -17
c-8.66699 -17.333 -18.834 -43.5 -30.501 -78.5s-19.167 -61.5 -22.5 -79.5c-1.33301 -2.66699 -1.66602 -8.66699 -0.999023 -18s1 -14.666 1 -15.999c0 -7.33301 -0.666992 -12.333 -2 -15c2.66699 -5.33301 4 -14 4 -26v-19zM141 -20.002
c12.667 38.667 36.334 89.666 71.001 152.999c42 76.667 65.667 121 71 133c34 54.667 59 97.334 75 128.001c27.333 53.333 43.333 100.333 48 141c5.33301 5.33301 8 11 8 17v6c-1.33301 2.66699 -2 4.33398 -2 5.00098c-6 -1.33301 -10.833 -2.5 -14.5 -3.5
s-10.5 -5.16699 -20.5 -12.5c-8.66699 3.33301 -19 -4.33398 -31 -23.001s-18 -32.667 -18 -42l-15 -39l-73 -142l-41 -76c-31.333 -58.667 -47 -96.667 -47 -114c-16.667 -22.667 -30.334 -44.334 -41.001 -65.001c-14 -28 -21 -51.333 -21 -70
c0 -13.333 3.33301 -23.666 10 -30.999c1.33301 -2.66699 4 -4 8 -4c5.33301 0 11 3 17 9s11.333 16 16 30zM414 20.9971c12 20 20.999 36.501 26.999 49.501s10 26.5 12 40.5c4 8 7.83301 22 11.5 42s5.5 38.667 5.5 56c0 22 -2.16699 40.333 -6.5 55
s-11.666 25.167 -21.999 31.5s-19.166 9.5 -26.499 9.5c-9.33301 0 -17.333 -3 -24 -9c-2.66699 -2.66699 -5.33398 -6.33398 -8.00098 -11.001c0 8.66699 -5.33301 13 -16 13c-18 0 -29 -9 -33 -27c-13.333 -19.333 -23.333 -44.333 -30 -75l-27 -133
c3.33301 -4 5.33301 -11.833 6 -23.5s2 -19.5 4 -23.5c8.66699 -16 17.5 -26.333 26.5 -31s23.167 -8 42.5 -10c12.667 2.66699 23.5 7 32.5 13s17.5 17 25.5 33zM165.999 339.998c0 -9.33301 -3.33301 -19.502 -10 -30.502s-13.667 -21.833 -21 -32.5l-14 -7
c-4 -4.66699 -8 -7 -12 -7c-7.33301 0 -13.666 4.33301 -18.999 13s-8 18 -8 28c0 6.66699 2 12 6 16c-1.33301 8 -2 14.667 -2 20c0 9.33301 1.5 23.5 4.5 42.5s4.83301 30.833 5.5 35.5c3.33301 14.667 7.66602 24.334 12.999 29.001l32 16c8 0 13.167 -0.666992 15.5 -2
s5.5 -6.66602 9.5 -15.999c2.66699 -2 5 -8.33301 7 -19s3 -20.667 3 -30c0 -11.333 -1.16699 -22.5 -3.5 -33.5s-4.5 -18.5 -6.5 -22.5zM423.999 140.996c-2.66699 -26 -11.833 -50.167 -27.5 -72.5s-29.834 -34.166 -42.501 -35.499c-5.33301 2 -10 7.16699 -14 15.5
s-6 17.5 -6 27.5c0 4 1.33301 10 4 18c-2 9.33301 -3 19.666 -3 30.999c0 18.667 1.83301 35.834 5.5 51.501s8.83398 28.5 15.501 38.5c-2 3.33301 3 7.5 15 12.5s22.333 7.16699 31 6.5c12 -2 18.667 -12.833 20 -32.5s2 -39.834 2 -60.501z" />
    <glyph glyph-name="ampersand" unicode="&#x26;" horiz-adv-x="436" 
d="M158 -23c10 0 20.501 2.83105 31.501 8.49805s16.833 11.834 17.5 18.501c4.66699 -0.666992 14 11.333 28 36c6.66699 12 13 17.667 19 17c35.333 0 62.666 2.33301 81.999 7c31.333 7.33301 53.666 21.666 66.999 42.999c6.66699 4.66699 13.334 9.83398 20.001 15.501
s9 13.5 7 23.5l-22 -4c-21.333 -10.667 -35 -17 -41 -19c-2.66699 0.666992 -6.66699 1 -12 1s-14.833 -0.666992 -28.5 -2s-21.167 -2 -22.5 -2c-9.33301 0 -16.666 1.5 -21.999 4.5s-8 8.83301 -8 17.5l2 12c-0.666992 3.33301 -1 9 -1 17c0 9.33301 0.5 22 1.5 38
s1.5 24.333 1.5 25c6.66699 10.667 11 18.334 13 23.001l22 54l52 95c12.667 23.333 19 38.666 19 45.999c0 6 -3.33301 9 -10 9c-4.66699 0 -10 -1.33301 -16 -4c-11.333 2.66699 -21 -1.33301 -29 -12l-16 -23l-45.5 -57c-9 -11.333 -15.5 -15 -19.5 -11
c-6.66699 6.66699 -14.334 21.5 -23.001 44.5s-17 36.5 -25 40.5l-34 33c-10 8 -25 14.667 -45 20c-6.66699 3.33301 -13.667 5 -21 5c-18.667 0 -35.167 -8.16699 -49.5 -24.5s-21.5 -40.5 -21.5 -72.5c0 -10 0.333008 -17.667 1 -23
c-3.33301 -3.33301 -5 -9.66602 -5 -18.999c0 -10.667 2 -24.167 6 -40.5l8 -32.5c0 -36 20.333 -76.333 61 -121l58 -59c0 -10 -1.5 -21 -4.5 -33l-8.5 -33c0 -3.33301 -1.33301 -10 -4 -20s-4 -17.667 -4 -23c0 -12.667 7 -19 21 -19zM219.001 253.998
c0.666992 -2.66699 -1.83301 -8.50293 -7.5 -17.5029s-7.83398 -15.5 -6.50098 -19.5l-23 -39c-12.667 -2 -33 16.333 -61 55s-42 71.334 -42 98.001c0 5.33301 0.333008 9 1 11c1.33301 4 0.166016 11.333 -3.50098 22s-5.5 20 -5.5 28c0 8.66699 0.5 15.334 1.5 20.001
s3.5 12 7.5 22c1.33301 7.33301 4.83301 13.5 10.5 18.5s12.834 7.5 21.501 7.5s17.834 -3.5 27.501 -10.5s19.167 -18.167 28.5 -33.5c2 -1.33301 10.667 -14 26 -38c6.66699 -10 13 -18 19 -24c0 -6.66699 0.5 -14 1.5 -22s3.16699 -15.667 6.5 -23
c-3.33301 -8 -8.33301 -17 -15 -27c-11.333 -16 -16 -31.333 -14 -46c1.33301 0 5 3.33301 11 10s11.333 9.33398 16 8.00098z" />
    <glyph glyph-name="quotesingle" unicode="'" horiz-adv-x="174" 
d="M129 361c4 15.333 10.002 31.9971 18.002 49.9971c21.333 47.333 33 74.333 35 81c1.33301 2 2.5 4.16699 3.5 6.5s1.5 4.83301 1.5 7.5c0 5.33301 -2.5 9.66602 -7.5 12.999s-12.5 6 -22.5 8c-10.667 -3.33301 -19.167 -6.16602 -25.5 -8.49902
s-10.5 -5.16602 -12.5 -8.49902c0 -3.33301 -0.333008 -9.16602 -1 -17.499s-1 -14.166 -1 -17.499l-6 -46c-4.66699 -24.667 -12.334 -51 -23.001 -79c-2 -4.66699 -2.33301 -8.16699 -1 -10.5s3.66602 -3.5 6.99902 -3.5c6 0 13.167 2.83301 21.5 8.5
s12.833 11.167 13.5 16.5z" />
    <glyph glyph-name="parenleft" unicode="(" horiz-adv-x="244" 
d="M168 -45c9.33301 -3.33301 17.999 -5.00098 25.999 -5.00098c11.333 0 17 5.66699 17 17s-6 29.333 -18 54c-15.333 32.667 -23.666 50.334 -24.999 53.001c-6 14.667 -10.333 29.667 -13 45s-4 32 -4 50c0 40.667 7.66699 86.334 23 137.001c8 26.667 23.333 68 46 124
c2.66699 5.33301 8.16699 19.166 16.5 41.499l16 43c2.33301 6.33301 3.5 10.5 3.5 12.5c0 6 -2.33301 9 -7 9c-9.33301 0 -21.5 -7.83301 -36.5 -23.5s-28.167 -36.167 -39.5 -61.5c-25.333 -47.333 -45.166 -95.333 -59.499 -144s-21.5 -96 -21.5 -142
c0 -28 2.66699 -54.167 8 -78.5s12.666 -47.5 21.999 -69.5c14.667 -35.333 30 -56 46 -62z" />
    <glyph glyph-name="parenright" unicode=")" horiz-adv-x="244" 
d="M124 527c-11.333 4 -20.332 5.99805 -26.999 5.99805c-12 0 -18 -6 -18 -18c0 -11.333 6 -29.333 18 -54c8.66699 -18 17.667 -35.667 27 -53c5.33301 -12.667 9.33301 -27.167 12 -43.5s4 -32.166 4 -47.499c0 -42 -8 -88.667 -24 -140
c-8 -25.333 -23.667 -66.666 -47 -123.999c-1.33301 -3.33301 -7.33301 -21 -18 -53c-2.66699 -7.33301 -5.83398 -15.5 -9.50098 -24.5s-5.5 -16.167 -5.5 -21.5c0 -6 2.66699 -9 8 -9c8.66699 0 20.5 7.83301 35.5 23.5s27.833 35.834 38.5 60.501
c25.333 48.667 45 97 59 145s21 95 21 141c0 29.333 -3.5 58.666 -10.5 87.999s-16.333 56 -28 80s-23.5 38.667 -35.5 44z" />
    <glyph glyph-name="asterisk" unicode="*" horiz-adv-x="314" 
d="M220 279c-0.666992 2.66699 -0.998047 5.66406 -0.998047 8.99707c-4 12 -6.5 21.333 -7.5 28s-1.5 16.334 -1.5 29.001c0 11.333 -0.666992 19.333 -2 24c20 -11.333 35.833 -20 47.5 -26s21.167 -9 28.5 -9c12 0 20.667 6 26 18c0 4 -3.66699 7.33301 -11 10
c-12.667 4.66699 -20.667 7.66699 -24 9c-11.333 5.33301 -21.833 10 -31.5 14l-19.5 8c2 3.33301 13 12 33 26s33.667 24.667 41 32c6.66699 4 10 9.33301 10 16c0 7.33301 -3.33301 14 -10 20c-4 3.33301 -8 5 -12 5c-5.33301 0 -9 -4 -11 -12l-63 -60
c-0.666992 2 -1 5.33301 -1 10c0 5.33301 2 19 6 41c2 10.667 3 19.334 3 26.001c0 18.667 -7.66699 28 -23 28c-7.33301 -2.66699 -12.5 -4.5 -15.5 -5.5s-4.5 -2.83301 -4.5 -5.5c2 -15.333 3 -34 3 -56v-24c-0.666992 -5.33301 -1 -9.33301 -1 -12
c-4 2 -13.667 9.33301 -29 22s-24.333 19.667 -27 21c-2.66699 8 -8.66699 15.667 -18 23c-5.33301 5.33301 -10.333 5.16602 -15 -0.500977s-7 -13.5 -7 -23.5c0 -10.667 3.33301 -18.334 10 -23.001c12.667 -6.66699 27.167 -15.334 43.5 -26.001s26.5 -18 30.5 -22
c-11.333 -7.33301 -25.333 -15.666 -42 -24.999s-27.667 -14.666 -33 -15.999s-8 -4.66602 -8 -9.99902c0 -11.333 7.66699 -17 23 -17c3.33301 0 7.66602 0.666992 12.999 2s13.666 6.33301 24.999 15c14.667 11.333 26 19 34 23
c0.666992 -3.33301 0.5 -11.666 -0.5 -24.999s-1.5 -21 -1.5 -23c0 -14 1.5 -24.833 4.5 -32.5s9.16699 -11.5 18.5 -11.5c5.33301 0 12 2 20 6z" />
    <glyph glyph-name="plus" unicode="+" 
 />
    <glyph glyph-name="comma" unicode="," horiz-adv-x="156" 
d="M51 51l-5.99902 -35c-2 -8 -3.33301 -14.667 -4 -20c-3.33301 -14 -7.33301 -28.667 -12 -44s-7 -24.666 -7 -27.999c0 -4 2.66699 -6 8 -6c6 0 13.667 4 23 12c6 5.33301 9.33301 9.66602 10 12.999c0 6.66699 2.83301 16.667 8.5 30s8.5 21 8.5 23
c2.66699 0 5.5 3.83301 8.5 11.5l10 25l14 35.5c5.66699 14.667 7.83398 23.334 6.50098 26.001l-13 10c-8 1.33301 -13 2 -15 2c-8.66699 0 -15.834 -2.33301 -21.501 -7s-11.834 -12.334 -18.501 -23.001c-0.666992 -2 -1 -5.33301 -1 -10s0.333008 -9.66699 1 -15z" />
    <glyph glyph-name="hyphen" unicode="-" horiz-adv-x="227" 
d="M151 141c7.33301 -2.66699 14.334 -4.00293 21.001 -4.00293c10.667 0 18.5 3.33301 23.5 10s7.5 15 7.5 25c0 6.66699 -1.33301 12.334 -4 17.001s-6.33398 6.66699 -11.001 6c-18.667 0 -37.167 -0.166992 -55.5 -0.5s-36.5 -0.5 -54.5 -0.5
c-12.667 0 -21 0.333008 -25 1c-2.66699 0 -7.33398 -4.83301 -14.001 -14.5s-11 -14.5 -13 -14.5c-5.33301 -5.33301 -8 -11.666 -8 -18.999c0 -6.66699 4.66699 -10 14 -10c6.66699 0 17.167 -0.333008 31.5 -1s25.166 -1 32.499 -1c10.667 0 20.334 0.333008 29.001 1
s17.334 2.33398 26.001 5.00098z" />
    <glyph glyph-name="period" unicode="." horiz-adv-x="156" 
d="M82 0c12.667 2 24.332 6.66797 34.999 14.001c4.66699 0 11.334 4 20.001 12s13 13.667 13 17c0 8 -3 15.333 -9 22c-8 8.66699 -19.333 13 -34 13c-2.66699 2.66699 -5.66699 4 -9 4c-4 0 -8.16699 -2.33301 -12.5 -7l-13.5 -14c-14 -13.333 -21 -24 -21 -32
c0 -4.66699 1.33301 -8.33398 4 -11.001s11.667 -8.66699 27 -18z" />
    <glyph glyph-name="slash" unicode="/" horiz-adv-x="314" 
d="M112 -6c-2.66699 19.333 2.66602 43.333 15.999 72c10.667 22.667 25.334 46.334 44.001 71.001l122 192c49.333 82 74 139 74 171c7.33301 11.333 11 19 11 23s-3 6 -9 6c-4.66699 0 -11.334 -1 -20.001 -3c-22.667 -5.33301 -36.334 -8 -41.001 -8
c-11.333 -20 -23.333 -46.667 -36 -80c-15.333 -41.333 -25.333 -67 -30 -77c-7.33301 -13.333 -25.666 -44.333 -54.999 -93l-56 -95c-25.333 -42.667 -43.666 -74.334 -54.999 -95.001c-2 -2 -6 -13 -12 -33s-9 -36.333 -9 -49c0 -16.667 5 -25 15 -25
s23.667 7.66699 41 23z" />
    <glyph glyph-name="zero" unicode="0" horiz-adv-x="332" 
d="M80 -21c10.667 -5.33301 20.666 -9.33301 29.999 -12s17 -4 23 -4c4.66699 0 11 1.33301 19 4c34.667 8 70 55 106 141c32.667 78.667 49 141 49 187c0 10.667 0.833008 26.5 2.5 47.5s2.5 34.5 2.5 40.5c0 27.333 -3.66699 50 -11 68
c-9.33301 23.333 -25.666 42.333 -48.999 57c-17.333 11.333 -33 17 -47 17c-22.667 0 -52 -19.333 -88 -58c3.33301 10 5 17.333 5 22c0 12.667 -10 19 -30 19c-19.333 -32 -37.333 -79.667 -54 -143c-10 -39.333 -19.333 -84.333 -28 -135c0 -15.333 1 -41 3 -77
s3 -62.333 3 -79c0 -22.667 7.5 -44.167 22.5 -64.5s28.833 -30.5 41.5 -30.5zM216.999 129c-19.333 -34 -35.832 -57.835 -49.499 -71.502s-26.167 -20.5 -37.5 -20.5c-18.667 0 -32.667 22.333 -42 67c-2.66699 13.333 -5.33398 32.333 -8.00098 57s-4 50 -4 76
c0 34.667 2.5 62.834 7.5 84.501l14.5 61.5c18 32 45.333 48 82 48c24 0 44.167 -7.5 60.5 -22.5s24.5 -36.833 24.5 -65.5c-0.666992 -5.33301 -1 -9.66602 -1 -12.999c0 -15.333 -6 -51.333 -18 -108s-21.667 -87.667 -29 -93z" />
    <glyph glyph-name="one" unicode="1" horiz-adv-x="277" 
d="M97 -33c25.333 2.66699 49 34.335 71 95.002l25 73c22.667 89.333 39.5 158.166 50.5 206.499s19.5 95.833 25.5 142.5c0 8 -3.66699 17.167 -11 27.5s-16 15.5 -26 15.5c-11.333 0 -22.333 -6.33301 -33 -19c-19.333 -11.333 -36.666 -26 -51.999 -44l-44 -52
c-18.667 -18.667 -34.334 -35 -47.001 -49c-34.667 -38.667 -52 -64.334 -52 -77.001c0 -6.66699 5.66699 -9.66699 17 -9c9.33301 4.66699 17 9.83398 23 15.501s12 12.5 18 20.5c14.667 19.333 43 43.666 85 72.999l34 14c0 -58 -12 -131.333 -36 -220l-36 -129
l-22.5 -54.5c-5 -12.333 -7.5 -20.5 -7.5 -24.5c0 -5.33301 2.33301 -8 7 -8c2 0 5.66699 1 11 3z" />
    <glyph glyph-name="two" unicode="2" horiz-adv-x="319" 
d="M53 -23c23.333 -2 45.665 -3.00098 66.998 -3.00098c23.333 0 45 1.33301 65 4s43 8 69 16c12.667 -2 26.5 3.16699 41.5 15.5s22.5 23.5 22.5 33.5c0 6.66699 -5 10 -15 10c-8.66699 0 -37 -2.33301 -85 -7c-27.333 -2.66699 -46.666 -4 -57.999 -4
c-28 0 -49.333 3.66699 -64 11c4.66699 15.333 16.667 36.333 36 63l46 62c31.333 40.667 55 74.334 71 101.001c28.667 48 43 88.333 43 121c0 7.33301 -0.333008 12.666 -1 15.999c-8 32 -26 55.333 -54 70c-18 10 -47.667 18.667 -89 26c-4 0.666992 -10.333 1 -19 1
c-28.667 0 -54.167 -6 -76.5 -18s-35.833 -28.667 -40.5 -50c-2 -7.33301 -3 -15.333 -3 -24c0 -17.333 3 -33.666 9 -48.999s12.667 -23 20 -23c6 0 11 6.66699 15 20c0 11.333 1.33301 19.833 4 25.5s11 12.834 25 21.501c12 6 29.333 9 52 9c25.333 0 47.333 -4 66 -12
s29 -20.667 31 -38c0 -19.333 -7.33301 -42.666 -22 -69.999c-8 -14.667 -20.333 -33.667 -37 -57l-137 -170c-5.33301 -6 -10.666 -14 -15.999 -24c-8 -14.667 -12 -27.334 -12 -38.001c0 -10 3.33301 -18.333 10 -25s18.667 -11.334 36 -14.001z" />
    <glyph glyph-name="three" unicode="3" horiz-adv-x="308" 
d="M31 -39c28 0 56.001 5.99902 84.001 17.999c2.66699 1.33301 43.667 25.333 123 72c41.333 22 62 51.667 62 89c0 5.33301 -0.333008 9.33301 -1 12c-6.66699 27.333 -27.667 49 -63 65c-42.667 20 -66.667 33 -72 39l28 45c14 22 23.667 34.333 29 37
c2 6.66699 17.667 31.667 47 75c16 24 27 41.333 33 52c2.66699 20 -3.66602 35.667 -18.999 47s-37 17 -65 17c-33.333 0 -64.833 -2 -94.5 -6s-48.334 -9.83301 -56.001 -17.5s-15.5 -19.5 -23.5 -35.5s-12 -29.333 -12 -40c0 -13.333 5.33301 -20 16 -20l42 14.5
c14.667 5 28.667 8.66699 42 11s27 3.5 41 3.5c18 0 30 -1.16699 36 -3.5s8.33301 -4.83301 7 -7.5c-5.33301 -14 -20.5 -39 -45.5 -75s-46.833 -65 -65.5 -87c-11.333 -13.333 -17 -25.666 -17 -36.999c0 -16.667 16.333 -31.667 49 -45l85 -32c4.66699 -2 7 -4.66699 7 -8
c0 -14.667 -37 -43 -111 -85c-34.667 -20 -61.334 -34.333 -80.001 -43c-8 -6 -15 -11.667 -21 -17c-12.667 -10.667 -19 -19 -19 -25c0 -8.66699 11.333 -13 34 -13z" />
    <glyph glyph-name="four" unicode="4" horiz-adv-x="298" 
d="M167 25c0 -2.66699 -0.999023 -10.002 -2.99902 -22.002s-3 -21.667 -3 -29c0 -14.667 4 -25 12 -31c10 4.66699 17.833 10 23.5 16s9.5 12.333 11.5 19c6 2 11 24.833 15 68.5s9 70.167 15 79.5c2 6.66699 13.333 14 34 22c13.333 5.33301 26 11.666 38 18.999
c14 6 21 16.333 21 31c0 10.667 -3 16 -9 16l-33 -11c-12 -4 -23.333 -6 -34 -6l43 191c5.33301 2 8 5 8 9c0 10 -11 18.667 -33 26c-11.333 0 -19.333 -0.5 -24 -1.5s-8.33398 -4.16699 -11.001 -9.5s-9.66699 -38 -21 -98c-7.33301 -38.667 -14 -75.667 -20 -111
c-2.66699 -2.66699 -8 -4.66699 -16 -6s-17.333 -2 -28 -2c-6.66699 0 -16.667 0.333008 -30 1s-22.666 1 -27.999 1c-18 -2 -27 10.667 -27 38c0 32 12.667 81 38 147c9.33301 24.667 19.666 49.334 30.999 74.001s20 44.334 26 59.001c10.667 26.667 16 43.667 16 51
c4.66699 8.66699 7 15.334 7 20.001c0 6 -4 9 -12 9c-11.333 0 -26.666 -5.33301 -45.999 -16s-32.333 -21 -39 -31c-12.667 -35.333 -19.667 -56.333 -21 -63c1.33301 -5.33301 2.66602 -10.333 3.99902 -15l-36 -148c-4.66699 -17.333 -8.83398 -35.833 -12.501 -55.5
s-5.5 -37.167 -5.5 -52.5c0 -28.667 6.83301 -51.334 20.5 -68.001s37.167 -25 70.5 -25l52 5c6.66699 0.666992 11.334 -1.66602 14.001 -6.99902s4 -13.333 4 -24c0 -13.333 -1.5 -26.5 -4.5 -39.5s-5.5 -23.167 -7.5 -30.5z" />
    <glyph glyph-name="five" unicode="5" horiz-adv-x="306" 
d="M13 4c9.33301 -10.667 20.332 -17.833 32.999 -21.5s27.667 -5.5 45 -5.5c6 0 15 0.333008 27 1s20.667 1 26 1c36.667 4.66699 70 16 100 34c38 22 57 47.667 57 77c0 10.667 -2.33301 21.5 -7 32.5s-13 22.833 -25 35.5c-8.66699 10 -43 34.667 -103 74
c-50 32.667 -77.667 59.667 -83 81c-0.666992 5.33301 -1 9.33301 -1 12c0 17.333 5 34.333 15 51c7.33301 12 19 26 35 42c8.66699 2.66699 40.667 6 96 10c24 1.33301 40.833 4.33301 50.5 9s18.834 13.5 27.501 26.5s14.667 27.833 18 44.5c-16 4 -34.667 6 -56 6
c-7.33301 0 -18.666 -0.333008 -33.999 -1s-26.666 -1 -33.999 -1h-21c-6 1.33301 -10 2 -12 2c-4.66699 -2.66699 -11.834 -4.33398 -21.501 -5.00098s-21.834 -1 -36.501 -1c-11.333 2.66699 -25.333 -11.666 -42 -42.999c-13.333 -25.333 -25.333 -54.666 -36 -87.999
c-5.33301 -18 -8 -33.667 -8 -47c0 -36 16 -69.667 48 -101c10.667 -10 44.667 -35.667 102 -77c32 -26.667 48 -44.334 48 -53.001c0 -6.66699 -4.5 -13 -13.5 -19s-24.5 -13.667 -46.5 -23c-16 -7.33301 -40.333 -13.666 -73 -18.999
c-54 -8.66699 -81 -16.334 -81 -23.001c0 -3.33301 2 -7 6 -11z" />
    <glyph glyph-name="six" unicode="6" horiz-adv-x="292" 
d="M97 0c13.333 -6.66699 27.501 -12.1699 42.501 -16.5029s30.167 -6.5 45.5 -6.5s29.5 2.66699 42.5 8s24.833 14.333 35.5 27c7.33301 10 12.333 19.667 15 29s4 20 4 32c0 42.667 -23 88.667 -69 138c-36 38.667 -74.667 69.334 -116 92.001c26 38 57.333 79.333 94 124
l95 114c14 2.66699 21 6.33398 21 11.001c0 8 -10.667 12 -32 12c-8 0 -16.5 -1.33301 -25.5 -4s-17.167 -7 -24.5 -13c-66 -48 -118.667 -101.333 -158 -160c-46 -68.667 -69 -138.667 -69 -210c0 -15.333 1 -30.666 3 -45.999c10 -32 21.667 -57.5 35 -76.5
s33.666 -37.167 60.999 -54.5zM208.001 101.997c4.66699 -12 6.99902 -22.667 6.99902 -32c0 -17.333 -12.667 -26 -38 -26c-9.33301 0 -20.666 1 -33.999 3c-32 6.66699 -55.333 20.5 -70 41.5s-22 46.167 -22 75.5c0 20 3.66699 40.833 11 62.5s17 41.167 29 58.5
c4 0 7.83301 -5.33301 11.5 -16s7.5 -17 11.5 -19c10 -6.66699 25.667 -25 47 -55c26 -36.667 41.667 -67.667 47 -93z" />
    <glyph glyph-name="seven" unicode="7" horiz-adv-x="314" 
d="M141 -43c6.66699 0 13.0049 4.33301 19.0049 13c3.33301 5.33301 6.66602 8.66602 9.99902 9.99902c4 -2 8.33301 3 13 15l16 56c6 25.333 22 72.5 48 141.5s42 114.833 48 137.5c2.66699 11.333 4.5 20.666 5.5 27.999s1.5 15 1.5 23
c0 15.333 -2.83301 29.833 -8.5 43.5s-15.5 27.834 -29.5 42.501c-22 20 -58.833 40.167 -110.5 60.5s-94.834 30.5 -129.501 30.5c-5.33301 0 -12 -0.666992 -20 -2c0 -14.667 4 -31.667 12 -51c5.33301 -12.667 11 -25.334 17 -38.001c22 0 49.333 -3.16699 82 -9.5
s62.667 -15.166 90 -26.499c13.333 -6.66699 22.5 -12.5 27.5 -17.5s7.5 -10.167 7.5 -15.5c0 -2.66699 -0.833008 -5.5 -2.5 -8.5s-2.83398 -5.16699 -3.50098 -6.5c-14.667 -45.333 -30.334 -96.833 -47.001 -154.5s-30.334 -110.5 -41.001 -158.5
c-5.33301 -19.333 -9.83301 -37.166 -13.5 -53.499s-5.5 -28.5 -5.5 -36.5c0 -15.333 4.66699 -23 14 -23z" />
    <glyph glyph-name="eight" unicode="8" horiz-adv-x="281" 
d="M5 4c8.66699 -31.333 30.3301 -46.9971 64.9971 -46.9971h22c7.33301 2 12.333 3.33301 15 4c30.667 6.66699 56 18 76 34c24.667 19.333 38.334 43.666 41.001 72.999c0 11.333 -1.83301 25.166 -5.5 41.499s-9.5 28.5 -17.5 36.5c-16 8 -24 17 -24 27
c0 5.33301 2 12 6 20c24.667 24.667 45.334 48.667 62.001 72c22.667 32 38 63.333 46 94c0.666992 4 1 8.33301 1 13v11c0 38 -9.83301 70.833 -29.5 98.5s-48.167 46.167 -85.5 55.5c-4.66699 -4.66699 -12.667 -7 -24 -7c-8 0.666992 -13.667 1 -17 1
c-21.333 -6 -45 -19 -71 -39c-29.333 -22.667 -44 -43.334 -44 -62.001c0 -5.33301 0.666992 -9.33301 2 -12c15.333 0 37 5.33301 65 16c32.667 12.667 55 19.667 67 21s20.5 2.33301 25.5 3s9.16699 1 12.5 1c31.333 0 47 -12.667 47 -38c0 -4 -1.33301 -12.667 -4 -26
c-12 -28 -28.333 -58.667 -49 -92c-25.333 -42 -46.333 -68.667 -63 -80c-12 3.33301 -27 17.666 -45 42.999c-20 28.667 -30 54 -30 76c0 6 1 11.667 3 17c6 16 9 26.667 9 32c-6.66699 -0.666992 -13 -1.33398 -19 -2.00098c-28.667 -26 -43 -51.333 -43 -76
c0 -42.667 11.667 -72 35 -88c34 -23.333 52.333 -37.666 55 -42.999c-1.33301 -4.66699 -7.66602 -13.334 -18.999 -26.001c-27.333 -31.333 -47 -60.666 -59 -87.999c-2.66699 -6 -5.5 -14.167 -8.5 -24.5s-4.5 -19.166 -4.5 -26.499c0 -8.66699 2.33301 -13 7 -13z
M159.996 39.0029c-4.66699 -13.333 -14.5 -24.001 -29.5 -32.001s-29.5 -12 -43.5 -12c-5.33301 0 -9 0.333008 -11 1c-10 3.33301 -15 10.333 -15 21c0 14 10 33.333 30 58c8.66699 10.667 25.667 28.667 51 54c5.33301 -7.33301 11 -14.666 17 -21.999
c9.33301 -18 14 -33.333 14 -46c0 -12 -4.33301 -19.333 -13 -22z" />
    <glyph glyph-name="nine" unicode="9" horiz-adv-x="314" 
d="M158 -57c20 10 40.334 40.001 61.001 90.001c7.33301 17.333 32.666 96.666 75.999 237.999c0 2 4 18.667 12 50s12 54 12 68c3.33301 8 5 13.667 5 17c0 8.66699 -5.66699 13 -17 13c-4.66699 0 -13 -1.66699 -25 -5c-5.33301 -8.66699 -15 -19.667 -29 -33
c-16.667 -16.667 -36.334 -33.667 -59.001 -51c-22.667 -19.333 -47.167 -37.5 -73.5 -54.5s-43.5 -24.167 -51.5 -21.5c-4.66699 6.66699 0 20.667 14 42l23 34c26.667 30.667 53 58.334 79 83.001c31.333 30.667 57.666 52.667 78.999 66c14 0 25 2 33 6s12 10.333 12 19
c0 1.33301 -1 5 -3 11s-8.33301 11.167 -19 15.5s-19 8 -25 11s-10.667 4.5 -14 4.5c-8 0 -18.667 -4.33301 -32 -13c-0.666992 0 -12 -8.33301 -34 -25l-76 -76c-4 -2 -9.5 -7.16699 -16.5 -15.5s-17.833 -23.5 -32.5 -45.5c-17.333 -32 -29.666 -49.667 -36.999 -53
c-1.33301 -0.666992 -5.33301 -18 -12 -52c-0.666992 -2 -1 -4.16699 -1 -6.5v-4.5c0 -30 17.667 -45 53 -45c20 0 42.333 6.33301 67 19s50.667 32.667 78 60c6.66699 9.33301 11.667 14.666 15 15.999c8 4 13 6.66699 15 8l-82 -329
c-3.33301 -2.66699 -6.66602 -8 -9.99902 -16s-5 -15 -5 -21c0 -6.66699 2.33301 -10 7 -10c2.66699 0 7 2 13 6z" />
    <glyph glyph-name="colon" unicode=":" horiz-adv-x="156" 
d="M115 213c6.66699 0 13.5 1.66699 20.5 5l14.5 7c5.33301 0 12.333 4 21 12s13 13.667 13 17c0 8 -3 15.667 -9 23c-8 9.33301 -19.333 14 -34 14c-7.33301 4.66699 -14.666 3 -21.999 -5c-4.66699 -5.33301 -9.33398 -10.333 -14.001 -15c-14 -12 -21 -22.333 -21 -31
c0 -6 3.33301 -11.333 10 -16c2.66699 -2 9.66699 -5.66699 21 -11zM78 0c13.333 2 25 6.66602 35 13.999c6 0 13 4 21 12s12 13.667 12 17c1.33301 7.33301 -1.66699 15 -9 23s-18.666 12 -33.999 12c-2.66699 2.66699 -5.66699 4 -9 4c-4 0 -8.16699 -2.33301 -12.5 -7
l-13.5 -14c-13.333 -12.667 -20 -23 -20 -31c0 -5.33301 1.66699 -9.66602 5 -12.999c1.33301 -1.33301 9.66602 -7 24.999 -17z" />
    <glyph glyph-name="semicolon" unicode=";" horiz-adv-x="156" 
d="M90 213c6.66699 0 13.499 1.66699 20.499 5l14.5 7c4.66699 0 11.334 4 20.001 12s13 13.667 13 17c0 8 -3 15.667 -9 23c-8 9.33301 -19 14 -33 14c-7.33301 4.66699 -14.666 3 -21.999 -5c-4.66699 -5.33301 -9.33398 -10.333 -14.001 -15c-14 -12 -21 -22.333 -21 -31
c0 -6 3.33301 -11.333 10 -16c2.66699 -2 9.66699 -5.66699 21 -11zM50.999 51l-5.99902 -35c-2 -8 -3.33301 -14.667 -4 -20c-3.33301 -14 -7.33301 -28.667 -12 -44s-7 -24.666 -7 -27.999c0 -4 2.66699 -6 8 -6c6 0 13.667 4 23 12c6 5.33301 9.33301 9.66602 10 12.999
c0 6.66699 2.83301 16.667 8.5 30s8.5 21 8.5 23c2.66699 0 5.5 3.83301 8.5 11.5l10 25l14 35.5c5.66699 14.667 7.83398 23.334 6.50098 26.001l-13 10c-8 1.33301 -13 2 -15 2c-8.66699 0 -15.834 -2.33301 -21.501 -7s-11.834 -12.334 -18.501 -23.001
c-0.666992 -2 -1 -5.33301 -1 -10s0.333008 -9.66699 1 -15z" />
    <glyph glyph-name="less" unicode="&#x3c;" horiz-adv-x="184" 
d="M141 268c-10.667 -10.667 -19.665 -19.333 -26.998 -26c-17.333 -16 -31 -27 -41 -33c-2 -4.66699 -12.333 -15.667 -31 -33c-10 -9.33301 -16 -17.333 -18 -24c-4.66699 -7.33301 -7 -16 -7 -26s3 -22.333 9 -37l13 -32c5.33301 -6 10.833 -13.5 16.5 -22.5
s10 -15.167 13 -18.5s7.83301 -5 14.5 -5c14 0 26 3.66699 36 11c6 4 7.33301 7.66699 4 11c-2.66699 8 -10.667 22.333 -24 43s-20 37 -20 49c0 8 3 17 9 27c2 6 6 12.333 12 19c19.333 21.333 29.666 33.333 30.999 36c7.33301 3.33301 14.5 7.83301 21.5 13.5
s14.167 12.167 21.5 19.5c8 4 14 9 18 15s4.66699 11 2 15c-6 5.33301 -13 8 -21 8c-4.66699 0 -9.83398 -1.16699 -15.501 -3.5z" />
    <glyph glyph-name="equal" unicode="=" 
 />
    <glyph glyph-name="greater" unicode="&#x3e;" horiz-adv-x="174" 
d="M65 21l23 24.002c7.33301 4 16.333 10.833 27 20.5s17.334 15.167 20.001 16.5c3.33301 5.33301 10.833 13.166 22.5 23.499s18.5 20.166 20.5 29.499c4.66699 8.66699 7 19 7 31c0 18 -5.83301 37.833 -17.5 59.5s-23.834 38.167 -36.501 49.5c-2 2 -5.33301 3 -10 3
c-9.33301 0 -19 -2.16699 -29 -6.5s-14.667 -8.16602 -14 -11.499c2 -6.66699 10.667 -22.334 26 -47.001c13.333 -22 20 -39.333 20 -52c0 -8 -2 -16 -6 -24l-29 -32.5c-8 -9 -14 -17.167 -18 -24.5c-4.66699 -0.666992 -12 -5.66699 -22 -15
c-2 -2 -7.16699 -6.33301 -15.5 -13l-16.5 -13c-5.33301 -4.66699 -8 -8.66699 -8 -12c0 -2.66699 2 -6 6 -10s9.66699 -6 17 -6c4.66699 0 10.5 1.33301 17.5 4z" />
    <glyph glyph-name="question" unicode="?" horiz-adv-x="314" 
d="M45 -4c2.66699 -14.667 12.332 -22 28.999 -22c17.333 0 35.166 7.5 53.499 22.5s26.5 30.5 24.5 46.5c0 12 -5.66699 18 -17 18c-9.33301 0 -21.666 -3.66699 -36.999 -11c-9.33301 -5.33301 -18.666 -10.333 -27.999 -15c-4.66699 -5.33301 -7.66699 -10 -9 -14
c-3.33301 -2.66699 -6.33301 -5.5 -9 -8.5s-5 -8.5 -7 -16.5zM106.998 381c2 -0.666992 3.66699 -0.331055 5 1.00195s2 3.33301 2 6c0 3.33301 -1 6.66602 -3 9.99902c-2 11.333 0.333008 17 7 17c5.33301 0 13 -4 23 -12s17.667 -15.333 23 -22
c19.333 -22 29 -46.667 29 -74c0 -20 -5.33301 -42.667 -16 -68l-50 -116c-5.33301 -14 -0.333008 -21 15 -21s28 4.33301 38 13c3.33301 3.33301 6.5 11.5 9.5 24.5s6.16699 22.5 9.5 28.5c22 34 34.667 54.333 38 61c12.667 22.667 22.334 45.334 29.001 68.001
c6 17.333 9 33.666 9 48.999c0 30.667 -12.333 59 -37 85c-20.667 21.333 -48.667 40.333 -84 57c-16 8 -25.667 12.667 -29 14c-16.667 6.66699 -30.334 10 -41.001 10c-12 0 -19 -4.66699 -21 -14c-6 -15.333 -9 -30.333 -9 -45c0 -16.667 4.33301 -31.334 13 -44.001
s22 -22 40 -28z" />
    <glyph glyph-name="at" unicode="@" 
 />
    <glyph glyph-name="A" unicode="A" horiz-adv-x="358" 
d="M51 -45c6.66699 13.333 11.3271 24.9951 13.9941 34.9951s4 20 4 30c2.66699 1.33301 5.66699 8 9 20s6.66602 24.667 9.99902 38c6 8.66699 11.167 18.667 15.5 30s8.5 23 12.5 35c12.667 -1.33301 27 1.33398 43 8.00098l72 31c8 -0.666992 18.833 1 32.5 5
s20.834 5.33301 21.501 4c0.666992 -6 1.16699 -16.667 1.5 -32s0.5 -30 0.5 -44c2.66699 -5.33301 4 -12.666 4 -21.999c0 -8.66699 -1.33301 -15.667 -4 -21c0.666992 -6 1 -14.333 1 -25c0 -11.333 -0.333008 -22 -1 -32l-2 -29c0 -6.66699 2.66699 -10 8 -10
c6 0 12.833 3.83301 20.5 11.5s11.5 15.167 11.5 22.5c2 6.66699 4.66699 20 8 40s5 34 5 42c1.33301 10.667 2.33301 21.667 3 33c4.66699 51.333 7 78.666 7 81.999c11.333 6 17 13.333 17 22c0 7.33301 -4.33301 13.666 -13 18.999c0 5.33301 0.333008 15 1 29
s1 24.333 1 31c0 12.667 -0.5 21.834 -1.5 27.501s-3.16699 9.83398 -6.5 12.501c1.33301 5.33301 2 11.333 2 18v16c0 26 -2.66699 47 -8 63c-2 12.667 -11 22.334 -27 29.001s-26.333 14 -31 22c0 4.66699 1.33301 10.334 4 17.001c7.33301 18.667 11 30 11 34
c0 6.66699 -2.66699 11.334 -8 14.001c-8 2.66699 -17 1.33398 -27 -3.99902l-39 -26c-2 -12.667 -10.167 -21.5 -24.5 -26.5s-23.166 -11.167 -26.499 -18.5c-2.66699 -7.33301 -1 -14.333 5 -21c2.66699 -3.33301 2.33398 -6.66602 -0.999023 -9.99902
c-10 -6.66699 -23 -34 -39 -82c-13.333 -40 -23.666 -75 -30.999 -105c-5.33301 -7.33301 -10.666 -18.333 -15.999 -33s-8.66602 -22.667 -9.99902 -24c-15.333 -2 -26.166 -6.83301 -32.499 -14.5s-11.166 -19.834 -14.499 -36.501v-28c0 -6.66699 3.66699 -10 11 -10
c3.33301 0 6.33301 0.333008 9 1c0 -4.66699 -3 -15.667 -9 -33s-9 -31 -9 -41c-1.33301 -1.33301 -3 -5.83301 -5 -13.5s-2.66699 -14.167 -2 -19.5c-2.66699 -6.66699 -5.33398 -14.334 -8.00098 -23.001s-4 -16.667 -4 -24c0 -14 4.66699 -21 14 -21
c5.33301 0 12.333 2.33301 21 7zM284.993 231.995c-6 0 -12.667 -0.166992 -20 -0.5s-14.333 -2.5 -21 -6.5c-5.33301 0.666992 -9.33301 1 -12 1c-7.33301 0 -24.333 -1.66699 -51 -5c-10.667 -1.33301 -19.334 -2 -26.001 -2c-5.33301 0 -8.66602 0.666992 -9.99902 2
c0 5.33301 4.66699 17.333 14 36c5.33301 10.667 8.33301 18 9 22c4.66699 8 8.16699 15.5 10.5 22.5s3.5 13.167 3.5 18.5l20.5 34.5c7 11.667 10.5 22.5 10.5 32.5c5.33301 7.33301 9.83301 13 13.5 17s7.16699 6 10.5 6c12 -1.33301 23.167 -9.83301 33.5 -25.5
s15.833 -23.5 16.5 -23.5c-2 -7.33301 -3 -16 -3 -26c0 -8 0.666992 -15.333 2 -22s3 -10 5 -10c-2.66699 -2 -4 -7 -4 -15c0 -10 1.33301 -18 4 -24c0 -15.333 -0.333008 -24.333 -1 -27z" />
    <glyph glyph-name="B" unicode="B" horiz-adv-x="385" 
d="M61 -45c1.33301 -2.66699 2.83203 -5.33301 4.49902 -8s4.16699 -4 7.5 -4c2.66699 2.66699 7.33398 4 14.001 4c7.33301 0 12.333 -1.33301 15 -4c0 4 1.33301 10 4 18s4 14 4 18c14.667 -3.33301 42 0.166992 82 10.5s66.667 20.5 80 30.5
c27.333 10.667 44.666 18 51.999 22c24.667 14 37 30.667 37 50c0 8.66699 -2.33301 17.667 -7 27s-13.334 20.333 -26.001 33c-12 10 -48.667 26.333 -110 49c-47.333 17.333 -67.666 33 -60.999 47c10.667 8.66699 41.667 26.334 93 53.001
c41.333 21.333 68.666 42.666 81.999 63.999c19.333 12.667 33.333 28.834 42 48.501s13 41.834 13 66.501c-4 6 -9.33301 12.667 -16 20c-9.33301 9.33301 -16.333 14 -21 14c-7.33301 4.66699 -16.833 8.66699 -28.5 12s-23.834 5 -36.501 5
c-5.33301 2 -10.666 3.33301 -15.999 4s-11.666 1 -18.999 1c-10 0 -17.667 -0.333008 -23 -1l-118 -14c-56.667 -11.333 -85 -30 -85 -56c0 -6 0.666992 -10.667 2 -14l70 8c0.666992 0 5.66699 0.5 15 1.5s14 0.5 14 -1.5c1.33301 -2 -1.33398 -6.66699 -8.00098 -14
s-10.334 -12.333 -11.001 -15c-13.333 -4.66699 -22.166 -30.334 -26.499 -77.001s-7.83301 -76.334 -10.5 -89.001l-41 -24c-2 -12 -0.666992 -21.667 4 -29c16 -5.33301 25.833 -10.833 29.5 -16.5s4.83398 -14.5 3.50098 -26.5c0 -10.667 -0.166992 -22.334 -0.5 -35.001
s-0.5 -26.667 -0.5 -42v-37c0 -12 1 -23 3 -33c-6 -0.666992 -12 -1.66699 -18 -3s-17.667 -12.666 -35 -33.999c6.66699 -19.333 22.334 -29 47.001 -29zM193.999 154.001c21.333 -5.33301 41.166 -13 59.499 -23s27.166 -18 26.499 -24
c-1.33301 -6.66699 -5.16602 -12.334 -11.499 -17.001s-18.833 -10 -37.5 -16c-6 -2.66699 -12.333 -5.66699 -19 -9c-16 -8 -27.5 -13.167 -34.5 -15.5s-18.667 -5.16602 -35 -8.49902s-26.5 -6 -30.5 -8c0 14 2.33301 39.167 7 75.5s9.33398 59.5 14.001 69.5
c2 1.33301 8 -1.16699 18 -7.5s24.333 -11.833 43 -16.5zM273.999 373.001c-15.333 -12 -37.5 -26.668 -66.5 -44.001s-47.167 -26 -54.5 -26c-2 7.33301 -3 14.333 -3 21c0 10.667 2 21.834 6 33.501s8 19.5 12 23.5c-4.66699 7.33301 -7 16.333 -7 27c0 10 2 20.5 6 31.5
s9 19.5 15 25.5c46 0 78 -3.66699 96 -11s27 -17.333 27 -30c0 -8.66699 -4.33301 -18.667 -13 -30z" />
    <glyph glyph-name="C" unicode="C" horiz-adv-x="369" 
d="M90 -18c15.333 -5.33301 30.4941 -10.001 45.4941 -14.001s28.5 -6 40.5 -6c5.33301 0 11.5 0.333008 18.5 1s14.333 2 22 4s20.5 7.33301 38.5 16s28.667 13.667 32 15c1.33301 2 6.5 6.83301 15.5 14.5s15.5 14 19.5 19s6 10.167 6 15.5c0 9.33301 -2.66699 14 -8 14
c-2.66699 0 -4 -3.33301 -4 -10c-23.333 -12 -41 -20.333 -53 -25c-22.667 -9.33301 -42 -14 -58 -14c-9.33301 0 -17.666 1.33301 -24.999 4c-8.66699 0 -19.167 4.83301 -31.5 14.5l-37.5 30.5c-4 14 -9.33301 29.333 -16 46c-12.667 31.333 -19 57 -19 77c0 6 3 24 9 54
c3.33301 16.667 5 29.667 5 39c16.667 45.333 34.334 81 53.001 107c15.333 22 33.333 40 54 54c6.66699 4.66699 14.834 8.33398 24.501 11.001s20.5 4 32.5 4c17.333 0 31.5 -3 42.5 -9s16.5 -15.667 16.5 -29c0 -11.333 -5.33301 -25.333 -16 -42
c-9.33301 -12 -17.833 -35 -25.5 -69s-11.5 -67.667 -11.5 -101c1.33301 -0.666992 5.16602 -1.5 11.499 -2.5s11.5 -1.5 15.5 -1.5c14.667 0 26 5.66699 34 17c5.33301 8 11 23.333 17 46c6 17.333 13 43 21 77c5.33301 22.667 8 36.667 8 42
c1.33301 3.33301 2 7.33301 2 12v11c0 22.667 -3.33301 43 -10 61c0 16 -6.66699 28.667 -20 38s-30.666 14 -51.999 14c-6 -0.666992 -10.667 -1 -14 -1c-26.667 0 -57.5 -11 -92.5 -33s-54.833 -40.333 -59.5 -55c-10.667 -5.33301 -22 -16 -34 -32
c-7.33301 -10 -14.666 -22.333 -21.999 -37c-23.333 -41.333 -39.666 -80 -48.999 -116c-6.66699 -26 -10 -53.667 -10 -83c0 -40 7.83301 -77.167 23.5 -111.5s35.834 -56.5 60.501 -66.5z" />
    <glyph glyph-name="D" unicode="D" horiz-adv-x="350" 
d="M92 438l1.99805 -5.99707c-7.33301 -0.666992 -14.166 -4.83398 -20.499 -12.501l-18.5 -21.5c-6.66699 -3.33301 -11.834 -17.5 -15.501 -42.5s-7.16699 -51.833 -10.5 -80.5c1.33301 -10 1.33301 -17 0 -21c-4.66699 -22 -8.5 -52.167 -11.5 -90.5l-9.5 -124.5l-2 -31
c2 -5.33301 5 -8 9 -8c6.66699 0 14.667 8 24 24s14.666 29.333 15.999 40l60 291l8.5 40.5c3 13.667 6.83301 21.834 11.5 24.501c0.666992 0.666992 5.66699 -2 15 -8c26 -15.333 43.667 -25 53 -29l6 -6c20.667 -20.667 36 -37.667 46 -51
c14.667 -19.333 25.334 -39.333 32.001 -60c0 -15.333 -1.83301 -29.5 -5.5 -42.5s-6.83398 -24.833 -9.50098 -35.5l-14 -16c-15.333 -30.667 -34.333 -57.667 -57 -81c-16.667 -16.667 -42 -38 -76 -64l-57 -23c-28.667 -12 -41.667 -26.333 -39 -43
c2 -13.333 12 -20 30 -20c8.66699 0 19.667 2 33 6c15.333 3.33301 31.333 10 48 20c19.333 13.333 34 23 44 29l49 32c17.333 12.667 25 23.667 23 33c-0.666992 4 -4 5 -10 3s-10.667 -3.66699 -14 -5c2.66699 8.66699 8.66699 17.667 18 27
c14.667 14 22.334 21.667 23.001 23c22 27.333 39.667 56.833 53 88.5s20 62.834 20 93.501c0 27.333 -5 51.666 -15 72.999s-26.667 41.333 -50 60l-49 33c-12 9.33301 -21.5 16.166 -28.5 20.499s-22.833 12.5 -47.5 24.5c-19.333 5.33301 -34.333 8.83301 -45 10.5
s-17.667 2.16699 -21 1.5c-6 3.33301 -13.833 6.66602 -23.5 9.99902s-18.167 5 -25.5 5c-9.33301 -1.33301 -18.166 -2.5 -26.499 -3.5s-12.5 -3.5 -12.5 -7.5c-1.33301 -4.66699 -0.666016 -11.334 2.00098 -20.001c0 -14 0.833008 -21.833 2.5 -23.5
s15.167 -9.5 40.5 -23.5z" />
    <glyph glyph-name="E" unicode="E" horiz-adv-x="319" 
d="M187 0c10 0 25.499 6.49609 46.499 19.4961s35.667 23.833 44 32.5s12.5 19 12.5 31c0 5.33301 -2.33301 8 -7 8c-3.33301 0 -7.66602 -1.66699 -12.999 -5c-26 -15.333 -57.5 -26 -94.5 -32s-74.833 -9 -113.5 -9c-0.666992 3.33301 -1 9 -1 17
c0 12.667 2.33301 33 7 61s7 47 7 57c2.66699 14 8.16699 23.667 16.5 29s16.5 8 24.5 8c15.333 0 37.333 2.33301 66 7s50.334 7 65.001 7c12.667 0 22.334 -0.666992 29.001 -2c9.33301 2 14 13.667 14 35c0 10 -1.5 18 -4.5 24s-8.16699 9 -15.5 9
c-6.66699 0 -17.334 0.5 -32.001 1.5s-23 1.5 -25 1.5c-17.333 0 -30 -1.16699 -38 -3.5s-16 -6.16602 -24 -11.499c-6.66699 -2 -18.334 -9.33301 -35.001 -22c-8 -6 -14.333 -9 -19 -9c0 20 4.33301 46.667 13 80c3.33301 13.333 10.666 37.333 21.999 72
c4.66699 26.667 15.334 42.834 32.001 48.501s52 8.5 106 8.5c6 -9.33301 17 -14 33 -14c12 0 18 5.66699 18 17c0 2 -0.666992 5.66699 -2 11c4.66699 7.33301 7 15.333 7 24c0 10.667 -3 18.667 -9 24c-4 4.66699 -10.5 8 -19.5 10s-18.167 3 -27.5 3
c-10 0 -19.333 -0.333008 -28 -1s-16.667 -1.33398 -24 -2.00098c-18 -3.33301 -33.333 -7.16602 -46 -11.499s-21.667 -10.166 -27 -17.499l-54 -45c-21.333 -21.333 -33 -41.666 -35 -60.999c-2 0 -6 -16.333 -12 -49c-12 -66 -18 -105 -18 -117
c0 -1.33301 -2.33301 -16.833 -7 -46.5s-8 -55.167 -10 -76.5c0 -6 -1.5 -18 -4.5 -36s-4.5 -30.333 -4.5 -37c-0 -10.667 1.83301 -19 5.5 -25s10.5 -9 20.5 -9c2 0 2.5 -2.66699 1.5 -8s-1.5 -9.33301 -1.5 -12c12 -3.33301 25.667 -5 41 -5c40 0 80 7 120 21z" />
    <glyph glyph-name="F" unicode="F" horiz-adv-x="307" 
d="M76 422c-2 -3.33301 -3.82812 -9.33496 -5.49512 -18.002s-2.83398 -14.167 -3.50098 -16.5s-3.33398 -26.666 -8.00098 -72.999s-11.834 -72.833 -21.501 -79.5s-17 -14 -22 -22s-6.16699 -14 -3.5 -18c1.33301 -4 6.16602 -4.33301 14.499 -1s13.166 4.33301 14.499 3
c2 -1.33301 3 -6.33301 3 -15c-0.666992 -14 -1 -24.667 -1 -32s-1.16699 -22.833 -3.5 -46.5s-3.5 -41.5 -3.5 -53.5c0 -8.66699 0.333008 -15 1 -19c0 -29.333 0.5 -51.5 1.5 -66.5s4.5 -24.333 10.5 -28s11.333 -5.5 16 -5.5c7.33301 0 12.5 4.83301 15.5 14.5
s4.5 21.5 4.5 35.5c0 2 -0.333008 8.5 -1 19.5s-0.666992 17.833 0 20.5c4 12 6.33301 30 7 54s2 42.5 4 55.5s4.83301 29 8.5 48s10.167 29.833 19.5 32.5c16.667 4.66699 33.334 8.16699 50.001 10.5s30 3.5 40 3.5c4 0 9.66699 0.666992 17 2s12 2 14 2
c6 -1.33301 15 -3.66602 27 -6.99902s20.333 -5 25 -5c4 0 7 1.33301 9 4c6 6 9 14.667 9 26c0 20 -6.33301 34.667 -19 44c-13.333 4 -27.333 6 -42 6c-21.333 0 -43.333 -3 -66 -9s-45.334 -13.333 -68.001 -22c-1.33301 12 1.5 30.167 8.5 54.5s11 40 12 47l3 20.5
c1 6.66699 2.5 12 4.5 16c8 16 19.5 29.667 34.5 41s30.833 17 47.5 17c10.667 0 21.667 -3 33 -9c7.33301 -2.66699 14 -4 20 -4c21.333 0 32 14.333 32 43c0 8 -1 16 -3 24s-7.83301 13.5 -17.5 16.5s-21.167 4.5 -34.5 4.5c-18.667 0 -34 -1.33301 -46 -4
c-30 -2.66699 -57.5 -14.5 -82.5 -35.5s-43.167 -46.167 -54.5 -75.5z" />
    <glyph glyph-name="G" unicode="G" horiz-adv-x="375" 
d="M206 21l35.502 29.999c12.333 10 22.166 16.333 29.499 19c0.666992 -4 1 -10 1 -18c0 -12 -1.33301 -26.333 -4 -43c-6 -38 -9 -61.333 -9 -70v-11c-2 -11.333 -3.66699 -21.666 -5 -30.999s-2 -16.666 -2 -21.999c0 -6.66699 1 -12 3 -16c6.66699 0 12.334 2 17.001 6
s7 10 7 18c13.333 4 22.666 10.667 27.999 20c2.66699 12.667 5.66699 25.334 9 38.001l25 95c6.66699 24.667 11.334 39.334 14.001 44.001c2 9.33301 4.33301 21.666 7 36.999s4 27.333 4 36c0 6.66699 -0.333008 11.667 -1 15c-4.66699 14 -16.667 21 -36 21
c-8.66699 0 -15.167 -2.5 -19.5 -7.5l-51.5 -62.5c-10.667 -13.333 -22 -26.333 -34 -39c-12.667 -10.667 -26.334 -19.334 -41.001 -26.001s-29 -10 -43 -10c-16 0 -28 5 -36 15c-10 12 -15 31.333 -15 58c-0.666992 9.33301 -1.16699 17.666 -1.5 24.999
s-0.5 13.666 -0.5 18.999c0 29.333 2.66699 58.333 8 87c4 6.66699 8.33301 17 13 31c12.667 39.333 20 61 22 65c6.66699 12.667 15.667 27 27 43c8.66699 12.667 18.667 25 30 37l32 23c12 8 23.333 12 34 12c10 1.33301 19.5 -0.333984 28.5 -5.00098
s14.5 -11.334 16.5 -20.001c4 -4.66699 7 -8.33398 9 -11.001c5.33301 -6.66699 9 -13 11 -19c2.66699 -3.33301 5.16699 -16.5 7.5 -39.5s8.83301 -34.5 19.5 -34.5c4 0 10 2 18 6c8 6.66699 15.167 13.5 21.5 20.5s10.833 12.5 13.5 16.5v20l-7 24
c-2 6.66699 -5 10.334 -9 11.001c0 10 -2.66699 19.333 -8 28l-31 40c-5.33301 2.66699 -13.333 5.83398 -24 9.50098s-16.334 5.83398 -17.001 6.50098c-8 2.66699 -17.333 4 -28 4c-32 0 -65.167 -12.167 -99.5 -36.5s-57.5 -50.833 -69.5 -79.5
c-7.33301 -6 -16.833 -19.833 -28.5 -41.5s-22.167 -43 -31.5 -64s-17.833 -47.667 -25.5 -80s-11.5 -62.166 -11.5 -89.499c0 -42.667 8 -76 24 -100c19.333 -28.667 49.333 -43 90 -43l42 14c16.667 6.66699 30.667 15 42 25z" />
    <glyph glyph-name="H" unicode="H" horiz-adv-x="400" 
d="M86 150c0 8 3.50098 16.3359 10.501 25.0029s13.833 14.667 20.5 18c6 0 12.5 0.833008 19.5 2.5s14.167 4.16699 21.5 7.5c14.667 8.66699 34.667 14.167 60 16.5l61 5.5c0 -12.667 -3.16699 -37.167 -9.5 -73.5s-12.166 -60.166 -17.499 -71.499
c0 -18.667 -2.66699 -45 -8 -79s-8 -59.667 -8 -77c5.33301 -2 10.333 -3 15 -3c4 0 9 1 15 3c4.66699 11.333 8.66699 18.166 12 20.499s11.666 31.166 24.999 86.499c2 5.33301 9.66699 45.666 23 120.999c4.66699 28 12.667 51 24 69
c0.666992 9.33301 1.66699 18.333 3 27s2 14.667 2 18c9.33301 24.667 16 48.667 20 72s6 46 6 68c8 41.333 12 71.333 12 90c0 20.667 -4.66699 31 -14 31c-8.66699 0 -22.334 -10.333 -41.001 -31c-3.33301 -6.66699 -8 -13.5 -14 -20.5s-11 -13.833 -15 -20.5
c1.33301 -4.66699 2 -10 2 -16v-18c0 -26 -2.5 -54.833 -7.5 -86.5s-9.16699 -50.834 -12.5 -57.501c-6 -2.66699 -14.167 -4.66699 -24.5 -6s-20.833 -2 -31.5 -2h-15c-6 1.33301 -10.333 2 -13 2c-10 -3.33301 -25.5 -5.33301 -46.5 -6s-36.167 -2.33398 -45.5 -5.00098
c-11.333 -3.33301 -17 1.33398 -17 14.001c0 6 1.33301 15.333 4 28c6 28.667 9 46.334 9 53.001c0 0.666992 3.33301 17.667 10 51c2.66699 14 6 33.667 10 59c4 10 6 18.333 6 25c0 16 -8.66699 24 -26 24c-20 0 -36.667 -7.33301 -50 -22
c-0.666992 -2.66699 -1.83398 -10.834 -3.50098 -24.501s-3.16699 -28.834 -4.5 -45.501l-20 -168c-2 -9.33301 -7 -21.166 -15 -35.499s-12.667 -23.5 -14 -27.5c2.66699 -10.667 6.66699 -21.5 12 -32.5s9 -18.833 11 -23.5c-2.66699 -8 -4 -18.333 -4 -31
c0 -10.667 1 -23.667 3 -39c4.66699 -36 7 -55 7 -57c-0.666992 -8 1 -14.667 5 -20s9.66699 -8 17 -8c14 0 27 9.33301 39 28c1.33301 4 7.33301 14.667 18 32c6 9.33301 9.66699 16.333 11 21c0 4.66699 -1.33301 7 -4 7c-3.33301 0 -7.83301 -2.66699 -13.5 -8l-11.5 -11
c-3.33301 2 -5.66602 8 -6.99902 18s-2 21.333 -2 34v26c0 8 0.333008 15.667 1 23z" />
    <glyph glyph-name="I" unicode="I" horiz-adv-x="139" 
d="M26 2c2 -16.667 9.00195 -25.0029 21.002 -25.0029c4 0 8.66699 1 14 3c4 6.66699 9 11.834 15 15.501s9.33301 8.5 10 14.5c-4.66699 24 -7 50.333 -7 79c0 38.667 5 87 15 145c8 38.667 13.333 67.334 16 86.001c-2.66699 4.66699 -1.33398 17.667 3.99902 39l17 69
c0 2 2.5 13 7.5 33s7.5 34.667 7.5 44c0 15.333 -5 23 -15 23c-8 0 -17.667 -4 -29 -12c-27.333 0 -47.666 -25 -60.999 -75c-7.33301 -31.333 -12.333 -52 -15 -62c1.33301 -2 2.16602 -4 2.49902 -6s0.833008 -3.33301 1.5 -4
c-0.666992 -1.33301 -1.83398 -5.33301 -3.50098 -12s-2.5 -14 -2.5 -22c0 -6 0.666992 -11 2 -15c2.66699 1.33301 5.16699 -1 7.5 -7s3.5 -13.333 3.5 -22c0 -10 -1.66699 -18.333 -5 -25c0 -24 -1 -48.333 -3 -73c-6 -73.333 -9 -113.666 -9 -120.999
c0 -22.667 2 -46 6 -70z" />
    <glyph glyph-name="J" unicode="J" horiz-adv-x="271" 
d="M120 55c-8.66699 3.33301 -15.335 9.33398 -20.002 18.001c-2 3.33301 -5.33301 12.333 -10 27c0.666992 4 3.66699 7.33301 9 10s8 7.66699 8 15c0 4.66699 -0.333008 8.66699 -1 12c-5.33301 9.33301 -9 16.333 -11 21c-4.66699 10 -7 16 -7 18
c-0.666992 1.33301 -3.5 8 -8.5 20s-11.833 19 -20.5 21c-3.33301 2.66699 -9.33301 4 -18 4c-11.333 0 -17.666 -2 -18.999 -6c-3.33301 -3.33301 -5 -10.666 -5 -21.999c0 -28.667 7.16699 -67.834 21.5 -117.501s27.833 -80.167 40.5 -91.5c4.66699 -2.66699 10 -4 16 -4
c14 2 24.667 3.33301 32 4c4 2.66699 9.16699 5 15.5 7s12.5 3.66699 18.5 5c7.33301 6 15 22.667 23 50l25 85l13 50.5c4.66699 17.667 10.334 34.5 17.001 50.5c0 23.333 4.33301 50.666 13 81.999c20 72.667 30 118.334 30 137.001c2 9.33301 3 18.333 3 27
c0 16.667 -2.33301 30.334 -7 41.001s-10 15.334 -16 14.001c-4 -2.66699 -9.33301 -5.83398 -16 -9.50098s-13.667 -9.5 -21 -17.5c-9.33301 -2.66699 -19.666 -9 -30.999 -19c-8.66699 -7.33301 -17.334 -16.666 -26.001 -27.999
c0.666992 -6.66699 6.66699 -10.334 18 -11.001s17.333 -3.66699 18 -9c2 -10.667 0.5 -29.834 -4.5 -57.501s-9.5 -53.834 -13.5 -78.501c0 -24.667 -3.5 -52.667 -10.5 -84s-15.833 -63.333 -26.5 -96c0 -12.667 -3.83301 -27.5 -11.5 -44.5s-13.5 -24.833 -17.5 -23.5z
" />
    <glyph glyph-name="K" unicode="K" horiz-adv-x="367" 
d="M186 41c18 -30.667 38.3379 -46.0029 61.0049 -46.0029c15.333 0 32.666 7 51.999 21l31 39c9.33301 2 16.666 6.66699 21.999 14s8 14.333 8 21c0 8 -3.33301 12 -10 12c-4.66699 0 -11.334 -3.66699 -20.001 -11s-16.334 -13.333 -23.001 -18
c-13.333 -9.33301 -24.666 -14 -33.999 -14c-13.333 0 -24.333 8.33301 -33 25c-11.333 14.667 -22 33 -32 55c-27.333 58 -42.666 89.667 -45.999 95c0 8 3.66699 15.333 11 22c1.33301 1.33301 8.33301 7 21 17c2 4.66699 15.167 19.834 39.5 45.501
s37.166 39.834 38.499 42.501c8 11.333 18.333 24.666 31 39.999c16 20 29 39.333 39 58c6 3.33301 11.667 12.666 17 27.999s8 32.666 8 51.999c-2.66699 6.66699 -6 10 -10 10c-0.666992 0 -5 -1.33301 -13 -4c-14.667 0 -31 -6 -49 -18
c-9.33301 -4.66699 -16.166 -9.16699 -20.499 -13.5s-6.5 -8.16602 -6.5 -11.499s2.66699 -7.66602 8 -12.999c3.33301 -3.33301 5 -5.66602 5 -6.99902c-2.66699 -11.333 -13 -31.5 -31 -60.5s-34.333 -51.5 -49 -67.5l-47 -57c-21.333 -25.333 -41.333 -44.333 -60 -57
c0 23.333 5.16699 54.833 15.5 94.5s16.166 66.834 17.499 81.501c2.66699 8 5.5 17.167 8.5 27.5s4.5 19.5 4.5 27.5c0 8.66699 -1.5 15.834 -4.5 21.501s-8.5 10.167 -16.5 13.5c-19.333 -4.66699 -34.5 -14.834 -45.5 -30.501s-16.5 -33.5 -16.5 -53.5
c0 -2.66699 -5.66699 -48.667 -17 -138c-4.66699 -38 -6.33398 -57.667 -5.00098 -59c1.33301 -4 0.833008 -8.83301 -1.5 -14.5s-3.5 -12.834 -3.5 -21.501c-4.66699 -33.333 -8 -59.333 -10 -78c-4.66699 -36.667 -7 -63.667 -7 -81c0 -11.333 1 -20.666 3 -27.999
c2.66699 -0.666992 6.66699 -1.33398 12 -2.00098s9.66602 -1 12.999 -1c10.667 0 18 3.66699 22 11c-2 11.333 -3 23 -3 35c0 22.667 2.66699 47.334 8 74.001c3.33301 18 9.33301 41.333 18 70c4 -3.33301 15 -21 33 -53c8 -14.667 14 -23 18 -25
c2.66699 -4.66699 9.66699 -15 21 -31z" />
    <glyph glyph-name="L" unicode="L" horiz-adv-x="236" 
d="M4 37c-1.33301 -9.33301 -2.00098 -16 -2.00098 -20c0 -22 8.33301 -33 25 -33c2 -2.66699 5.83301 -5.33398 11.5 -8.00098s12.167 -4 19.5 -4s18.333 1.16699 33 3.5s24 3.5 28 3.5c9.33301 4 20.666 8 33.999 12l37 11c9.33301 6.66699 17.833 12.334 25.5 17.001
l19.5 12c-0.666992 11.333 -1.16699 22.5 -1.5 33.5s-1.16602 18.833 -2.49902 23.5c-4.66699 1.33301 -12 -1.66699 -22 -9s-21.667 -11 -35 -11c-6.66699 -4 -16.334 -7.66699 -29.001 -11s-20 -5.33301 -22 -6c-3.33301 0 -9.66602 -0.666992 -18.999 -2
s-14.333 -2 -15 -2c-6.66699 0 -11.667 1.5 -15 4.5s-5 11.167 -5 24.5c0 20 4.16699 50.5 12.5 91.5l26.5 127.5c2.66699 4 4.66699 11.333 6 22s2.83301 16.834 4.5 18.501s4.33398 14.667 8.00098 39s7.16699 42.166 10.5 53.499l12 82c0 8 -1.66699 14 -5 18
s-8.33301 7 -15 9c-32.667 -6.66699 -56 -35.334 -70 -86.001l-18 -70l-10.5 -38c-3.66699 -13.333 -5.5 -24.333 -5.5 -33c0 -15.333 4.66699 -27.666 14 -36.999l-18 -117c-8 -50 -13.667 -89.667 -17 -119z" />
    <glyph glyph-name="M" unicode="M" horiz-adv-x="453" 
d="M53 2c4.66699 7.33301 7.50391 15.1719 8.50391 23.5049s1.5 18.833 1.5 31.5c1.33301 3.33301 3 15 5 35s3.66699 32 5 36s7 40 17 108c4.66699 29.333 9.33398 43.666 14.001 42.999c4 -2 7 -5 9 -9l16 -36c8.66699 -11.333 17.667 -20.333 27 -27
s19.666 -10 30.999 -10c9.33301 0 18 2.16699 26 6.5s17 12.166 27 23.499c22 5.33301 47.667 26.666 77 63.999l35 47c3.33301 3.33301 5.83301 4.33301 7.5 3s2.5 -4 2.5 -8s-0.833008 -10.667 -2.5 -20s-3.5 -20.333 -5.5 -33s-4 -27.834 -6 -45.501s-4 -27.5 -6 -29.5
c-2.66699 -12.667 -6.33398 -36.334 -11.001 -71.001c-9.33301 -67.333 -16 -112.666 -20 -135.999c8 -2 16 2.83301 24 14.5s16.667 18.5 26 20.5l24 112c7.33301 33.333 15.333 65.5 24 96.5l26.5 93.5c9 31.333 13.5 52.333 13.5 63
c0.666992 4.66699 1.66699 12.167 3 22.5s2 19.166 2 26.499c0 14.667 -1.16699 26 -3.5 34s-6.83301 12 -13.5 12c-5.33301 0 -12.333 -4.66699 -21 -14c-8 -1.33301 -16.333 -6.83301 -25 -16.5s-14.667 -20.5 -18 -32.5l-58 -80c-7.33301 -5.33301 -19 -17 -35 -35
c-26.667 -30 -48.334 -45 -65.001 -45c-12 0 -23.667 5.66699 -35 17c-17.333 20 -28.5 46.833 -33.5 80.5s-7.5 72.5 -7.5 116.5v26c0 24.667 -3 37 -9 37c-1.33301 0 -5.66602 -2 -12.999 -6s-14.333 -6 -21 -6c-3.33301 -4.66699 -8.5 -9 -15.5 -13l-21.5 -12
c-4.66699 -4.66699 -8.5 -25 -11.5 -61s-4.5 -62.667 -4.5 -80c-2 -8.66699 -4.5 -27 -7.5 -55s-4.5 -47.333 -4.5 -58s-1.33301 -25 -4 -43c-6.66699 -45.333 -10 -70.333 -10 -75c0 -8 1 -13 3 -15c-4.66699 -9.33301 -7.83398 -25.333 -9.50098 -48
s-2.5 -49.667 -2.5 -81c0.666992 -2.66699 3 -4 7 -4c3.33301 0 9.66602 2 18.999 6s15.666 6 18.999 6z" />
    <glyph glyph-name="N" unicode="N" horiz-adv-x="418" 
d="M18 -16c-2 -7.33301 -3.00293 -13.666 -3.00293 -18.999c0 -8 3 -13.333 9 -16c2 4 6 6 12 6s10 3.5 12 10.5l28 93.5c13.333 43.333 22 77 26 101l22 76c8 26.667 13.667 41 17 43c4 -4.66699 10.5 -17.334 19.5 -38.001l21.5 -50l54 -126
c26.667 -57.333 46.334 -85 59.001 -83c7.33301 0.666992 15.333 3.33398 24 8.00098c14 7.33301 22.333 11.333 25 12c4.66699 6.66699 9.16699 14.5 13.5 23.5s6.5 17.5 6.5 25.5c15.333 60.667 27 137.334 35 230.001c11.333 136.667 18.333 214.334 21 233.001
c0 18.667 -2.33301 28 -7 28c-2.66699 0 -7.33398 -3 -14.001 -9l-14 -12c-21.333 -40 -33.166 -93.833 -35.499 -161.5s-4.16602 -108.834 -5.49902 -123.501c-10 -64.667 -15.667 -101 -17 -109c-6 -34 -10.667 -53.667 -14 -59c-10 4 -24.333 31 -43 81
c-12 32 -23 59 -33 81c-4 16 -15.667 50 -35 102c-11.333 30 -18.666 52 -21.999 66c0 12 1.33301 23 4 33c0.666992 3.33301 7.66699 22.333 21 57c0 11.333 -3 17 -9 17c-5.33301 0 -14.5 -5.66699 -27.5 -17s-20.167 -16.333 -21.5 -15c-1.33301 6 -9 9 -23 9
c-6 0 -12.667 -1 -20 -3c-5.33301 1.33301 -10.166 -4.33398 -14.499 -17.001s-6.5 -26.334 -6.5 -41.001c0 -5.33301 0.333008 -9 1 -11c-3.33301 -6.66699 -9.33301 -50.667 -18 -132c-4 -38 -9.66699 -76 -17 -114c-2 -4 -7.66699 -35.333 -17 -94
c-2.66699 -19.333 -7.33398 -48 -14.001 -86z" />
    <glyph glyph-name="O" unicode="O" horiz-adv-x="410" 
d="M244 33c40.667 37.333 73.665 75.333 98.998 114c42 64 63 129 63 195c-4.66699 39.333 -19 75.666 -43 108.999c-27.333 37.333 -59.666 59 -96.999 65c-19.333 -5.33301 -34.166 -11.166 -44.499 -17.499s-17.833 -12.833 -22.5 -19.5l-21 -12
c-8.66699 -5.33301 -14.667 -10.666 -18 -15.999c-2 -6 -5.33301 -9 -10 -9c-1.33301 0 -2.33301 1.66699 -3 5c0.666992 5.33301 1 9.33301 1 12c9.33301 14.667 14 26.667 14 36c0 8.66699 -4.66699 13.667 -14 15l-21 -16
c-17.333 -28.667 -35.666 -66.334 -54.999 -113.001l-49 -117c-6.66699 -6.66699 -10.667 -15.5 -12 -26.5s-2.33301 -21.167 -3 -30.5c0 -6 1.66699 -9 5 -9s8.33301 3.33301 15 10c2 2 5 5.66699 9 11c1.33301 -5.33301 2 -9.33301 2 -12c0 -3.33301 -1 -8.33301 -3 -15
s-3 -12 -3 -16c-2.66699 -20 -4.33398 -32 -5.00098 -36v-22c0 -40 7.33301 -72.667 22 -98s37.667 -38 69 -38c13.333 0 28.333 3 45 9l49 17c4 4 8.83301 8.5 14.5 13.5s11.167 8.83301 16.5 11.5zM247.998 94c-16 -14.667 -31.3311 -26.168 -45.998 -34.501
s-28.334 -12.5 -41.001 -12.5c-14 0 -25.833 5.16699 -35.5 15.5s-17.167 26 -22.5 47s-8 41.833 -8 62.5c0 24.667 3.33301 53.334 10 86.001l20 94c17.333 24 29.666 39 36.999 45c14.667 12.667 38 23 70 31c34 0 61 -15.333 81 -46c18 -27.333 27 -61.333 27 -102
c0 -24 -3.16699 -45.167 -9.5 -63.5s-14.833 -36.833 -25.5 -55.5c-13.333 -22.667 -32.333 -45 -57 -67z" />
    <glyph glyph-name="P" unicode="P" horiz-adv-x="358" 
d="M61 -63c9.33301 0 19 5.66504 29 16.998c6.66699 8 14 19.333 22 34c-5.33301 2.66699 -10 7.33398 -14 14.001s-6 17.667 -6 33c0 8 1 17.833 3 29.5s3.66699 20.834 5 27.501c76 15.333 135.333 39.666 178 72.999c46 36 69 79.667 69 131c0 8 -1 17.167 -3 27.5
l-4 20.5c-12.667 54.667 -46.667 105 -102 151c-48 40 -83.667 58.667 -107 56c-6 4.66699 -10.333 7 -13 7c-4.66699 0 -12.667 -5.66699 -24 -17c-12 -6 -21.167 -12.833 -27.5 -20.5s-9.5 -18.5 -9.5 -32.5c3.33301 -6 9.33301 -15.167 18 -27.5
s14.334 -21.166 17.001 -26.499l-49 -319c-6.66699 -4 -13 -8 -19 -12s-9 -8 -9 -12c0 -6 8.66699 -13.667 26 -23c0.666992 -1.33301 1 -5 1 -11c0 -12.667 -0.333008 -24.167 -1 -34.5s-1.33398 -19.833 -2.00098 -28.5c0 -16 1.5 -29 4.5 -39s8.83301 -16 17.5 -18z
M274 245.998c-7.33301 -25.333 -28.3311 -48.334 -62.998 -69.001c-28.667 -17.333 -58.667 -29.333 -90 -36c-0.666992 -0.666992 -2.66699 -0.166992 -6 1.5s-5.66602 2.5 -6.99902 2.5c1.33301 2 3.66602 17.333 6.99902 46s7.33301 47.667 12 57c4 2 6.33301 4.5 7 7.5
s1 7.83301 1 14.5v11c1.33301 4 7.33301 24.333 18 61c6.66699 24 11.667 39 15 45c-0.666992 5.33301 -1 10.666 -1 15.999s-0.666992 9 -2 11l-32 45c-6.66699 6 -10 9.66699 -10 11c4.66699 -0.666992 9.66699 -1 15 -1c9.33301 -3.33301 18.666 -8.66602 27.999 -15.999
c35.333 -26 62.166 -56.167 80.499 -90.5s27.5 -73.166 27.5 -116.499z" />
    <glyph glyph-name="Q" unicode="Q" horiz-adv-x="428" 
d="M260 45c2.66699 14 12.002 29.6699 28.002 47.0029c36.667 39.333 56.667 65.333 60 78c18 40 31.667 73 41 99c14.667 42 22 79 22 111c0 16 -1.66699 31.167 -5 45.5s-9 28.166 -17 41.499c-12 20.667 -27.333 36.667 -46 48s-39 17 -61 17
c-23.333 0 -47.333 -6.16699 -72 -18.5s-49 -31.166 -73 -56.499c-27.333 -23.333 -46.833 -51 -58.5 -83s-17.5 -66.333 -17.5 -103c0 -31.333 4 -61 12 -89s16.333 -45.667 25 -53c2 -6.66699 9.66699 -20.334 23 -41.001c16.667 -26 25.667 -40.333 27 -43
c-1.33301 -1.33301 -4.66602 -2 -9.99902 -2c-20 0 -38.667 11.667 -56 35c-23.333 30.667 -35 73.667 -35 129c2.66699 3.33301 4 6.66602 4 9.99902c0 6 -3 9 -9 9s-11 -4.33301 -15 -13c-8 -16.667 -13.167 -33.5 -15.5 -50.5s-3.5 -36.5 -3.5 -58.5
c0 -38.667 9.83301 -68.834 29.5 -90.501s44.5 -32.5 74.5 -32.5c26.667 0 52 7.66699 76 23c3.33301 2 16 -9 38 -33c12.667 -13.333 22.667 -22 30 -26c15.333 -12 32.666 -22.667 51.999 -32l38 -18c7.33301 -4.66699 14.666 -8.66699 21.999 -12s14.666 -5 21.999 -5
c8 0 15.833 2 23.5 6s11.5 8.66699 11.5 14c0 4.66699 -5.33301 11 -16 19c-16.667 12.667 -26.667 20.667 -30 24l-35 28c-14.667 11.333 -27.667 19 -39 23c-11.333 12 -19.333 20.667 -24 26c-9.33301 10 -16.333 19 -21 27zM328.002 221.003
c-5.33301 -8.66699 -15.667 -28.3291 -31 -58.9961c-22.667 -46 -46 -75.333 -70 -88c-8 2.66699 -16.667 11 -26 25l-29 44c-15.333 32 -26.333 58.333 -33 79c-8.66699 27.333 -13 53.666 -13 78.999c0 33.333 9.33301 68.333 28 105c23.333 33.333 54.333 50 93 50
c23.333 0 44.166 -7.83301 62.499 -23.5s29.833 -38.167 34.5 -67.5c0.666992 -6.66699 1.33398 -12.834 2.00098 -18.501s1 -13.834 1 -24.501c0 -19.333 -1.16699 -36.333 -3.5 -51s-7.5 -31.334 -15.5 -50.001z" />
    <glyph glyph-name="R" unicode="R" horiz-adv-x="375" 
d="M63 -27c6 0 12.998 26.6719 20.998 80.0049c4 28 8 47.333 12 58c18.667 -10 36.334 -21.333 53.001 -34c14 -10.667 21.667 -16.667 23 -18c52.667 -36.667 113.334 -71.334 182.001 -104.001c6.66699 -6 13 -9 19 -9c8.66699 0 13 7 13 21
c0 12 -3.33301 23.167 -10 33.5s-15.334 15.5 -26.001 15.5c-9.33301 12.667 -19 19 -29 19c-10.667 10 -26.834 23.333 -48.501 40s-38.167 28.667 -49.5 36c-19.333 15.333 -35.333 29 -48 41c-21.333 20.667 -33.333 37 -36 49c-3.33301 10 14.334 22 53.001 36
c26 9.33301 43 17 51 23c24 13.333 47.333 27.333 70 42c30 20 46 33.5 48 40.5s4.16699 15.667 6.5 26s3.5 18.833 3.5 25.5c0 9.33301 -0.833008 17.166 -2.5 23.499s-5.16699 13.166 -10.5 20.499c-12.667 10 -29.667 22 -51 36s-37.666 24 -48.999 30
c-20.667 9.33301 -42 16.166 -64 20.499s-41.667 6.5 -59 6.5c-8.66699 0 -15.667 -0.666992 -21 -2c-24 -6 -40.167 -17.333 -48.5 -34s-12.5 -37.667 -12.5 -63c0 -6 0.333008 -15.5 1 -28.5s1 -22.5 1 -28.5v-44.5c0 -15.667 0.333008 -32.167 1 -49.5v-19
c0 -20 -1 -33.667 -3 -41c-2 -2.66699 -5.5 -5.83398 -10.5 -9.50098s-10.5 -7.16699 -16.5 -10.5c-4 -7.33301 -6 -13.666 -6 -18.999c0 -8 3.16699 -15.333 9.5 -22l13.5 -14c0.666992 -2 1 -6.33301 1 -13c0 -11.333 -1 -27 -3 -47c-4.66699 -47.333 -7 -72 -7 -74
c-1.33301 -10 0.5 -18.833 5.5 -26.5s12.833 -11.834 23.5 -12.501zM273.998 332.005l-71.998 -50.002c-30.667 -19.333 -57.667 -30.666 -81 -33.999c0 16.667 1 33.334 3 50.001s7.66699 37.667 17 63c1.33301 8 2 13.667 2 17c0 18.667 -6.66699 28 -20 28
c-8.66699 0 -17.667 -5 -27 -15c-6.66699 2 -10 8.33301 -10 19c1.33301 12 2 20 2 24c4 8.66699 11.167 13.667 21.5 15s18.166 2 23.499 2l53 -9c19.333 -3.33301 31.666 -6 36.999 -8c19.333 -8 35.333 -16.333 48 -25c18 -12.667 27 -25.667 27 -39
c0 -12 -8 -24.667 -24 -38z" />
    <glyph glyph-name="S" unicode="S" horiz-adv-x="262" 
d="M55 -45c10.667 0 22.999 2.99805 36.999 8.99805c10 5.33301 19.167 10 27.5 14s14.5 7.33301 18.5 10c8 4.66699 14.667 10 20 16c12 6 22.167 12 30.5 18s16.5 13.667 24.5 23c0.666992 0.666992 3.33398 4.16699 8.00098 10.5s9.33398 10.5 14.001 12.5
c6 6 12.5 11 19.5 15s10.833 6.33301 11.5 7c3.33301 6 3.33301 12 0 18s-8 9 -14 9c0 21.333 -5 41 -15 59c-6.66699 11.333 -20.334 29.333 -41.001 54c-8.66699 5.33301 -15.334 12 -20.001 20l-19 35c-11.333 10 -20.166 19.667 -26.499 29s-10.666 18 -12.999 26
s-3.5 16 -3.5 24c0 18.667 6.33301 36.167 19 52.5s29 29.833 49 40.5c2.66699 2 4.83398 2.16699 6.50098 0.5s0.833984 -5.16699 -2.49902 -10.5l-19.5 -13.5c-6.33301 -4.33301 -9.5 -10.166 -9.5 -17.499c2 -8 6 -12 12 -12s17.333 5.33301 34 16
c9.33301 6 16.166 9.83301 20.499 11.5s11.166 6.5 20.499 14.5c22.667 20 36.167 31 40.5 33s6.5 13.333 6.5 34c0 8.66699 -1.83301 16.334 -5.5 23.001s-10.167 10 -19.5 10c-4.66699 0 -11.334 -1.66699 -20.001 -5c-23.333 -8 -40.333 -14.333 -51 -19
c-17.333 -7.33301 -31.333 -15.333 -42 -24c-31.333 -20 -58.333 -43.333 -81 -70c-28 -32.667 -42 -63.667 -42 -93c0 -26 11 -49.667 33 -71c0 -4 17.667 -24.333 53 -61c20.667 -21.333 38 -40.333 52 -57c7.33301 -8.66699 12.333 -16.167 15 -22.5s4 -12.5 4 -18.5
c0 -10.667 -5 -17.667 -15 -21c-6 -4.66699 -8 -11.334 -6 -20.001c-6 -8 -12.167 -15.167 -18.5 -21.5s-13.833 -10.166 -22.5 -11.499c-2 2 -1 4.33301 3 7l21 15c4 4.66699 3.83301 9 -0.5 13s-9.5 4.66699 -15.5 2l-74 -35c-30 -16 -46.333 -30.333 -49 -43
c1.33301 -10 7.33301 -18 18 -24c3.33301 -2 12.333 -5.66699 27 -11z" />
    <glyph glyph-name="T" unicode="T" horiz-adv-x="279" 
d="M145 -23c2 3.33301 5.83984 6.33691 11.5068 9.00391s9.5 6 11.5 10c1.33301 14 2.33301 27.833 3 41.5s1 37.5 1 71.5c4 15.333 7.5 33.166 10.5 53.499l9.5 66.5c5.33301 16.667 11.666 45.167 18.999 85.5s12.666 74.166 15.999 101.499
c-0.666992 9.33301 -2.33398 16.166 -5.00098 20.499s-10.667 13.166 -24 26.499c2 6 11 9 27 9c7.33301 -0.666992 12.666 -1 15.999 -1c10 -2 20.833 -3.83301 32.5 -5.5s18.167 -2.5 19.5 -2.5c2 -1.33301 3.66699 -0.333008 5 3s2 7 2 11c0 5.33301 -0.333008 9 -1 11
c0.666992 12 1 20.667 1 26c0 8 -2.33301 14.333 -7 19c-4.66699 0 -12.334 1.33301 -23.001 4s-18.667 4 -24 4h-6c-2.66699 -1.33301 -4.33398 -2 -5.00098 -2c-10.667 1.33301 -18.667 2 -24 2c-8.66699 0 -21.667 -1 -39 -3s-30 -3 -38 -3c-4 0 -10.667 0.666992 -20 2
c-17.333 -2 -32.833 -4 -46.5 -6s-22.834 -8.33301 -27.501 -19c-2.66699 -2.66699 -5.66699 -9.16699 -9 -19.5s-5 -19.5 -5 -27.5c-2.66699 -6 -4 -11.667 -4 -17c0 -8 5 -12 15 -12c6 0 14.833 2 26.5 6l38.5 13c2 0 5.33301 0.666992 10 2c12 3.33301 20.667 5 26 5
c8.66699 0 13 -3 13 -9c0 -8.66699 -1.33301 -23.334 -4 -44.001s-4 -38.667 -4 -54c-4 -8 -8.33301 -40.667 -13 -98c-2 -24.667 -3.83301 -46 -5.5 -64s-2.5 -29 -2.5 -33c0 -4.66699 0.333008 -12 1 -22s1 -18.333 1 -25c-1.33301 -4 -2.33301 -8.33301 -3 -13
s-1 -9 -1 -13c0 -8.66699 1.33301 -15.667 4 -21v-23c0 -8 0.666992 -17 2 -27c0 -15.333 1 -26.166 3 -32.499s7.33301 -8.5 16 -6.5z" />
    <glyph glyph-name="U" unicode="U" horiz-adv-x="367" 
d="M22 145c-1.33301 -8 -0.668945 -21.3359 1.99805 -40.0029s6.33398 -34.667 11.001 -48c10.667 -23.333 19.334 -39.666 26.001 -48.999c11.333 -14.667 23 -20.667 35 -18c28.667 0 54.334 12 77.001 36c12.667 13.333 30 38 52 74c2 2 3.83301 2.83301 5.5 2.5
s2.5 -3.83301 2.5 -10.5s-1.33301 -20 -4 -40s-4 -33.333 -4 -40c2 -2.66699 3 -7.33398 3 -14.001v-5.5c0 -1.66699 -0.333008 -3.16699 -1 -4.5c0 -14.667 4.66699 -22 14 -22c5.33301 0 12.666 2.83301 21.999 8.5l26 15.5c0 2 3.33301 7.33301 10 16
c3.33301 4.66699 5 8.33398 5 11.001c0 4.66699 -4.33301 8.66699 -13 12c0 45.333 6.66699 96.333 20 153l41 172.5c14 58.333 21 108.833 21 151.5c-1.33301 8.66699 -2.33301 17.334 -3 26.001c-2 9.33301 -5.66699 14 -11 14c-4.66699 0 -11 -3 -19 -9
c-12.667 -7.33301 -19 -13 -19 -17c-3.33301 -3.33301 -6 -9.66602 -8 -18.999s-2.66699 -17.333 -2 -24c-6.66699 -6 -13 -20.333 -19 -43c-2 -7.33301 -4.33301 -18.666 -7 -33.999c-4.66699 -20 -9 -39.5 -13 -58.5s-6 -31.167 -6 -36.5
c-6.66699 -12.667 -15.834 -42.667 -27.501 -90s-26.5 -79.333 -44.5 -96c-12 -24.667 -21.167 -40.167 -27.5 -46.5s-16.833 -9.5 -31.5 -9.5c-13.333 4 -24 13.167 -32 27.5s-13.667 31.166 -17 50.499c-2 0 -4.66699 11.667 -8 35s-5 42.333 -5 57
c0 7.33301 0.5 11.833 1.5 13.5s1.5 4 1.5 7v7.5c0 7.33301 -0.166992 14.166 -0.5 20.499s-0.5 12.166 -0.5 17.499c0 6.66699 1.16699 14.334 3.5 23.001l5.5 20c0 5.33301 1.66699 18 5 38s5 35.667 5 47c0 12.667 -1.83301 23.667 -5.5 33s-8.66699 15.5 -15 18.5
s-11.666 9.5 -15.999 19.5s-8.5 14 -12.5 12c-9.33301 -2.66699 -16.166 -15 -20.499 -37s-6.5 -50 -6.5 -84c-2.66699 -4.66699 -4.66699 -13.667 -6 -27s-2 -28 -2 -44c0 -18.667 0.666992 -36.667 2 -54s2.66602 -28.666 3.99902 -33.999
c-1.33301 -10 -2.33301 -19.667 -3 -29c0 -5.33301 1 -11 3 -17c-0.666992 -7.33301 -1 -13 -1 -17c0 -10 2.33301 -17.333 7 -22z" />
    <glyph glyph-name="V" unicode="V" horiz-adv-x="314" 
d="M157 4c0.666992 3.33301 6.33496 9.50488 17.002 18.5049s16 17.5 16 25.5c0 4.66699 -1.33301 9.66699 -4 15c19.333 28.667 38.333 67 57 115l46 121c13.333 30 20 51.333 20 64c4 2.66699 9 17 15 43c4 18 6 30.667 6 38c0 16.667 -4.33301 25 -13 25
c-3.33301 0 -8.66602 -2 -15.999 -6c-20.667 -6 -34.334 -20 -41.001 -42c-4 -13.333 -6 -34.666 -6 -63.999c-8.66699 -30 -22.334 -65.667 -41.001 -107c-28.667 -62.667 -44.334 -97.667 -47.001 -105c-11.333 -28.667 -20.666 -43 -27.999 -43
c-4 0 -8.16699 9.66699 -12.5 29s-8.83301 31.666 -13.5 36.999c0.666992 9.33301 1 16 1 20c0 8.66699 -2.33301 15 -7 19c0 8 -0.5 16.833 -1.5 26.5s-1.83301 20.5 -2.5 32.5c-2.66699 10.667 -4.33398 21.667 -5.00098 33s-1 24.666 -1 39.999v35v35
c-2 10 -3.33301 17 -4 21c2 8.66699 4.33301 22 7 40s4 32.667 4 44c0 18 -2.33301 29.667 -7 35c-2 6 -6.33301 9 -13 9c-5.33301 0 -12.5 -2 -21.5 -6s-18.167 -8.33301 -27.5 -13c-5.33301 -7.33301 -10.666 -18.833 -15.999 -34.5s-8 -31.834 -8 -48.501
c0 -12.667 2 -26 6 -40c0 -6 -0.166992 -12 -0.5 -18s-0.5 -12 -0.5 -18c0 -14 0.5 -24 1.5 -30s3.5 -9.33301 7.5 -10c0 -27.333 1 -49.333 3 -66s5 -27.334 9 -32.001c0 -12.667 1.33301 -27.5 4 -44.5s5.66699 -27.5 9 -31.5c0 -10.667 1.83301 -22.834 5.5 -36.501
s7.83398 -21.834 12.501 -24.501c3.33301 -18.667 5.5 -30.5 6.5 -35.5s6.5 -19.167 16.5 -42.5c-10 -10 -15 -20 -15 -30c0 -8 2.66699 -14 8 -18s12.666 -6 21.999 -6c7.33301 0 13.666 1 18.999 3c12.667 4.66699 23.667 14 33 28z" />
    <glyph glyph-name="W" unicode="W" horiz-adv-x="453" 
d="M137 18c8 6 16.499 18.666 25.499 37.999s13.5 34 13.5 44c10.667 27.333 19.167 47.5 25.5 60.5s11.5 19.5 15.5 19.5c5.33301 0 8 -12.333 8 -37c2.66699 -26.667 4.66699 -48.667 6 -66s4.33301 -30 9 -38c2 -12 5.5 -19.333 10.5 -22s10.167 -4 15.5 -4
c4 0 10.167 1 18.5 3s15.833 3.66699 22.5 5c18 15.333 37.333 50.333 58 105c17.333 44 28 78.667 32 104c5.33301 8.66699 11.333 25 18 49s13.667 51.333 21 82c10 50 15 92.333 15 127c0.666992 2 1 4.16699 1 6.5v4.5c0 8.66699 -1.66699 13.667 -5 15
c-13.333 -6.66699 -23.166 -16.5 -29.499 -29.5s-9.5 -27.5 -9.5 -43.5c-2 -10 -9.33301 -39.667 -22 -89l-21 -81c-8.66699 -16 -16 -31.333 -22 -46c-3.33301 -8 -6.33301 -16 -9 -24c0 -3.33301 -3.33301 -14.666 -10 -33.999s-13 -35.333 -19 -48
c-1.33301 -5.33301 -3.33301 -10.166 -6 -14.499s-5 -6.5 -7 -6.5c-4.66699 0 -7 10.333 -7 31v27v18.5c0 6.33301 0.666992 13.166 2 20.499c-2.66699 13.333 -4 28.666 -4 45.999c0 28.667 6 71.334 18 128.001c7.33301 36 11.666 57.833 12.999 65.5s2 12.667 2 15v4.5
c0 14 -6.66699 21 -20 21c-10 0 -20.667 -3.66699 -32 -11s-18.666 -15.666 -21.999 -24.999c-4 -8 -8.16699 -25 -12.5 -51s-7.16602 -41.333 -8.49902 -46c-3.33301 -7.33301 -7.33301 -20.333 -12 -39c-12.667 -48.667 -20.334 -76.667 -23.001 -84
c-4 -5.33301 -9.66699 -17.333 -17 -36c-16 -41.333 -26 -65.333 -30 -72c-5.33301 -12 -10.333 -18 -15 -18c-6.66699 0 -11.5 18.667 -14.5 56s-5.66699 59.333 -8 66s-3.83301 17.5 -4.5 32.5s-1 27.833 -1 38.5v19c0 21.333 -1.33301 34.333 -4 39
c0 3.33301 1.5 14.666 4.5 33.999s4.16699 30 3.5 32c-2 5.33301 -3 12 -3 20c0 8.66699 0.833008 21.5 2.5 38.5s2.5 26.833 2.5 29.5c0 15.333 -3.33301 25.666 -10 30.999l-6 12c-6 11.333 -15.667 18 -29 20c-11.333 2.66699 -20.666 -4.5 -27.999 -21.5
s-11 -39.167 -11 -66.5c-4.66699 -13.333 -8.16699 -30.166 -10.5 -50.499s-3.5 -43.5 -3.5 -69.5c0 -13.333 0.333008 -24.5 1 -33.5s1.66699 -18.5 3 -28.5c8 -3.33301 13.5 -10 16.5 -20s4.5 -19 4.5 -27c0 -10.667 3.66699 -39.5 11 -86.5s14.333 -72.167 21 -75.5
c-2.66699 -5.33301 -4 -11 -4 -17c0 -6.66699 1.66699 -15 5 -25c10.667 -31.333 16 -47.333 16 -48c4 -6.66699 11.667 -10 23 -10c9.33301 0 17.666 3 24.999 9s11 15 11 27z" />
    <glyph glyph-name="X" unicode="X" horiz-adv-x="375" 
d="M32 10c-4 -2.66699 -7.3291 -8.5 -9.99609 -17.5s-4 -17.5 -4 -25.5c0 -14.667 2.66699 -22 8 -22c4.66699 -2 16.334 13.333 35.001 46c10.667 19.333 19.667 31.333 27 36c2 5.33301 9.16699 18.333 21.5 39s20.833 37 25.5 49
c1.33301 1.33301 5.66602 7.5 12.999 18.5s12.666 17.167 15.999 18.5c3.33301 0 6.33301 -2.33301 9 -7c5.33301 -10.667 11 -21.334 17 -32.001c11.333 -20 19 -32.833 23 -38.5s9.33301 -11.5 16 -17.5c3.33301 -8 9.66602 -17 18.999 -27c13.333 -14 26.333 -22 39 -24
c6.66699 0 13 0.666992 19 2s9 5.66602 9 12.999c0 3.33301 -1.5 7.33301 -4.5 12s-7.5 10 -13.5 16l-28 48c-12 22 -21.333 40.333 -28 55c-6 6.66699 -12 16.834 -18 30.501s-9 25.167 -9 34.5c0 5.33301 1 9.66602 3 12.999c5.33301 8 31.333 41 78 99
c60 74.667 90 138.334 90 191.001c-7.33301 18 -15 27 -23 27c-5.33301 0 -12 -4 -20 -12l-40 -29c-18.667 -14.667 -30.667 -25.667 -36 -33c-7.33301 -5.33301 -11 -12.333 -11 -21c0 -12.667 7 -17 21 -13c4 4 7.66699 6 11 6c0 -3.33301 -4 -11.666 -12 -24.999l-33 -55
c-1.33301 -4.66699 -8.83301 -16 -22.5 -34s-23.5 -33.333 -29.5 -46c-4 -0.666992 -7.33301 6.33301 -10 21s-4.66699 23.334 -6 26.001c-4.66699 3.33301 -10.334 21.666 -17.001 54.999s-10 56 -10 68c4.66699 5.33301 7 13.666 7 24.999c0 10 -1.83301 19.333 -5.5 28
s-8.83398 15.667 -15.501 21c-2 9.33301 -7 14 -15 14c-4 0 -9 -1.5 -15 -4.5s-12.333 -8.16699 -19 -15.5c-8 -15.333 -14.167 -28.666 -18.5 -39.999s-6.5 -22 -6.5 -32c0 -8 0.833008 -14.667 2.5 -20s4.83398 -11.666 9.50098 -18.999c0 -8.66699 1.66699 -18 5 -28
l10 -29c0 -18.667 6 -42.334 18 -71.001c4 -10 15 -32.333 33 -67c2 -8 -1 -18.333 -9 -31l-30 -45c-8 -17.333 -23.333 -44.333 -46 -81c-14.667 -24 -21.334 -40.667 -20.001 -50z" />
    <glyph glyph-name="Y" unicode="Y" horiz-adv-x="332" 
d="M53 -14c0.666992 -6 4.00195 -9.99707 10.002 -11.9971l21 -7c15.333 2.66699 25.666 6.66699 30.999 12c18.667 4 28 12.333 28 25c0.666992 2 -0.166016 4.33301 -2.49902 7s-3.5 5.66699 -3.5 9c-0.666992 7.33301 0.666016 18.666 3.99902 33.999l11 51
c10 14 19 31.833 27 53.5l18 48.5l26 39c4.66699 8.66699 13.667 23.667 27 45s20 33 20 35c2 1.33301 5 7 9 17s6 16.667 6 20c9.33301 15.333 17.333 34.5 24 57.5s12.334 55.5 17.001 97.5c-4.66699 9.33301 -10 14 -16 14c-8.66699 0 -19.834 -11.5 -33.501 -34.5
l-40.5 -69.5c-5.33301 -12.667 -13.5 -30.167 -24.5 -52.5s-17.167 -37.5 -18.5 -45.5l-37 -78.5c-10 -20.333 -17.667 -31.166 -23 -32.499c-6.66699 8 -12.167 22.333 -16.5 43l-13 64c-4.33301 22 -7.5 39.333 -9.5 52s-3 25 -3 37v12c0 3.33301 1.66699 14.666 5 33.999
c1.33301 16.667 -1.66699 29 -9 37s-17 12 -29 12c-9.33301 0 -18.833 -2.83301 -28.5 -8.5s-16.834 -12.834 -21.501 -21.501c0 -16.667 0.833008 -31.167 2.5 -43.5s4.16699 -19.166 7.5 -20.499c-0.666992 -3.33301 -1 -9 -1 -17c0 -24 4.33301 -53.667 13 -89
c0 -0.666992 6.33301 -23.334 19 -68.001c4.66699 -8 10.667 -20.333 18 -37c13.333 -30 25.666 -47.667 36.999 -53c0 -12 -4.66699 -28.5 -14 -49.5s-14.666 -36.167 -15.999 -45.5c-6 -8.66699 -11 -19.834 -15 -33.501s-6 -26.167 -6 -37.5z" />
    <glyph glyph-name="Z" unicode="Z" horiz-adv-x="335" 
d="M74 -25c39.333 6.66699 69.001 12.0029 89.001 16.0029c37.333 7.33301 64.333 19.333 81 36c8.66699 2 16.667 4 24 6s13.666 6 18.999 12c22.667 6 39 13.667 49 23c6 6 9 14.333 9 25c0 6 -1.16699 10.833 -3.5 14.5s-5.5 4.16699 -9.5 1.5l-49 -19
c-11.333 -6.66699 -28.5 -12.667 -51.5 -18s-46.167 -10.333 -69.5 -15c-6 1.33301 -11.667 2.66602 -17 3.99902c-3.33301 0 -7.33301 -1.33301 -12 -4l-29 2c0 12 7.16699 25.833 21.5 41.5s21.5 25.834 21.5 30.501l22 23c10.667 12.667 18.334 25 23.001 37
c8.66699 8 15 14 19 18c7.33301 7.33301 11.333 12.666 12 15.999l38 44c12.667 14.667 22.667 29.667 30 45c19.333 13.333 35.5 31.166 48.5 53.499s19.5 44.5 19.5 66.5c0 14.667 -2.83301 28 -8.5 40s-15.167 23.333 -28.5 34c-14.667 4 -31 9.33301 -49 16
c-35.333 12.667 -63.333 19 -84 19c-6 0 -14.333 -0.666992 -25 -2c-3.33301 0.666992 -6 1.33398 -8 2.00098c-10 2.66699 -18.333 4 -25 4c-12.667 0 -23.834 -3 -33.501 -9s-15.5 -16.667 -17.5 -32c-4 -2 -7.33301 -6.5 -10 -13.5s-4 -14.167 -4 -21.5
c0 -8 2.66699 -12 8 -12c3.33301 0.666992 9 1 17 1c4.66699 0 13.167 -0.333008 25.5 -1s21.5 -1 27.5 -1c14 0 23.333 1 28 3c0.666992 -0.666992 17.5 -3.66699 50.5 -9s51.833 -14 56.5 -26c2.66699 -10.667 -10.666 -38.667 -39.999 -84l-34 -51
c-3.33301 -4.66699 -14.166 -18.667 -32.499 -42s-28.833 -37.333 -31.5 -42c-2.66699 -2 -10.834 -11.5 -24.501 -28.5l-40.5 -49.5c-14 -14 -25.833 -27.667 -35.5 -41s-17.834 -26.333 -24.501 -39c-2 -2.66699 -3.83301 -7.33398 -5.5 -14.001
s-2.5 -13.334 -2.5 -20.001c0 -12 3.5 -21.833 10.5 -29.5s19.5 -11.5 37.5 -11.5c8 0 14 0.333008 18 1z" />
    <glyph glyph-name="bracketleft" unicode="[" horiz-adv-x="254" 
d="M170 -51c0.666992 3.33301 3.16504 10.335 7.49805 21.002s4.5 17.334 0.5 20.001c-2 0.666992 -5.33301 1 -10 1c-6 0 -16.167 -1.83301 -30.5 -5.5s-24.5 -5.83398 -30.5 -6.50098c-7.33301 1.33301 -15.166 2.33301 -23.499 3s-14.5 2 -18.5 4
c-2.66699 2.66699 -4 8 -4 16c0 8.66699 1.66699 19.5 5 32.5s6.66602 24.833 9.99902 35.5c-3.33301 3.33301 -0.666016 32 8.00098 86l14 82c7.33301 29.333 15.333 76 24 140c4 27.333 7.66699 48.333 11 63c2.66699 24 14.667 39.667 36 47c12 4 33 6 63 6
c7.33301 3.33301 12.833 8.16602 16.5 14.499s5.5 12.833 5.5 19.5c0 6 -1.33301 10.333 -4 13c-8.66699 3.33301 -17.667 5 -27 5c-11.333 0 -25.5 -2.5 -42.5 -7.5l-32.5 -9.5c-10.667 0 -22.667 -3.66699 -36 -11s-22.666 -18 -27.999 -32
c-13.333 -37.333 -24.333 -91.833 -33 -163.5s-16 -120.5 -22 -146.5c0 -12.667 -3.5 -50.834 -10.5 -114.501s-10.5 -99.167 -10.5 -106.5c4 -8 12 -13.833 24 -17.5s27 -5.5 45 -5.5c39.333 0 70.333 5.66699 93 17z" />
    <glyph glyph-name="backslash" unicode="\" 
 />
    <glyph glyph-name="bracketright" unicode="]" horiz-adv-x="254" 
d="M121 -51c36.667 5.33301 60.3311 27.665 70.998 66.998c6.66699 34.667 17.667 109.334 33 224.001c7.33301 56.667 14.333 101.667 21 135c4 14.667 7 35.334 9 62.001s4.33301 55.334 7 86.001c-5.33301 7.33301 -12 12.666 -20 15.999c-12 5.33301 -27.333 8 -46 8
c-19.333 0 -48.666 -4 -87.999 -12c-5.33301 -0.666992 -10.166 -5.5 -14.499 -14.5s-7.5 -17.833 -9.5 -26.5c4.66699 -4.66699 8.33398 -7 11.001 -7c5.33301 0 11.333 0.5 18 1.5s22.334 4.83301 47.001 11.5c7.33301 -1.33301 16.5 -2.66602 27.5 -3.99902
s16.833 -4 17.5 -8c0 -22.667 -2.33301 -48.5 -7 -77.5s-10.667 -59.167 -18 -90.5c0 -29.333 -4 -63.333 -12 -102c-19.333 -92.667 -29 -150.334 -29 -173.001c-2.66699 -6 -5.16699 -12.667 -7.5 -20l-6.5 -21c-6.66699 -6.66699 -15.834 -12.167 -27.501 -16.5
s-23.834 -6.5 -36.501 -6.5c-8 0 -16 1 -24 3c-16 -5.33301 -24 -15 -24 -29c0 -5.33301 1.66699 -11.333 5 -18c6 -2.66699 14.667 -4 26 -4c14.667 0 28.667 1.5 42 4.5s25 6.83301 35 11.5z" />
    <glyph glyph-name="asciicircum" unicode="^" 
 />
    <glyph glyph-name="underscore" unicode="_" horiz-adv-x="383" 
d="M4 -57v-37h377v37h-377z" />
    <glyph glyph-name="grave" unicode="`" horiz-adv-x="184" 
d="M102 385c-25.333 14.667 -45.666 34.6689 -60.999 60.002c-10.667 4 -22.334 0.333008 -35.001 -11c-0.666992 -2.66699 -1.33398 -6.5 -2.00098 -11.5s0 -7.83301 2 -8.5c2.66699 -2.66699 4.83398 -5.83398 6.50098 -9.50098s3.5 -7.5 5.5 -11.5
c2.66699 -0.666992 16.334 -8.33398 41.001 -23.001c11.333 -6.66699 19 -10.334 23 -11.001c7.33301 -4.66699 18.166 -9.66699 32.499 -15s29.5 -10.666 45.5 -15.999c4 2 7 3.66699 9 5c6 4 9 7.66699 9 11l-44.5 20c-11.667 5.33301 -22.167 12.333 -31.5 21z" />
    <glyph glyph-name="a" unicode="a" horiz-adv-x="318" 
d="M2 76c7.33301 -4 10.9971 -8.33398 10.9971 -13.001c0 -2.66699 -1.66699 -8 -5 -16v-23c1.33301 -5.33301 5.33301 -9.33301 12 -12c2.66699 -7.33301 9.33398 -11 20.001 -11c10 0 18.667 3.66699 26 11c6 0 12 2.33301 18 7c2.66699 2 11 10.667 25 26
c8 4 23 16.667 45 38c12 12 22.667 20.667 32 26c0 -16 3.66699 -31 11 -45c10 -19.333 23.667 -29 41 -29c2.66699 0 7.33398 0.666992 14.001 2c8 -2.66699 18.333 0.333008 31 9c9.33301 6 15.333 9.66699 18 11c0.666992 2 3.5 5.16699 8.5 9.5s7.83301 7.5 8.5 9.5
c-1.33301 5.33301 -2 9 -2 11c0 0.666992 0.666992 4.33398 2 11.001c-0.666992 10.667 -1.16699 17.334 -1.5 20.001s-1.16602 3.66699 -2.49902 3c-8 -9.33301 -14.333 -14.666 -19 -15.999c-6 -5.33301 -12.667 -8 -20 -8c-17.333 0 -26 11 -26 33c0 6 1.66699 14 5 24
l-6 25c-3.33301 10 -9.66602 13.333 -18.999 10c-7.33301 0.666992 -18.166 -4.33301 -32.499 -15s-23.166 -19.334 -26.499 -26.001c-22 -13.333 -35.667 -25.666 -41 -36.999c-2 -0.666992 -8.33301 -5 -19 -13s-18.667 -12 -24 -12c4 9.33301 7.16699 16.166 9.5 20.499
s9.5 13.166 21.5 26.499c7.33301 8.66699 13.666 15 18.999 19s10.666 9 15.999 15s9.33301 11.667 12 17c8.66699 2 20.5 10.5 35.5 25.5s25.167 27.833 30.5 38.5c10.667 5.33301 18.667 11 24 17s9.33301 12.667 12 20c-6.66699 11.333 -15.667 17 -27 17
c-8 0 -15.5 -1.66699 -22.5 -5s-23.833 -14.333 -50.5 -33c-4 -4.66699 -24 -20.334 -60 -47.001c-25.333 -19.333 -42.333 -37.666 -51 -54.999c-16.667 -14 -27.667 -23 -33 -27c-8.66699 -7.33301 -13.334 -13.333 -14.001 -18z" />
    <glyph glyph-name="b" unicode="b" horiz-adv-x="287" 
d="M180 33c3.33301 8 7.33301 16.002 12 24.002c9.33301 14.667 14.333 23 15 25l12 29c7.33301 13.333 12.333 23.833 15 31.5s4 14.5 4 20.5s-1.83301 10.167 -5.5 12.5s-8.5 3.5 -14.5 3.5c-8 -0.666992 -14.333 -1 -19 -1s-8 0.666992 -10 2
c-5.33301 -2.66699 -14.166 -10.667 -26.499 -24s-19.833 -23 -22.5 -29c-5.33301 -6 -9.5 -13.833 -12.5 -23.5s-4.5 -20.167 -4.5 -31.5c0.666992 -1.33301 4.16699 -3.5 10.5 -6.5s9.5 -6.5 9.5 -10.5c0 -4.66699 -2.66699 -10 -8 -16c-20.667 -10 -33.667 -14 -39 -12
c-7.33301 11.333 -12.333 22.666 -15 33.999s-4 23.666 -4 36.999c0 17.333 2.5 33.666 7.5 48.999s11.167 27 18.5 35c26.667 42 51.667 89.667 75 143c19.333 44.667 38.666 95.334 57.999 152.001c0.666992 7.33301 1 13.666 1 18.999c0 14 -1.66699 25.5 -5 34.5
s-9.66602 11.833 -18.999 8.5c-6.66699 3.33301 -18 0.5 -34 -8.5s-25 -13.833 -27 -14.5c-1.33301 -4 -5.5 -9.83301 -12.5 -17.5s-10.5 -13.167 -10.5 -16.5c-11.333 -17.333 -21.833 -38 -31.5 -62l-27.5 -70l-21.5 -83c-5.66699 -22 -8.16699 -36.667 -7.5 -44
l-8.5 -34.5c-2.33301 -9.66699 -4.83301 -25.5 -7.5 -47.5c0 -3.33301 -2.5 -7.5 -7.5 -12.5l-15.5 -15.5c-2 -16 -3.16699 -28 -3.5 -36s0.166992 -12.333 1.5 -13s4.5 1.83301 9.5 7.5s8.16699 8.5 9.5 8.5c0.666992 -19.333 2 -35.666 4 -48.999
c7.33301 -48.667 25 -73 53 -73c4 0 7.33301 0.333008 10 1c12.667 2.66699 29.667 13.167 51 31.5s35.666 32.5 42.999 42.5zM201 49.002l-7.00098 -12c-2 -3.33301 -3 -6 -3 -8c0 -3.33301 1.33301 -6 4 -8c6.66699 0 12 1.33301 16 4c10 7.33301 17 12 21 14
c2.66699 2.66699 13.667 10.667 33 24c13.333 8.66699 20 19.667 20 33c-3.33301 8 -5.66602 14.333 -6.99902 19s-3.66602 6.66699 -6.99902 6c-6.66699 -12 -17.334 -25 -32.001 -39c-1.33301 -1.33301 -14 -12.333 -38 -33zM118.999 281.002
c-2 -8 -5.99902 -16.333 -11.999 -25s-9.66699 -14.667 -11 -18c5.33301 31.333 14.666 63.666 27.999 96.999c6 15.333 20.667 45.666 44 90.999c2 2 4 1.83301 6 -0.5s0 -8.16602 -6 -17.499c-9.33301 -12.667 -17.833 -34.167 -25.5 -64.5s-15.5 -51.166 -23.5 -62.499z
" />
    <glyph glyph-name="c" unicode="c" horiz-adv-x="273" 
d="M16 125c-8.66699 -4.66699 -13 -10.998 -13 -18.998s0.333008 -15.333 1 -22c-0.666992 -4 -1 -8.33301 -1 -13c2.66699 0 5.66699 0.5 9 1.5s7 2.16699 11 3.5l5.5 -30c1.66699 -8.66699 4.5 -17 8.5 -25l22 -17c13.333 -10 29.333 -15 48 -15s39 5.33301 61 16
c14.667 7.33301 33 18.666 55 33.999c8.66699 4.66699 17.334 10.667 26.001 18c12 10.667 19.333 19.667 22 27c0 2 -0.5 6.33301 -1.5 13s-0.5 11.334 1.5 14.001c-6 7.33301 -9.66699 11.166 -11 11.499s-2.66602 -1.5 -3.99902 -5.5c0 -8.66699 -17.333 -23.667 -52 -45
c-12 -7.33301 -24.667 -14.333 -38 -21c-6 -2.66699 -14.667 -4 -26 -4c-12 0 -22 2 -30 6s-12 10.333 -12 19c-1.33301 4 -2 10 -2 18c0 20.667 13 40 39 58c31.333 22 47.666 34 48.999 36c18.667 9.33301 32 18 40 26c10.667 10.667 16 22.334 16 35.001
c0 7.33301 -2 15.666 -6 24.999c-12.667 2 -27 -1.33301 -43 -10c-10.667 -6 -19.667 -12.667 -27 -20c-16.667 -8 -39.334 -23.167 -68.001 -45.5s-43 -36.5 -43 -42.5c-8.66699 -2.66699 -18.667 -9.33398 -30 -20.001z" />
    <glyph glyph-name="d" unicode="d" horiz-adv-x="368" 
d="M74 2c17.333 8.66699 38.3291 28.0029 62.9961 58.0029l33 40c4 8.66699 8.66699 17 14 25c8.66699 12.667 15.667 18 21 16c1.33301 -0.666992 2.33301 -5.33398 3 -14.001s3 -16 7 -22c3.33301 -18.667 11.833 -33.167 25.5 -43.5s29.834 -15.5 48.501 -15.5
c30.667 0 55.334 11.333 74.001 34c4 13.333 6 24.333 6 33c0 5.33301 -0.5 8.83301 -1.5 10.5s-3.16699 1.5 -6.5 -0.5c-8 -5.33301 -16.5 -9.33301 -25.5 -12s-16.5 -4 -22.5 -4c-12.667 0 -22 4 -28 12c-15.333 21.333 -23 46.666 -23 75.999c0 21.333 3.66699 43 11 65
c8.66699 12 14 25 16 39c2.66699 3.33301 5.33398 8.33301 8.00098 15s4.66699 12 6 16c7.33301 10.667 12.333 19.667 15 27s4 17.333 4 30c5.33301 9.33301 9.66602 18 12.999 26c7.33301 16 11 28.667 11 38c6.66699 13.333 10 27.333 10 42c0.666992 6 1 10.333 1 13
c0 18 -5.33301 27 -16 27c-8 0 -16.667 -5 -26 -15s-16.666 -22 -21.999 -36c-5.33301 -8 -11.333 -18.333 -18 -31c-3.33301 -6 -11.666 -23.667 -24.999 -53c-8 -24.667 -13.667 -43 -17 -55c-7.33301 -23.333 -13.333 -37.333 -18 -42c-6 0 -11.333 -1.33301 -16 -4
l-21 -14l-42 -40c-9.33301 -10 -16.333 -18 -21 -24c-10 -3.33301 -25 -17 -45 -41l-21 -26c-7.33301 -4.66699 -14.333 -9.66699 -21 -15c-10 -8.66699 -16.667 -14 -20 -16c-2.66699 -4.66699 -4 -8.66699 -4 -12c2 -7.33301 3.33301 -12.333 4 -15
c-5.33301 -5.33301 -8 -12 -8 -20c2.66699 -4.66699 5.66699 -5.33398 9 -2.00098c10 8 16.667 11.333 20 10l-11.5 -36c-3.66699 -12 -5.5 -21 -5.5 -27c0 -12 3 -19.5 9 -22.5s13.667 -4.5 23 -4.5c13.333 0 23.333 3.33301 30 10zM165.996 158.003
c-19.333 -25.333 -32.668 -41.998 -40.001 -49.998c-19.333 -22.667 -32 -34 -38 -34c-4.66699 7.33301 4.5 28.166 27.5 62.499s39.167 54.5 48.5 60.5c4 8.66699 9.83301 16.667 17.5 24s15.5 13.666 23.5 18.999v-12c-1.33301 -4.66699 -2 -9.66699 -2 -15
c-11.333 -18 -19.166 -30 -23.499 -36z" />
    <glyph glyph-name="e" unicode="e" horiz-adv-x="231" 
d="M24 29c10.667 -8.66699 20.501 -14.667 29.501 -18s18.833 -5 29.5 -5c19.333 0 43 8 71 24c40 22.667 63.333 35.334 70 38.001c3.33301 5.33301 5 17.666 5 36.999c1.33301 2.66699 2 5.66699 2 9c-5.33301 -1.33301 -10.333 -2.33301 -15 -3
c-12.667 -8.66699 -19.334 -13 -20.001 -13c-8.66699 -5.33301 -15.667 -10 -21 -14c-17.333 -10.667 -39.333 -16 -66 -16c-12.667 0 -22.667 2.16699 -30 6.5s-11 11.833 -11 22.5c0 4.66699 1 10 3 16c6 4 10.333 7 13 9c5.33301 4 9.66602 8.33301 12.999 13
c16.667 8 33.834 22.5 51.501 43.5s25.834 34.5 24.501 40.5c6.66699 2.66699 10 11 10 25c0 16 -3.33301 25.667 -10 29c-4.66699 6 -9.83398 10 -15.501 12s-12.167 3 -19.5 3c-6.66699 0 -13.334 -1.33301 -20.001 -4s-10.667 -5.66699 -12 -9
c-7.33301 -4 -15.666 -10 -24.999 -18s-17 -15.667 -23 -23c-4.66699 -2 -10 -7.83301 -16 -17.5s-11.667 -19.5 -17 -29.5s-11 -22.5 -17 -37.5s-9 -25.167 -9 -30.5c0 -30 4 -52.333 12 -67c4 -8 8.33301 -15.667 13 -23zM116.001 217
c6 -3.33301 5.33105 -10.168 -2.00195 -20.501s-13 -16.5 -17 -18.5c-3.33301 -9.33301 -10.666 -14 -21.999 -14c-4 -0.666992 -5.83301 0.333008 -5.5 3s2.83301 8.33398 7.5 17.001c6 8 12.833 15.5 20.5 22.5s13.834 10.5 18.501 10.5z" />
    <glyph glyph-name="f" unicode="f" horiz-adv-x="219" 
d="M121 -217c13.333 12 26.6641 33.3389 39.9971 64.0059c10 23.333 19 49.666 27 78.999c0 3.33301 3.16699 15.666 9.5 36.999s9.5 35 9.5 41c0 1.33301 0.833008 5.33301 2.5 12s2.5 11 2.5 13c0 5.33301 -1.66699 9.33301 -5 12c0 0.666992 0.333008 4.66699 1 12
s1 13.333 1 18c0 8 -1.33301 13 -4 15c-11.333 0 -17 -5.33301 -17 -16c-2.66699 -1.33301 -5 -5.33301 -7 -12l-9 -40c-3.33301 -8.66699 -7.16602 -20.334 -11.499 -35.001s-7.16602 -26.667 -8.49902 -36c-9.33301 -25.333 -17.666 -44.666 -24.999 -57.999l-8 -8
c-3.33301 8 -5.66602 16.833 -6.99902 26.5s-2 18.5 -2 26.5c0 9.33301 0.333008 16.833 1 22.5s1.33398 10.5 2.00098 14.5c-0.666992 8 -1 16 -1 24c0 46 2.5 92.5 7.5 139.5s13.5 76.5 25.5 88.5c11.333 16 22 37.667 32 65c6 17.333 13.333 41.666 22 72.999
c5.33301 23.333 9 41.666 11 54.999c4.66699 24.667 7 45 7 61c0 20 -3.33301 36.667 -10 50c0.666992 4.66699 0.666992 9 0 13c-2.66699 10 -9.66699 15 -21 15c-20.667 0 -37.667 -18.333 -51 -55c-7.33301 -16.667 -17.333 -45 -30 -85s-21 -65 -25 -75
c-2.66699 -22 -4.5 -41.5 -5.5 -58.5s-1.5 -27.5 -1.5 -31.5v-20.5c0 -6.33301 0.333008 -12.5 1 -18.5c-9.33301 -19.333 -23 -40.666 -41 -63.999c-14 -16.667 -24.333 -29.334 -31 -38.001c0.666992 -4.66699 1 -11.334 1 -20.001c0 -8 -1 -15 -3 -21l24 10
c16 14.667 25 22 27 22c1.33301 -2.66699 2 -7.33398 2 -14.001c0 -4 -0.333008 -10.833 -1 -20.5s-1 -16.5 -1 -20.5c0 -42 0.666992 -82.167 2 -120.5s5.66602 -67.833 12.999 -88.5c6.66699 -36 20.667 -54 42 -54c5.33301 0 9.66602 0.333008 12.999 1zM169.998 387.006
c0 -15.333 -4.33203 -34.6699 -12.999 -58.0029s-16 -36.666 -22 -39.999c-2.66699 -11.333 -5 -17 -7 -17s-3 8 -3 24v13c3.33301 4.66699 5 12.667 5 24c0 4.66699 -0.333008 8.33398 -1 11.001c5.33301 7.33301 11.166 25 17.499 53s14.833 46 25.5 54
c2 0.666992 3.33301 0.333984 4 -0.999023s1 -4 1 -8c0 -7.33301 -0.833008 -16.333 -2.5 -27z" />
    <glyph glyph-name="g" unicode="g" horiz-adv-x="277" 
d="M197 -156c0 5.33301 3.00098 13.6699 9.00098 25.0029s9 22 9 32c0 2 -1 8.83301 -3 20.5s-4.33301 21.167 -7 28.5c-4.66699 13.333 -11.334 26.666 -20.001 39.999c-2.66699 3.33301 2.33301 10.333 15 21c4 3.33301 11.333 8.66602 22 15.999
c4.66699 4 16 12.333 34 25c13.333 9.33301 22.333 17.333 27 24v27c0 5.33301 -0.166992 10.5 -0.5 15.5s-1.5 7.16699 -3.5 6.5c-2.66699 -0.666992 -6.83398 -4.16699 -12.501 -10.5s-11.167 -11.166 -16.5 -14.499l-47 -33c-16.667 -12 -31.667 -24 -45 -36
c-9.33301 10 -16.333 20.167 -21 30.5l-14 32.5c-0.666992 4.66699 -1 10.667 -1 18c0 9.33301 1.16699 17.5 3.5 24.5s4.16602 12.833 5.49902 17.5c6 3.33301 12.833 8 20.5 14s18.167 16.333 31.5 31c28.667 18.667 51 39.667 67 63c6 3.33301 10 6.5 12 9.5
s3.66699 11.5 5 25.5c0 19.333 -8 29 -24 29c-10 0 -22.667 -5.66699 -38 -17c-5.33301 -1.33301 -11.5 -4.83301 -18.5 -10.5s-10.5 -10.167 -10.5 -13.5c-12.667 -7.33301 -28.334 -19.666 -47.001 -36.999c-22 -20 -33.667 -34.333 -35 -43l-12 -18
c-9.33301 -12.667 -16.666 -20.334 -21.999 -23.001c-3.33301 -6 -13.166 -15.167 -29.499 -27.5s-25.833 -20.833 -28.5 -25.5l4 -25c-2 -11.333 -2.66699 -17.333 -2 -18l49 32c0 -28.667 8.33301 -55.667 25 -81s25 -40 25 -44l-45 -42
c-19.333 -18.667 -32.5 -33.334 -39.5 -44.001s-13.333 -24.334 -19 -41.001s-8.5 -31.334 -8.5 -44.001c0 -18 5.66699 -28.333 17 -31c3.33301 -11.333 14 -17 32 -17c12.667 0 27 2.66699 43 8s28 10.333 36 15c10.667 3.33301 21.334 9.33301 32.001 18
c14 10.667 29.333 26.334 46 47.001zM138.001 -144.996c-15.333 -15.333 -28.333 -26.667 -39 -34c-15.333 -10.667 -31.333 -17.334 -48 -20.001c-13.333 -1.33301 -20 4.33398 -20 17.001c0 5.33301 2 10 6 14c0 6.66699 7.16699 19 21.5 37l29.5 37
c4.66699 0.666992 12 7 22 19s17 18 21 18c4.66699 -4 9.16699 -10.5 13.5 -19.5s6.5 -19.167 6.5 -30.5c0 -14 -4.33301 -26.667 -13 -38z" />
    <glyph glyph-name="h" unicode="h" horiz-adv-x="297" 
d="M148 82c5.33301 0 11.0039 -3.99805 17.0039 -11.998c8.66699 -11.333 13.667 -17.666 15 -18.999c8 -8 19.333 -12 34 -12c18.667 0 36.167 5.33301 52.5 16s24.5 23.667 24.5 39c2 8 3 14.667 3 20c0 6 -1.33301 9 -4 9s-7 -3.33301 -13 -10
c-13.333 -6 -23.333 -9 -30 -9c-8.66699 0 -17.334 4.33301 -26.001 13c-2.66699 5.33301 -6.83398 18.333 -12.501 39s-11.5 31.667 -17.5 33c-8.66699 0 -17.667 -1.5 -27 -4.5s-15.333 -7.83301 -18 -14.5c-4.66699 -5.33301 -10 -14.333 -16 -27l-25 -55
c-6.66699 -12.667 -13.334 -23.667 -20.001 -33c-4.66699 -3.33301 -9 -6.66602 -13 -9.99902c-2 1.33301 -3 5.33301 -3 12c0 12 1.5 26.667 4.5 44l8.5 49c18 15.333 36.333 35.666 55 60.999l82 115l34.5 67.5c9 18.333 14.5 31.833 16.5 40.5
c4.66699 5.33301 8.33398 11.5 11.001 18.5s4 13.833 4 20.5c3.33301 8 5.83301 15.167 7.5 21.5s2.5 11.5 2.5 15.5c0 6 -0.666992 10.333 -2 13c-4 8 -12.333 12 -25 12c-2 4.66699 -5.66699 7 -11 7c-10 0 -24.667 -8.33301 -44 -25c-16 -14 -31.667 -30.667 -47 -50
c-16.667 -16.667 -32.5 -37.334 -47.5 -62.001s-26.5 -49 -34.5 -73c-18 -24.667 -32 -56.334 -42 -95.001l-22 -100c-10.667 -10.667 -17.334 -18 -20.001 -22l-2 -49c3.33301 0 6.66602 2 9.99902 6l4 4v-27c0 -22.667 2.33301 -40.334 7 -53.001s15.334 -19 32.001 -19
c3.33301 0 8.33301 0.666992 15 2c6.66699 5.33301 14.667 13.333 24 24s18.333 22 27 34c-0.666992 2.66699 1.66602 7.66699 6.99902 15zM156.004 297.002l-50.999 -60.999c-2 6 0.666992 17.333 8 34c17.333 40.667 26 62 26 64c4 2 8.16699 6.5 12.5 13.5
s6.5 13.5 6.5 19.5l60 81c8 5.33301 16 11 24 17c0 -10 -2.33301 -20.667 -7 -32c-2 -5.33301 -12.667 -25.333 -32 -60c-6.66699 -14 -11.667 -24 -15 -30c-6 -11.333 -10.667 -17 -14 -17c-2 -5.33301 -4.33301 -10.333 -7 -15s-6.33398 -9.33398 -11.001 -14.001z" />
    <glyph glyph-name="i" unicode="i" horiz-adv-x="234" 
d="M98 330c-0.666992 -4.66699 2.16797 -7.50098 8.50098 -8.50098s14.5 -1.5 24.5 -1.5c11.333 5.33301 21.166 11.833 29.499 19.5s13.5 17.5 15.5 29.5c2.66699 4 5.33398 10.833 8.00098 20.5s4 16.834 4 21.501c0 11.333 -4 17 -12 17c-6.66699 2 -15.834 0 -27.501 -6
s-17.5 -12 -17.5 -18c-10 -2.66699 -19.167 -9.5 -27.5 -20.5s-12.5 -21.833 -12.5 -32.5c0 -8.66699 2.33301 -15.667 7 -21zM4.00195 65.999c2 0 4.99902 2.33496 8.99902 7.00195s8 7.66699 12 9c7.33301 10 15 18.333 23 25c10.667 8.66699 18 11.334 22 8.00098
c4.66699 -4 8 -9.83301 10 -17.5s5.33301 -13.5 10 -17.5c0 -7.33301 3.66699 -15.833 11 -25.5s18.666 -18.834 33.999 -27.501c6.66699 -1.33301 11.667 -2 15 -2c14 0 29.333 5.66699 46 17c12.667 8.66699 24.334 19.334 35.001 32.001l2 49
c-4 -1.33301 -9 -4.5 -15 -9.5s-10.333 -10.167 -13 -15.5c-0.666992 0 -4.66699 -1.66699 -12 -5s-13 -5 -17 -5c-6 0 -11.167 2.5 -15.5 7.5s-8.16602 14.167 -11.499 27.5c-2.66699 16.667 -4.5 30 -5.5 40s-2.5 18.667 -4.5 26c-6 8 -12.167 13.833 -18.5 17.5
s-15.166 5.16699 -26.499 4.5c-3.33301 -2.66699 -6 -5 -8 -7s-4.66699 -5.66699 -8 -11c-6 -2.66699 -13.333 -9.33398 -22 -20.001s-13.667 -18.334 -15 -23.001c-5.33301 -2 -11.333 -6.66699 -18 -14c-10.667 -12 -16.334 -18.333 -17.001 -19l-4 -40v-6
c1.33301 -2.66699 2 -4.33398 2 -5.00098z" />
    <glyph glyph-name="j" unicode="j" horiz-adv-x="236" 
d="M225 412c3.33301 11.333 5.83203 20.498 7.49902 27.498s2.16699 14.167 1.5 21.5c-2 6 -7.33301 9 -16 9c-6.66699 0 -13.667 -2 -21 -6s-13 -9.66699 -17 -17c-12 -7.33301 -22 -15.5 -30 -24.5s-12 -19.167 -12 -30.5c0 -7.33301 2.66699 -15.666 8 -24.999
c6.66699 -4 17.334 -6 32.001 -6c14.667 8 25.5 15.333 32.5 22s11.833 16.334 14.5 29.001zM-0.000976562 63.998c8 4 17.6689 12.3291 29.002 24.9961c2.66699 2.66699 14 15.334 34 38.001c16.667 19.333 28.667 29 36 29c5.33301 0 8.5 -5.33301 9.5 -16
s1.83301 -21 2.5 -31c-4 -32 -7.33301 -59.667 -10 -83s-6.33398 -38.666 -11.001 -45.999c-12.667 -14.667 -29 -40.667 -49 -78c-22.667 -42 -33 -70.667 -31 -86c-8 -8 -12 -20.333 -12 -37c0 -23.333 9 -35 27 -35c10.667 0 19 3 25 9s12.667 18.667 20 38
c11.333 16.667 23.333 48.5 36 95.5s26.667 79.5 42 97.5c18 14.667 35 31.334 51 50.001c14 15.333 28.333 33.333 43 54l-6 23c3.33301 9.33301 3.33301 15.333 0 18c-4.66699 0 -9.83398 -5 -15.501 -15s-9.16699 -16 -10.5 -18s-10.666 -11 -27.999 -27
c-6.66699 -6.66699 -12.667 -11.334 -18 -14.001c-1.33301 0 -2.5 0.5 -3.5 1.5l-2.5 2.5l15 86c6 36 9 66.333 9 91v17c-1.33301 8 -2 13.667 -2 17c-2.66699 2.66699 -6.5 5 -11.5 7s-8.5 3 -10.5 3c-9.33301 0 -19 -6.33301 -29 -19
c-15.333 -19.333 -23.666 -29.666 -24.999 -30.999c-10.667 -14 -23.834 -29.5 -39.501 -46.5l-44.5 -48.5c-8.66699 -6 -14.334 -12.167 -17.001 -18.5s-4 -14.166 -4 -23.499c0.666992 -12 1 -21.667 1 -29z" />
    <glyph glyph-name="k" unicode="k" horiz-adv-x="314" 
d="M74 -31c8.66699 0 16.999 5.33203 24.999 15.999c12.667 16 19.334 24.333 20.001 25c9.33301 10.667 16.666 20 21.999 28l17 25c3.33301 6 7 9 11 9c6 0 16.833 -7 32.5 -21s27.834 -22 36.501 -24c14 0 28.667 6.66699 44 20c18 15.333 27 33 27 53
c0 3.33301 -0.666992 8.33301 -2 15c-2 4 -4.66699 5.33301 -8 4c-14 -16 -26.333 -24 -37 -24c-11.333 0 -21.333 8 -30 24c-4 2.66699 -7.83301 6.33398 -11.5 11.001s-5.5 9.66699 -5.5 15c0 7.33301 3.33301 15.666 10 24.999c1.33301 2.66699 11 19 29 49
c14.667 24 22 43 22 57c0 9.33301 -2.33301 16.5 -7 21.5s-9 7.5 -13 7.5c-6.66699 0 -12.167 -5.33301 -16.5 -16s-7.83301 -20.334 -10.5 -29.001c-2.66699 -5.33301 -12.667 -22.666 -30 -51.999c-7.33301 -12.667 -13 -23.334 -17 -32.001
c-22.667 -2.66699 -35 -12.167 -37 -28.5s-3.33301 -28.5 -4 -36.5l-34 -62c-2.66699 -2.66699 -5 -3.5 -7 -2.5s-3 4.16699 -3 9.5c0 10 3.33301 24 10 42c0 4.66699 4.66699 24.667 14 60s14 57 14 65l64 173c4 7.33301 7.66699 17 11 29s5 22.667 5 32
c0 13.333 -2.5 24.5 -7.5 33.5s-12.833 14.833 -23.5 17.5c-6.66699 2 -13.834 -5.5 -21.501 -22.5s-13.167 -33.167 -16.5 -48.5s-8.66602 -30.5 -15.999 -45.5s-13.333 -31.5 -18 -49.5s-12.334 -39.333 -23.001 -64c-32 -72 -48.667 -110 -50 -114l-26 -36
c-7.33301 -11.333 -11 -24.666 -11 -39.999c0.666992 -1.33301 -0.666016 -8 -3.99902 -20c10 0 20.5 9.16699 31.5 27.5s20.167 27.5 27.5 27.5c0 -8 -1.5 -19.167 -4.5 -33.5s-3.5 -23.166 -1.5 -26.499c-2.66699 -6 -5 -13.5 -7 -22.5s-3 -18.5 -3 -28.5
c0 -14 2.5 -25.333 7.5 -34s13.5 -11.667 25.5 -9z" />
    <glyph glyph-name="l" unicode="l" horiz-adv-x="251" 
d="M257 68v52.999l-22 -11.5c-6 -3 -13 -7.5 -21 -13.5c-16.667 -10.667 -32.667 -16 -48 -16c-18 0 -32.833 7.5 -44.5 22.5s-17.5 34.167 -17.5 57.5c38.667 52 70 103.667 94 155c28 58.667 45.667 116.334 53 173.001v18c0 14 -1.33301 24 -4 30
c-4.66699 10 -13 14.333 -25 13c-10.667 2.66699 -25 -6.33301 -43 -27c-14 -16 -25.333 -32.333 -34 -49c-27.333 -56 -48.333 -106.333 -63 -151c-16.667 -52 -28 -104.667 -34 -158c-14.667 -16.667 -23 -26 -25 -28c-8 -8.66699 -14.667 -15 -20 -19
c-0.666992 -8.66699 -1 -15.667 -1 -21c0 -6.66699 0.333008 -11.334 1 -14.001l-2 -10c6 2.66699 12.333 5.66699 19 9c16 14.667 26 22.667 30 24c4.66699 -27.333 14.667 -48.666 30 -63.999c13.333 -13.333 28.666 -20 45.999 -20c4 -2 9 -3 15 -3
c13.333 0 28.833 4 46.5 12s32.167 16.333 43.5 25l13.5 5.5c5.66699 2.33301 9.83398 4.83301 12.501 7.5zM140 278.999c-4 -10.667 -9.33301 -20.5 -16 -29.5s-12 -13.5 -16 -13.5c-0.666992 4.66699 0.333008 11 3 19c10 28.667 15 43.334 15 44.001
c6.66699 6 13.167 18.333 19.5 37l21.5 62c5.33301 6 9.66602 10.667 12.999 14c6.66699 6.66699 12 10 16 10c-1.33301 -2.66699 -2.66602 -7.83398 -3.99902 -15.501l-4 -23.5c-4 -4 -8 -14 -12 -30s-7 -25 -9 -27z" />
    <glyph glyph-name="m" unicode="m" horiz-adv-x="513" 
d="M72 2c2 0 5 2.66699 9 8c10.667 13.333 18 21 22 23c8 12.667 21 28.334 39 47.001c23.333 23.333 35.333 35.666 36 36.999c26 22.667 42.333 34 49 34c4 0 6 -3.33301 6 -10c0 -8.66699 -2.33301 -21 -7 -37c-4.66699 -22 -10.334 -43 -17.001 -63s-10 -32.333 -10 -37
c4 -10 9.66699 -15 17 -15s15.333 4.33301 24 13c6 6 21 22.333 45 49c13.333 15.333 21 23.666 23 24.999c4.66699 3.33301 11.667 9.66602 21 18.999c6.66699 6.66699 12.667 10.667 18 12c12 0 24.667 -8 38 -24c17.333 -20 28.333 -31.333 33 -34
c12 -7.33301 23.667 -11 35 -11c12.667 0 24.334 4.33301 35.001 13c5.33301 4.66699 12.666 12.334 21.999 23.001c0 4.66699 -0.166992 9.5 -0.5 14.5s-0.5 9.83301 -0.5 14.5c0 7.33301 0.333008 14 1 20c-3.33301 0 -9.33301 -4.33301 -18 -13s-16 -13 -22 -13
c-5.33301 0 -10.333 2.83301 -15 8.5s-9 11.834 -13 18.501s-7.66699 12.334 -11 17.001c-7.33301 27.333 -20 41 -38 41c-14.667 0 -32.667 -8.66699 -54 -26c-10 -8 -25.333 -22.333 -46 -43c0 12.667 1.66699 26.667 5 42c8 37.333 12 60.666 12 69.999
c0 21.333 -7 32 -21 32c-16 0 -36.333 -14 -61 -42c-10.667 -9.33301 -21.334 -20.166 -32.001 -32.499s-22 -22.5 -34 -30.5c-7.33301 -7.33301 -12.666 -11 -15.999 -11c0 7.33301 0.333008 14.666 1 21.999c5.33301 20.667 8.33301 35.334 9 44.001
c1.33301 7.33301 1 15 -1 23s-8 12 -18 12c-6.66699 0 -16.667 -4 -30 -12c-4.66699 -2 -11.667 -8 -21 -18c-11.333 -12.667 -19.333 -21.334 -24 -26.001l-66 -73l2 -45c6 2 17.833 14 35.5 36s29.834 31.667 36.501 29c4.66699 -2 3.66699 -13.667 -3 -35l-26 -84
c0 -5.33301 2 -9.33301 6 -12s8.33301 -4 13 -4c5.33301 0 9.33301 1.33301 12 4z" />
    <glyph glyph-name="n" unicode="n" horiz-adv-x="373" 
d="M99 -16l72 83.999c11.333 8 23.333 18 36 30c10 9.33301 16.667 14 20 14c5.33301 0 11.333 -6 18 -18c6.66699 -4.66699 14 -14 22 -28c11.333 -19.333 17.666 -29.666 18.999 -30.999c6.66699 -4.66699 13.667 -7 21 -7c12 0 24.667 5.66699 38 17l31 31
c-1.33301 3.33301 -2.33301 9.33301 -3 18s-1 17.667 -1 27c-3.33301 -0.666992 -8.16602 -4.83398 -14.499 -12.501s-11.833 -11.5 -16.5 -11.5c-3.33301 0 -6.66602 1 -9.99902 3c-8.66699 5.33301 -16.834 16.833 -24.501 34.5s-14.5 34.167 -20.5 49.5
c-8 4 -16.333 6 -25 6c-20.667 0 -44.334 -14.333 -71.001 -43l-35 -40c-4.66699 -4.66699 -9 -10.167 -13 -16.5s-6.66699 -9.16602 -8 -8.49902c-2.66699 4 -1.33398 14.167 3.99902 30.5l15 45.5c3.33301 5.33301 6.5 13 9.5 23s4.5 19.667 4.5 29
c0 8 -1.33301 14.667 -4 20c-5.33301 14 -13.333 21 -24 21c-5.33301 0 -11.666 -1.83301 -18.999 -5.5l-19 -9.5c-8 -9.33301 -20 -22 -36 -38c-28 -28 -46.667 -51 -56 -69c-6 -4 -9 -12 -9 -24c0.666992 -10.667 1 -18.334 1 -23.001
c-1.33301 -5.33301 -2 -8.66602 -2 -9.99902c0 -4 1.5 -5.5 4.5 -4.5s6.83301 5.16699 11.5 12.5c3.33301 3.33301 9 9.66602 17 18.999c12 13.333 20.167 22.833 24.5 28.5s9.83301 8.5 16.5 8.5c5.33301 0 8 -3 8 -9c0 -4 -2 -10 -6 -18
c-1.33301 -7.33301 -4.16602 -18.5 -8.49902 -33.5s-5.83301 -23.833 -4.5 -26.5c-0.666992 -1.33301 -3.16699 -7.33301 -7.5 -18s-6.5 -19 -6.5 -25c0 -1.33301 0.666992 -4.66602 2 -9.99902c-2 -10.667 -2 -17 0 -19c4 -2 11.333 -3 22 -3
c15.333 0 24.333 3.33301 27 10z" />
    <glyph glyph-name="o" unicode="o" horiz-adv-x="321" 
d="M72 10c2.66699 -5.33301 7.99902 -9.00195 15.999 -11.002c8 -0.666992 16.333 -1.66699 25 -3c25.333 0 47.333 7 66 21l42 40c2.66699 4.66699 6.66699 9.83398 12 15.501l11 11.5c0.666992 3.33301 2.66699 7.66602 6 12.999c12 18.667 18.667 29.334 20 32.001
c6 12.667 9 27.667 9 45c0 15.333 -2.33301 30.333 -7 45c-11.333 16 -26.333 24 -45 24c-13.333 0 -27.666 -4.33301 -42.999 -13c-2.66699 2 -2.16699 6 1.5 12s5.5 10 5.5 12c0 3.33301 -1.66699 5.33301 -5 6c-8.66699 1.33301 -15.667 2 -21 2h-6
c-2.66699 -1.33301 -4.33398 -2 -5.00098 -2l-64 -65c-4.66699 -2 -18.667 -14.333 -42 -37l-46 -45v-13c2.66699 -1.33301 3.33398 -6.33301 2.00098 -15s-1.33301 -14.334 0 -17.001c2 0 11.333 8 28 24c8 8 15 12 21 12c0 -2.66699 -1.16699 -11.167 -3.5 -25.5
s-3.5 -25.166 -3.5 -32.499c0 -9.33301 1.83301 -17.166 5.5 -23.499s10.5 -10.5 20.5 -12.5zM210.999 101.998c-5.33301 -7.33301 -9.33398 -12.332 -12.001 -14.999c-7.33301 -8.66699 -16.333 -16.334 -27 -23.001c-14.667 -12.667 -28 -19 -40 -19
c-15.333 0 -21.666 10.333 -18.999 31c0 17.333 8 36.333 24 57c6.66699 0 13 3.66699 19 11l18 22c8 5.33301 15.667 8 23 8s13.5 -3.83301 18.5 -11.5s7.5 -16.5 7.5 -26.5c0 -14.667 -4 -26 -12 -34zM241.998 20.999c2 0 6.33398 1.99805 13.001 5.99805
c19.333 13.333 29.333 20 30 20c11.333 7.33301 20 13.333 26 18c11.333 8.66699 17 18.334 17 29.001c-5.33301 15.333 -9.33301 23 -12 23c-2 0 -5.33301 -2.33301 -10 -7s-9 -8.66699 -13 -12c-4.66699 -9.33301 -11 -17.166 -19 -23.499s-13.333 -11.5 -16 -15.5
c-4.66699 -3.33301 -9.33398 -8.5 -14.001 -15.5s-7 -12.5 -7 -16.5c0 -3.33301 1.66699 -5.33301 5 -6z" />
    <glyph glyph-name="p" unicode="p" horiz-adv-x="307" 
d="M51 -201c4.66699 6.66699 7.33203 11.002 7.99902 13.002c4 8.66699 6 18 6 28c9.33301 18 17 41.333 23 70l16.5 41.5c5.66699 14.333 9.83398 28.5 12.501 42.5c3.33301 6 7.66602 15 12.999 27s11.333 26.833 18 44.5s13.334 26.5 20.001 26.5
c3.33301 0 7.66602 -2.66699 12.999 -8l16 -16c16 -16.667 31.333 -25 46 -25c10.667 0 22.667 4 36 12c3.33301 2 12 7.66699 26 17c1.33301 6.66699 2 17.667 2 33c0 8 -0.666992 12 -2 12c-2.66699 1.33301 -6 0.333008 -10 -3c-12 -10 -21 -15 -27 -15
c-5.33301 0 -10.166 1.16699 -14.499 3.5s-9.5 7.16602 -15.5 14.499c-4.66699 13.333 -12.334 26.333 -23.001 39c-13.333 15.333 -25.666 23 -36.999 23c-12.667 0 -22.667 -8.33301 -30 -25c-13.333 -21.333 -26.666 -50.333 -39.999 -87
c-8.66699 -23.333 -18.667 -53.333 -30 -90c-3.33301 -6.66699 -6.66602 -17 -9.99902 -31c-6 -25.333 -11 -38.666 -15 -39.999c4 24 10.333 52.667 19 86c23.333 86 35.5 131.333 36.5 136s6.16699 23 15.5 55c6.66699 23.333 14.334 39 23.001 47
c1.33301 10 2.66602 17.667 3.99902 23s4.66602 13.833 9.99902 25.5s8 22.5 8 32.5c0 20 -4.33301 31 -13 33c-3.33301 0 -7 -2.5 -11 -7.5l-12 -14.5c-18.667 -42.667 -37 -79.334 -55 -110.001c-22.667 -38 -47.334 -70.333 -74.001 -97
c0 -12.667 -1.33301 -20.334 -4 -23.001c1.33301 -2 2 -5.33301 2 -10c0 -8 0.666992 -12.667 2 -14c4.66699 -0.666992 9.66699 3.5 15 12.5s11.333 14.167 18 15.5c0 -26 -7 -85 -21 -177c-6.66699 -44 -10 -80 -10 -108c-0.666992 -2.66699 -1 -6 -1 -10
c0 -18 7 -27 21 -27c12.667 0 21 8.33301 25 25z" />
    <glyph glyph-name="q" unicode="q" horiz-adv-x="262" 
d="M-2 61c10.667 8.66699 18.002 13.0029 22.002 13.0029c-3.33301 -9.33301 -6.16602 -17.833 -8.49902 -25.5s-3.5 -14.834 -3.5 -21.501c0 -3.33301 0.666992 -6.33301 2 -9c7.33301 -16 20 -24 38 -24c10.667 0 21.167 3 31.5 9s18.833 14 25.5 24c4 2 8 4.16699 12 6.5
s12.667 9.83301 26 22.5s22.5 20.834 27.5 24.501s8.16699 2.83398 9.5 -2.49902c0.666992 -2.66699 1 -8 1 -16c0 -12 -1.16699 -25.333 -3.5 -40s-4.16602 -27.334 -5.49902 -38.001c-3.33301 -20 -7.16602 -46.167 -11.499 -78.5s-6.5 -51.5 -6.5 -57.5l-17 -80
c-0.666992 -2.66699 -1 -6 -1 -10c0 -10 4.33301 -15 13 -15c9.33301 0 17.666 3.66699 24.999 11c3.33301 6.66699 6.33301 14.834 9 24.501s4.66699 18.5 6 26.5c3.33301 6 6.66602 17.667 9.99902 35s6.66602 31 9.99902 41c14.667 55.333 24.667 96 30 122
c10 48 15 89.333 15 124c0 11.333 -2.83301 20.5 -8.5 27.5s-12.834 10.5 -21.501 10.5c-6.66699 0 -12.334 -2.33301 -17.001 -7l-48 -37c-22 -18 -34.667 -29.667 -38 -35c-5.33301 -2 -11.333 -4.83301 -18 -8.5s-13 -6.83398 -19 -9.50098c-3.33301 7.33301 0 16 10 26
c0 5.33301 6 14.333 18 27l46 47c2 2 9.33301 7.16699 22 15.5s22.334 16.166 29.001 23.499c10 5.33301 18 10 24 14s9 8.33301 9 13c-0.666992 0.666992 -5 5.66699 -13 15c-4 4.66699 -9.33301 7 -16 7c-6 0 -16.667 -3.83301 -32 -11.5s-24.5 -12.334 -27.5 -14.001
s-13.167 -8.16699 -30.5 -19.5c-7.33301 -4.66699 -12 -9.33398 -14 -14.001c-10.667 -5.33301 -22.334 -12.833 -35.001 -22.5s-23.667 -19.167 -33 -28.5l-29 -21c-9.33301 -6.66699 -14 -12.667 -14 -18c2 -8 3 -16 3 -24c0 -8.66699 -1 -16 -3 -22z" />
    <glyph glyph-name="r" unicode="r" horiz-adv-x="259" 
d="M0 74l0.00292969 -6c7.33301 4 15.666 14 24.999 30c9.33301 8.66699 17 16.334 23 23.001s9 11.334 9 14.001c24.667 26.667 40.667 40 48 40c5.33301 0 10 -4.33301 14 -13c5.33301 -8.66699 8 -19 8 -31c0 -11.333 -1.83301 -25.166 -5.5 -41.499
s-7.16699 -31.166 -10.5 -44.499c-3.33301 -5.33301 -6.5 -11.666 -9.5 -18.999s-4.5 -14 -4.5 -20c0 -16 10.667 -24 32 -24c5.33301 -0.666992 14.333 3 27 11c16.667 10.667 27 16.334 31 17.001c5.33301 4 17.666 14 36.999 30c13.333 11.333 21.333 17 24 17
c-0.666992 3.33301 1.16602 9.16602 5.49902 17.499s6.5 14.833 6.5 19.5s-0.666992 8 -2 10c1.33301 8.66699 0 13 -4 13c-2 0 -4 -2 -6 -6c-5.33301 -6.66699 -17.333 -17.334 -36 -32.001s-29.334 -22 -32.001 -22c-4 -2 -6.83301 -2.83301 -8.5 -2.5
s-2.5 1.83301 -2.5 4.5c0 3.33301 3.66699 15.666 11 36.999s11 37.666 11 48.999c2 21.333 -4 44 -18 68c-16 26.667 -34.667 41 -56 43c-8 2.66699 -17 0.666992 -27 -6c-4 -2.66699 -11.333 -9.33398 -22 -20.001c-8 -2.66699 -12 -7 -12 -13
c2 -7.33301 3.33301 -13.333 4 -18c-4 -2 -8.33301 -6.83301 -13 -14.5s-7.33398 -11.834 -8.00098 -12.501c-3.33301 -6.66699 -9.16602 -16 -17.499 -28l-23.5 -33c-0.666992 -2 -1 -4.16699 -1 -6.5v-4.5c0 -6 0.333008 -11 1 -15s1.33398 -7.66699 2.00098 -11z" />
    <glyph glyph-name="s" unicode="s" horiz-adv-x="236" 
d="M0 68c3.33301 1.33301 11.0059 8.00098 23.0059 20.001c31.333 32 51.666 51.333 60.999 58c5.33301 2.66699 11.166 7.16699 17.499 13.5s10.833 9.5 13.5 9.5c4 0 7.33301 -3 10 -9c0.666992 -5.33301 1 -9.66602 1 -12.999c0 -10.667 -0.333008 -18.834 -1 -24.501
l-6 -50.5c-1.33301 -3.33301 -2.33301 -5.33301 -3 -6s-1.33398 -1 -2.00098 -1c-1.33301 0 -3.33301 2.33301 -6 7s-5.33398 6.66699 -8.00098 6c-4 0 -10.167 -2.66699 -18.5 -8s-12.5 -12.333 -12.5 -21c0 -4 1 -8 3 -12c0 -15.333 0.833008 -28.166 2.5 -38.499
s5.5 -19.5 11.5 -27.5c0 -10 3.66699 -15 11 -15c3.33301 0 8.16602 1.5 14.499 4.5l17.5 8.5c4 6.66699 11.667 13 23 19c26 19.333 45.333 34.333 58 45c24 19.333 36 38.666 36 57.999c0 2.66699 -0.666992 7.33398 -2 14.001c0 10.667 -1.66699 16 -5 16
c-2 0 -5.66699 -3.66699 -11 -11l-13 -20l-30.5 -27c-8.33301 -7.33301 -14.5 -10.666 -18.5 -9.99902c-2 5.33301 0.333008 17.333 7 36c3.33301 9.33301 7 18.666 11 27.999l14 76c0 4.66699 -0.333008 8 -1 10c4.66699 6.66699 7 14 7 22
c0 11.333 -3.83301 21.833 -11.5 31.5s-16.834 14.5 -27.501 14.5c-6.66699 0 -13.667 -3 -21 -9l-33 -38c-14.667 -16.667 -27 -27.667 -37 -33c-9.33301 -13.333 -22 -28 -38 -44s-25.333 -24 -28 -24c-7.33301 -2.66699 -11 -8.33398 -11 -17.001
c1.33301 -12.667 2.33301 -25.334 3 -38.001z" />
    <glyph glyph-name="t" unicode="t" horiz-adv-x="244" 
d="M78 20c-0.666992 -3.33301 -0.999023 -7.66895 -0.999023 -13.002c0 -16.667 4.33301 -25 13 -25c4.66699 -1.33301 8.66699 -3.33301 12 -6l11 -9c6.66699 0 19 8.33301 37 25l30 29c20 10.667 35 24.667 45 42s15 36.666 15 57.999c-2 4 -5 4 -9 0
c-8 -7.33301 -16 -13.666 -24 -18.999c-10.667 -11.333 -18.334 -19 -23.001 -23c-11.333 -10.667 -22.666 -18 -33.999 -22c-2 -0.666992 -3.33301 0 -4 2s-1 5.33301 -1 10c0 11.333 0.833008 21.833 2.5 31.5s4.5 24.834 8.5 45.501c0 19.333 4.66699 42.333 14 69l27 76
c1.33301 1.33301 7.33301 3 18 5s16 5 16 9v20.5c0 6.33301 1 15.833 3 28.5c0 2.66699 -2.16699 4.83398 -6.5 6.50098s-5.83301 5.16699 -4.5 10.5c2 6 4.16699 13 6.5 21s3.5 15.667 3.5 23s-1.66699 13 -5 17s-9 6 -17 6c-8.66699 -2.66699 -20.667 -20.334 -36 -53.001
c-7.33301 -14.667 -15.666 -22 -24.999 -22c-2 0 -5.66699 0.666992 -11 2c-2 -1.33301 -6.33301 -2 -13 -2c-17.333 1.33301 -30.333 2 -39 2c-4.66699 0 -10.334 -0.666992 -17.001 -2c-10.667 1.33301 -18.334 2 -23.001 2c-24.667 0 -37 -12.333 -37 -37
c0 -3.33301 0.5 -7.83301 1.5 -13.5s4.5 -9.66699 10.5 -12s13 -4.16602 21 -5.49902c2 2 7.66699 2.5 17 1.5s15.333 -1.5 18 -1.5h14.5c5 0 10.167 0.333008 15.5 1c10 0 16.667 -0.5 20 -1.5s3.66602 -3.5 0.999023 -7.5l-33 -58c-8.66699 -14 -16 -24 -22 -30
c-6 -13.333 -17.667 -30 -35 -50c-14.667 -16.667 -27 -29.334 -37 -38.001c-0.666992 -3.33301 -1 -8.33301 -1 -15c0 -8 0.333008 -14.833 1 -20.5s1.33398 -10.5 2.00098 -14.5c20.667 18 40 37 58 57c9.33301 10.667 21.333 25.334 36 44.001
c0 -8.66699 -1.66699 -21.5 -5 -38.5s-6.33301 -33.5 -9 -49.5c-2 -4.66699 -3.5 -12.5 -4.5 -23.5s-1.5 -21.833 -1.5 -32.5z" />
    <glyph glyph-name="u" unicode="u" horiz-adv-x="347" 
d="M74 4c9.33301 -4 18.3301 -6 26.9971 -6c21.333 0 43.333 11.667 66 35c12 12.667 27.333 33 46 61c3.33301 -3.33301 7 -6.66602 11 -9.99902c10.667 -30 28.334 -45 53.001 -45c12.667 0 23.834 2.66699 33.501 8l29.5 17c8.66699 2 13 13.333 13 34
c0 8 -0.5 14.167 -1.5 18.5s-2.16699 6.5 -3.5 6.5c-1.33301 -0.666992 -7.16602 -5 -17.499 -13s-18.5 -12 -24.5 -12s-10.833 2.83301 -14.5 8.5s-6.5 15.834 -8.5 30.501c0.666992 6 1 11 1 15c0 10 -2 18.667 -6 26s-11.333 11 -22 11c-11.333 0 -22.5 -8 -33.5 -24
l-31.5 -46l-41 -49c-2.66699 -0.666992 -7.16699 -3.5 -13.5 -8.5s-10.166 -6.5 -11.499 -4.5c-4 6 -6 16.667 -6 32c0 26 4 51 12 75c0 6 3.5 18.833 10.5 38.5s10.5 32.834 10.5 39.501c0 5.33301 -1.16699 9.16602 -3.5 11.499s-5.5 3.5 -9.5 3.5
c-4.66699 0 -10.334 -1.66699 -17.001 -5s-13 -7.33301 -19 -12c-14 -22.667 -28 -43.334 -42 -62.001c-19.333 -25.333 -36.333 -44.333 -51 -57c-4.66699 -3.33301 -8 -8.5 -10 -15.5s-3 -14.167 -3 -21.5c0 -13.333 1.66699 -20 5 -20s10.333 5.33301 21 16l20 22
c2.66699 -6 5.66699 -12 9 -18c2.66699 -44.667 10 -71.334 22 -80.001z" />
    <glyph glyph-name="v" unicode="v" horiz-adv-x="281" 
d="M63 47c-2 -6 -2.99902 -11.6689 -2.99902 -17.002c0 -14 4 -27 12 -39s17.333 -18 28 -18c15.333 0 25.333 3.33301 30 10c3.33301 7.33301 7 14.333 11 21c6.66699 4 14.667 13.333 24 28l35 60c-0.666992 2 3.33301 9.66699 12 23s13 25 13 35
c5.33301 6.66699 9.66602 15.334 12.999 26.001c1.33301 6 3 15.667 5 29c5.33301 7.33301 8.66602 14 9.99902 20s4 19 8 39c0 7.33301 -4 11 -12 11c-11.333 0 -19.666 -7 -24.999 -21l-45 -125l-32.5 -53c-10.333 -16.667 -17.833 -25 -22.5 -25c-4 0 -7 5.66699 -9 17
s-3 22.666 -3 33.999v12.5c0 5 0.333008 10.5 1 16.5c0 14 -1 29 -3 45c1.33301 7.33301 2 15 2 23v18c0 12 -0.5 20.667 -1.5 26s-3.16699 8.33301 -6.5 9c-6 0.666992 -13.333 -2.66602 -22 -9.99902s-13.667 -13 -15 -17c-6 -16.667 -17 -37.667 -33 -63
c-18 -26.667 -29.667 -44.334 -35 -53.001c0 -9.33301 0.166992 -18.166 0.5 -26.499s2.16602 -13.166 5.49902 -14.499c2 1.33301 9.5 9.83301 22.5 25.5s21.833 23.5 26.5 23.5c0 -12 0.333008 -26.167 1 -42.5s3.33398 -25.5 8.00098 -27.5zM233.001 42.998
c20 12.667 31.667 20.332 35 22.999c12.667 10 18.667 19.333 18 28c-2 2 -4 7.33301 -6 16s-4 13 -6 13c-2.66699 0 -7.33398 -4.33301 -14.001 -13c-4 -5.33301 -7.66699 -8.66602 -11 -9.99902c-2 -4 -11.333 -14.5 -28 -31.5s-25.667 -28.167 -27 -33.5
c-1.33301 -4 -1.66602 -7.33301 -0.999023 -10s2.66699 -4 6 -4c2 0 5 0.666992 9 2z" />
    <glyph glyph-name="w" unicode="w" horiz-adv-x="397" 
d="M58 94c0 -4.66699 1.83496 -17.667 5.50195 -39s5.5 -33 5.5 -35l8 -34c0 -20.667 7.33301 -31 22 -31c8.66699 0 16.334 3.66699 23.001 11s10.667 17.333 12 30c4 5.33301 8 11 12 17s6.33301 13.333 7 22c6.66699 6.66699 14 20 22 40c4 10 7.33301 16.333 10 19
c2 0.666992 3.33301 0 4 -2s1 -4.66699 1 -8c-1.33301 -5.33301 -2.33301 -10.5 -3 -15.5s-1 -11.167 -1 -18.5c0 -18.667 3.33301 -38.667 10 -60c8 -8.66699 16.333 -13 25 -13c6 0 11.5 1.5 16.5 4.5s10.833 7.83301 17.5 14.5c25.333 28 48.666 62.333 69.999 103
s36.333 79.334 45 116.001c2.66699 6.66699 5.16699 14.5 7.5 23.5s3.5 17.167 3.5 24.5c0 16 -5 27.333 -15 34c-7.33301 -2 -12.833 -7 -16.5 -15s-7.16699 -25.333 -10.5 -52c-2.66699 -4.66699 -7.33398 -17.334 -14.001 -38.001c-2 -6 -5.66699 -18 -11 -36
c-2 -2.66699 -13.667 -23 -35 -61c-14 -25.333 -24 -36.666 -30 -33.999c-3.33301 3.33301 -5 13 -5 29c0 13.333 0.5 26.5 1.5 39.5l3.5 44.5c2 4 3.5 9.66699 4.5 17s1.5 14.666 1.5 21.999c5.33301 1.33301 8 7.33301 8 18c0 8 -2 14.667 -6 20s-10 7 -18 5
c-8.66699 -2.66699 -16.667 -9.33398 -24 -20.001c-4 -5.33301 -11.667 -19.666 -23 -42.999c-0.666992 -4.66699 -2.83398 -10.334 -6.50098 -17.001s-8.5 -14 -14.5 -22c-6.66699 -21.333 -12.667 -33.666 -18 -36.999c-6 -12 -10 -20.333 -12 -25
c-4 -8.66699 -7.66699 -12.667 -11 -12c-4.66699 0 -7.16699 7.66699 -7.5 23s-0.5 26 -0.5 32c0 10 -0.333008 19.167 -1 27.5l-2 25.5c0.666992 4.66699 1 8.33398 1 11.001c0.666992 6 1.5 11.667 2.5 17s1.5 10.333 1.5 15c0 11.333 -6 17 -18 17
c-7.33301 -0.666992 -14.666 -4.33398 -21.999 -11.001c-6.66699 -8 -13 -16 -19 -24c-3.33301 -12 -9 -24.333 -17 -37l-33 -45c-6.66699 -6.66699 -10.5 -13.167 -11.5 -19.5s-1.5 -11.5 -1.5 -15.5c0 -4.66699 -0.333008 -8 -1 -10
c0.666992 -1.33301 0.666992 -4.66602 0 -9.99902s0.666016 -8 3.99902 -8c1.33301 0 5.33301 4.33301 12 13c3.33301 4 9 9 17 15c10.667 12.667 18 19 22 19c2 0 3.16699 -1.83301 3.5 -5.5s-0.166992 -8.83398 -1.5 -15.501zM356.002 51
c17.333 10.667 27.0029 16.668 29.0029 18.001c10 8 14 16.333 12 25c-0.666992 6.66699 -1.66699 13.167 -3 19.5s-3.33301 9.5 -6 9.5c-1.33301 0 -4.33301 -3.16699 -9 -9.5s-12.334 -12.833 -23.001 -19.5l-41 -45c-10 -11.333 -13 -20 -9 -26
c3.33301 -4.66699 11.166 -2.83398 23.499 5.49902s21.166 15.833 26.499 22.5z" />
    <glyph glyph-name="x" unicode="x" horiz-adv-x="305" 
d="M194 191c-9.33301 -13.333 -18.001 -24.667 -26.001 -34c-11.333 -13.333 -20.333 -21.333 -27 -24c-3.33301 0 -7.16602 4.83301 -11.499 14.5s-5.5 18.5 -3.5 26.5c2 4.66699 6.66699 9.66699 14 15c10.667 8 19.667 16 27 24c7.33301 2.66699 13.833 6.66699 19.5 12
l11.5 11c8.66699 0 13 -3.66699 13 -11c0 -5.33301 -1.33301 -10.5 -4 -15.5s-7 -11.167 -13 -18.5zM58.999 3.99902c20 10.667 37 25.668 51 45.001c2.66699 -0.666992 8.66699 -5.66699 18 -15c2 -2 8.66699 -8 20 -18s23.333 -15 36 -15c12 0 25.667 4.33301 41 13
c13.333 8.66699 23.333 15 30 19c6 1.33301 12.167 4.5 18.5 9.5s17.5 15.5 33.5 31.5v31v16c-1.33301 2 -3 2 -5 0c-6 -7.33301 -10 -11.333 -12 -12c-9.33301 -15.333 -21.666 -27 -36.999 -35c-8 0 -14 -2 -18 -6c-14 -4.66699 -24.667 -7 -32 -7
c-15.333 0 -28.666 9 -39.999 27c-2 4.66699 9 18 33 40c13.333 12 21.333 20.667 24 26l21 23.5c6.66699 7.66699 14 17.5 22 29.5c9.33301 11.333 14 24.333 14 39c0 13.333 -3.66699 25.166 -11 35.499s-16 15.5 -26 15.5c-4.66699 0 -10.334 -2.33301 -17.001 -7
s-12.334 -9.33398 -17.001 -14.001c-21.333 -19.333 -35.666 -32 -42.999 -38c-20 -16 -33.333 -26.333 -40 -31h-13c-0.666992 2 -3.66699 12 -9 30c-2.66699 8.66699 -5.16699 14.667 -7.5 18s-5.5 5 -9.5 5c-6.66699 0 -13.834 -3.5 -21.501 -10.5
s-12.5 -15.833 -14.5 -26.5c-1.33301 -3.33301 -2 -7.66602 -2 -12.999c0 -6 1.33301 -12.667 4 -20c6 -17.333 9 -26.666 9 -27.999c0 -3.33301 -1 -6.66602 -3 -9.99902c-7.33301 -7.33301 -18.666 -15 -33.999 -23c-12 -6 -19 -12 -21 -18c-2 -16 -3 -27.667 -3 -35
s1.33301 -11 4 -11c3.33301 0 8.66602 5 15.999 15c4 2 12.667 9.66699 26 23s23 22 29 26c2.66699 -0.666992 7.33398 -8.33398 14.001 -23.001s10.334 -24 11.001 -28c-4 -6.66699 -16.333 -19.334 -37 -38.001s-32.334 -30 -35.001 -34
c-2.66699 -4.66699 -1.66699 -7.83398 3 -9.50098s9 -2.5 13 -2.5c2 0 5.33301 1.66699 10 5c1.33301 0.666992 3.66602 2.33398 6.99902 5.00098z" />
    <glyph glyph-name="y" unicode="y" horiz-adv-x="354" 
d="M177 86c0.666992 5.33301 5.66406 11.3379 14.9971 18.0049c8 4.66699 16 9.66699 24 15c4 -0.666992 4.16699 -10.5 0.5 -29.5s-5.16699 -31.167 -4.5 -36.5c-5.33301 -7.33301 -11.833 -20.833 -19.5 -40.5s-12.167 -31.5 -13.5 -35.5
c-6.66699 -4.66699 -15.667 -13.5 -27 -26.5s-22 -26.5 -32 -40.5c-6 -4 -14 -13 -24 -27s-16.333 -23.667 -19 -29c-2.66699 0 -6.16699 -4.33301 -10.5 -13s-8.5 -13.667 -12.5 -15l-17 -25c-8.66699 -12 -11.667 -22 -9 -30c2.66699 -4.66699 9 -7 19 -7
c9.33301 0 19.5 2.5 30.5 7.5s20 11.833 27 20.5l19.5 24c3.33301 1.33301 7.5 5.83301 12.5 13.5s9.16699 12.5 12.5 14.5c9.33301 19.333 21.666 39.666 36.999 60.999l26 34c12 26 34.333 52.667 67 80c44 36.667 67.667 57 71 61c1.33301 2 1.33301 7.66699 0 17
s-1.33301 17.333 0 24c-3.33301 4.66699 -12.166 0.166992 -26.499 -13.5s-22.833 -20.834 -25.5 -21.501c-3.33301 -3.33301 -8.5 -9 -15.5 -17s-11.167 -12 -12.5 -12l4 28l30 85c3.33301 9.33301 6.5 18.666 9.5 27.999s4.5 16.666 4.5 21.999
c0 4.66699 -1.66699 8 -5 10c-23.333 0 -45 -9.66699 -65 -29l-58 -56c-7.33301 -4 -17 -13.333 -29 -28c-20.667 -13.333 -33 -23 -37 -29c-8 -2.66699 -12 1.33301 -12 12l28 91c1.33301 10.667 -1.16699 18 -7.5 22s-13.166 5.33301 -20.499 4
c-6.66699 -1.33301 -15.667 -8 -27 -20l-33 -35c-3.33301 -4 -15.333 -15.667 -36 -35c-10 -9.33301 -15.667 -15.333 -17 -18c0.666992 -8.66699 1 -15.334 1 -20.001c0 -6.66699 -1 -13.667 -3 -21l2 -5c4 2 12 8.66699 24 20s19 17 21 17
c2.66699 0 4.33398 -6.33301 5.00098 -19s1.66699 -20 3 -22c-1.33301 -10.667 -2 -18 -2 -22c0 -8.66699 3 -14.5 9 -17.5s12.333 -4.5 19 -4.5c18.667 0 36 12 52 36c8.66699 0.666992 17.334 5 26.001 13z" />
    <glyph glyph-name="z" unicode="z" horiz-adv-x="271" 
d="M4 111c-1.33301 -2 -2.33008 -8.50488 -2.99707 -19.5049s-1 -17.5 -1 -19.5c-0.666992 -0.666992 -0.666992 -1.5 0 -2.5s1.33398 -1.5 2.00098 -1.5c4 -0.666992 8.66699 1.5 14 6.5s9.66602 11.5 12.999 19.5c6 4 9.33301 6.33301 10 7
c3.33301 3.33301 9.33301 10 18 20l41 41c4 4 8 6 12 6c6.66699 0 13.334 -5.16699 20.001 -15.5s11 -20.166 13 -29.499c0 -6.66699 -4 -16.667 -12 -30s-12 -22.333 -12 -27c-11.333 -9.33301 -17 -25.666 -17 -48.999c0 -18.667 3.66699 -36 11 -52
c-5.33301 -5.33301 -13.833 -16.166 -25.5 -32.499s-19.167 -25.166 -22.5 -26.499c-0.666992 -1.33301 -11 -16.666 -31 -45.999c-8.66699 -12.667 -13.334 -20 -14.001 -22c-4.66699 -7.33301 -8 -15.166 -10 -23.499s-3 -15.833 -3 -22.5c0.666992 -12 1 -21.333 1 -28
c1.33301 -3.33301 6.16602 -7 14.499 -11s17.833 -6 28.5 -6c7.33301 0 15.666 1 24.999 3c37.333 20 66.333 41.667 87 65c25.333 28.667 38 60 38 94c0 12.667 -2 26 -6 40c-2 2 -3.66699 4.33301 -5 7l-12 23c0 6.66699 6.66699 15.667 20 27c9.33301 8 16.333 15 21 21
l35 31c6.66699 6 11.334 12 14.001 18v41l-4 6c-4.66699 -2.66699 -15.334 -15 -32.001 -37l-37 -35c-3.33301 -8 -9.83301 -16.167 -19.5 -24.5s-16.834 -10.166 -21.501 -5.49902c-1.33301 4 -2 9.66699 -2 17c0 9.33301 4 20 12 32s12.667 20 14 24
c14.667 21.333 22 42.666 22 63.999c0 10 -2 20.167 -6 30.5s-8.66699 19.166 -14 26.499c-4.66699 10 -11.5 18.167 -20.5 24.5s-18.5 9.5 -28.5 9.5c-16 0 -27.667 -9.33301 -35 -28c-6 -5.33301 -20.333 -21.5 -43 -48.5s-39 -47.5 -49 -61.5zM141.003 -137.005
c-11.333 -18 -22.333 -32.667 -33 -44c-18 -18.667 -33.667 -28 -47 -28c-2.66699 0 -6 0.666992 -10 2c-4 3.33301 -4.16699 9.83301 -0.5 19.5l10.5 27.5c4 5.33301 8 11 12 17s7.66699 10.667 11 14c6.66699 12.667 14.667 25 24 37s17 18 23 18
c4.66699 -2.66699 7.5 -10 8.5 -22s1.5 -25.667 1.5 -41z" />
    <glyph glyph-name="braceleft" unicode="{" horiz-adv-x="244" 
d="M230 500l6.00098 46.999h-56c-30.667 0 -54 -12.667 -70 -38c-12 -19.333 -20 -46.333 -24 -81c0 -41.333 -4.66699 -75.666 -14 -102.999c-13.333 -40 -36 -61.667 -68 -65l-6 -41c12.667 0 23.334 -4.33301 32.001 -13c12.667 -12.667 19 -32.667 19 -60
c-1.33301 -12 -4.66602 -33 -9.99902 -63s-8 -55 -8 -75c0 -24.667 7 -44 21 -58c12 -12 26 -18 42 -18h58l6 47c-11.333 -0.666992 -20.333 -1 -27 -1c-12 0 -20.5 1.16699 -25.5 3.5s-8.5 5.83301 -10.5 10.5s-3 10.334 -3 17.001c0 4 0.666992 10.667 2 20s2 17.333 2 24
c3.33301 19.333 6.16602 37.333 8.49902 54s3.5 32.667 3.5 48c0 21.333 -3.33301 39 -10 53s-18.334 24 -35.001 30c21.333 10.667 38.333 23.667 51 39c18 22 27 50 27 84v21c0 33.333 2.33301 58.666 7 75.999c7.33301 28 21.666 42 42.999 42h39z" />
    <glyph glyph-name="bar" unicode="|" 
 />
    <glyph glyph-name="braceright" unicode="}" horiz-adv-x="244" 
d="M4 -21l-6 -47.0029h53c15.333 0 30 3.66699 44 11s25.333 17.333 34 30c4.66699 8.66699 13 56.667 25 144c8.66699 64 34 98 76 102l6 41c-14.667 0 -26.334 6.83301 -35.001 20.5s-13 30.834 -13 51.501c0 14 1.66699 30.333 5 49c8 44 12 74.667 12 92
c0 23.333 -6.83301 41.5 -20.5 54.5s-28.167 19.5 -43.5 19.5h-57l-8 -45h12c16.667 0 28.5 -0.666992 35.5 -2s12.833 -6.66602 17.5 -15.999c2 -7.33301 3 -14.333 3 -21c0 -4.66699 -0.5 -10.667 -1.5 -18s-1.66699 -13.833 -2 -19.5s-2.83301 -21.667 -7.5 -48
s-7 -45.833 -7 -58.5c0 -20.667 3.33301 -37.667 10 -51s19.334 -22.666 38.001 -27.999c-36.667 -14.667 -61.667 -46.667 -75 -96c-4 -15.333 -9.66699 -58 -17 -128c-2.66699 -8 -5 -14 -7 -18c-8 -12.667 -19.333 -19 -34 -19h-37z" />
    <glyph glyph-name="asciitilde" unicode="~" 
 />
    <glyph glyph-name="c141" horiz-adv-x="604" 
d="M36 -53c16.667 0 28.6631 9.66895 35.9961 29.002c4 15.333 8.33301 30.333 13 45l21 67c6 8 10.167 16.667 12.5 26l7.5 29c7.33301 -1.33301 28 5 62 19c22.667 9.33301 41 15.333 55 18c13.333 0 24.5 2 33.5 6s15.833 5 20.5 3c1.33301 -5.33301 2 -13.666 2 -24.999
c0 -6.66699 -0.333008 -20.5 -1 -41.5s-1 -37.833 -1 -50.5c0.666992 -3.33301 1 -7 1 -11v-12c0 -6.66699 -0.333008 -16 -1 -28s-1 -20.333 -1 -25c0 -14 2.33301 -21 7 -21c5.33301 -1.33301 12.333 2.33398 21 11.001c5.33301 5.33301 8.33301 10 9 14l2 -2
c0 -16 3.33301 -24 10 -24c4.66699 0 11 1 19 3c28 0 54.333 2.83301 79 8.5s48.334 15.167 71.001 28.5c12 3.33301 21.667 7.33301 29 12s14.5 9.5 21.5 14.5s12.5 10.833 16.5 17.5s6 13 6 19c0 8.66699 -3.33301 13 -10 13s-14 -4 -22 -12
c-65.333 -22 -131.666 -33 -198.999 -33c-0.666992 2.66699 -1 7 -1 13c0 9.33301 1.16699 19.5 3.5 30.5s4.16602 20.5 5.49902 28.5c0 17.333 2.33301 35.833 7 55.5s10 31.167 16 34.5c21.333 7.33301 42.666 12.5 63.999 15.5s49.666 6.16699 84.999 9.5
c4 0 10.333 -0.666992 19 -2s14.334 -2 17.001 -2c6.66699 0 10.334 2 11.001 6c2 4.66699 3.5 11.167 4.5 19.5s1.5 16.166 1.5 23.499c-3.33301 11.333 -8.33301 17.833 -15 19.5s-15.667 2.5 -27 2.5c-7.33301 -2.66699 -21.666 -4.16699 -42.999 -4.5s-38 -3.5 -50 -9.5
c-10 1.33301 -21.167 -3.5 -33.5 -14.5s-21.5 -15.833 -27.5 -14.5c-0.666992 4 -1 8.33301 -1 13v11c0 7.33301 0.333008 15.166 1 23.499s2 17.166 4 26.499c2.66699 2.66699 7.66699 17.667 15 45s14 43 20 47c4 16.667 12.167 26.5 24.5 29.5s23.833 5.66699 34.5 8
s24.667 3.5 42 3.5c22.667 0 38.667 -3.33301 48 -10l21 -4c10.667 0 15.334 9.33301 14.001 28c2 4 3.83301 9 5.5 15s2.5 11 2.5 15c0 8.66699 -3 15.667 -9 21s-15.667 8 -29 8c-5.33301 0 -9.66602 -0.333008 -12.999 -1c-7.33301 2.66699 -14.333 4 -21 4
c-2.66699 0 -10 -1.33301 -22 -4c-16.667 0 -34.5 -3 -53.5 -9s-29.833 -12.667 -32.5 -20c-34 -27.333 -54.333 -44.666 -61 -51.999c-20.667 -22.667 -31 -47 -31 -73c-2.66699 9.33301 -4.83398 21.5 -6.50098 36.5s-3.16699 26.5 -4.5 34.5s-8.33301 15.667 -21 23
c-16.667 9.33301 -26 15.666 -28 18.999c5.33301 14 9.33301 25.333 12 34s4 14.667 4 18c0 7.33301 -2.5 12 -7.5 14s-8.5 3 -10.5 3c-7.33301 0 -17.333 -5.33301 -30 -16s-21.667 -16.667 -27 -18c-2.66699 -6.66699 -4.66699 -11.5 -6 -14.5
s-5.66602 -7.16699 -12.999 -12.5c-7.33301 0.666992 -14.666 -1.5 -21.999 -6.5s-11 -10.5 -11 -16.5c0 -3.33301 1 -6.66602 3 -9.99902c6.66699 -6.66699 7.33398 -12.667 2.00098 -18c-6.66699 -5.33301 -14.834 -20.666 -24.501 -45.999
s-15.834 -45.666 -18.501 -60.999c-5.33301 -14.667 -9.83301 -27.667 -13.5 -39s-7.5 -24.333 -11.5 -39c-6 -8.66699 -11.5 -19.5 -16.5 -32.5l-9.5 -24.5c-15.333 0 -26.833 -5.33301 -34.5 -16s-11.5 -22.334 -11.5 -35.001c0 -4.66699 0.333008 -8 1 -10
c-3.33301 -8 -5 -14 -5 -18c0 -7.33301 4 -11 12 -11c2 0 5 0.666992 9 2c0 -4.66699 -2.66699 -16.334 -8 -35.001s-8 -32.334 -8 -41.001c-4 -6.66699 -8.5 -19.834 -13.5 -39.501s-7.5 -33.167 -7.5 -40.5c0 -12 3.33301 -18 10 -18zM296.996 232.002
c-15.333 -1.33301 -29 -3.66309 -41 -6.99609c-10.667 0 -27.334 -1 -50.001 -3s-39.667 -3 -51 -3c0 5.33301 1 11.166 3 17.499s5.66699 12.166 11 17.499c2.66699 9.33301 6.5 19 11.5 29s10.167 18.667 15.5 26c0.666992 3.33301 7.33398 18.666 20.001 45.999
c6 12.667 9 22.667 9 30c6 9.33301 10 15.666 12 18.999c6 9.33301 12 14 18 14c18 0 31 -14.667 39 -44c4.66699 -17.333 7 -39 7 -65c-2 -8 -3 -16.333 -3 -25c0.666992 -14.667 1 -25.667 1 -33c0 -8.66699 -0.666992 -15 -2 -19z" />
    <glyph glyph-name="nonbreakingspace" unicode="&#xa0;" horiz-adv-x="500" 
 />
    <glyph glyph-name="exclamdown" unicode="&#xa1;" 
 />
    <glyph glyph-name="cent" unicode="&#xa2;" horiz-adv-x="244" 
d="M10 105c0 -19.333 9.66504 -34.6689 28.998 -46.002c16 -9.33301 34.333 -14 55 -14c0 -3.33301 -0.166992 -7.16602 -0.5 -11.499s-0.5 -8.83301 -0.5 -13.5c0 -12.667 2 -19 6 -19c2.66699 0 6.66699 3 12 9c2 2 3.33301 8 4 18s1.33398 16.333 2.00098 19
c17.333 0 38.833 9 64.5 27s43.834 35 54.501 51c4 4.66699 6 9.33398 6 14.001s-2.66699 7 -8 7c-10.667 -5.33301 -19.834 -9.66602 -27.501 -12.999s-14.5 -4.66602 -20.5 -3.99902c-12.667 -9.33301 -23.167 -15.833 -31.5 -19.5s-18.833 -5.5 -31.5 -5.5l2 48
c2 8.66699 4.66699 21 8 37s5.33301 24.667 6 26c8.66699 4.66699 16.334 11.667 23.001 21c10.667 4.66699 21.334 10.667 32.001 18c14 9.33301 23 17.666 27 24.999c2 5.33301 3 13.333 3 24c0 14.667 -3 21.667 -9 21c-1.33301 1.33301 -5 1.66602 -11 0.999023
s-10.333 -2.33398 -13 -5.00098c-4 0 -9 -2 -15 -6c-6.66699 -2 -11.834 -3.83301 -15.501 -5.5s-8.5 -5.5 -14.5 -11.5c-3.33301 2 -1.33301 15 6 39l-2 12l-33 -6c-2.66699 -8 -4 -16.667 -4 -26c-2 -2 -3.5 -8.33301 -4.5 -19s-1.5 -19.667 -1.5 -27
c-14 -10 -26.5 -19.667 -37.5 -29s-17.833 -16.666 -20.5 -21.999l-28 -28c-12.667 -16 -19 -32 -19 -48c5.33301 -9.33301 8 -22 8 -38zM104.998 188.997c0 -4.66699 -0.333008 -10.667 -1 -18s-1 -11.333 -1 -12c0 -6 0.666992 -9.66699 2 -11
c-2 -4 -3.33301 -11.333 -4 -22s-1 -18 -1 -22c-17.333 8 -26 20.333 -26 37c0 22 10.333 38 31 48z" />
    <glyph glyph-name="sterling" unicode="&#xa3;" horiz-adv-x="402" 
d="M96 -4c1.33301 0.666992 5.1709 4.16797 11.5039 10.501s12.166 9.5 17.499 9.5c17.333 -10.667 31 -18.667 41 -24c18 -9.33301 31.167 -14.333 39.5 -15s15.333 -1.5 21 -2.5s11.834 -1.5 18.501 -1.5c23.333 0 44.333 7 63 21c21.333 16.667 45.666 46.667 72.999 90
c0.666992 9.33301 2.66699 19 6 29c0.666992 3.33301 4.33398 13.333 11.001 30l-20 -8c-12 -12.667 -20.667 -25.667 -26 -39l-45 -45c-18 -16 -34.333 -24 -49 -24c-36.667 0 -67.334 13 -92.001 39c-1.33301 9.33301 0.666992 20.333 6 33s8 22 8 28
c2.66699 4 7 20.333 13 49c2.66699 13.333 6 23.666 10 30.999c8.66699 3.33301 22.167 6.5 40.5 9.5s43.166 5.83301 74.499 8.5l28 21c12 11.333 14.667 20.333 8 27c-13.333 0 -31.833 -1 -55.5 -3s-50.167 -4 -79.5 -6c6 32.667 14.333 71.667 25 117
c8 34 12.333 52.833 13 56.5s2.33398 5.5 5.00098 5.5s4.66699 -2.33301 6 -7c0.666992 -12.667 1.16699 -26.5 1.5 -41.5s0.5 -29.833 0.5 -44.5v-20c0 -10 0.833008 -16.667 2.5 -20s6.5 -3.66602 14.5 -0.999023c8 5.33301 16.333 11.666 25 18.999s13 13.333 13 18
c0 2.66699 -1.33301 5.83398 -4 9.50098l-8 11.5c-0.666992 6 -1.33398 12.333 -2.00098 19s-1 14.334 -1 23.001c0 11.333 1 24.666 3 39.999c-2.66699 28 -7 48.167 -13 60.5s-13.667 18.5 -23 18.5c-10 0 -21 -6 -33 -18c-11.333 -4 -19 -8.5 -23 -13.5
s-6 -12.167 -6 -21.5l-18 -56c-4.66699 -18 -7 -33.333 -7 -46c-4 -6 -8.83301 -20.5 -14.5 -43.5s-10.834 -47.5 -15.501 -73.5c-14 -5.33301 -26.667 -8 -38 -8c-10.667 0 -16 2.66699 -16 8c-10 0 -19.333 -0.833008 -28 -2.5s-17.667 -5.5 -27 -11.5
c-6 -9.33301 -10.333 -17.833 -13 -25.5s-4 -14.5 -4 -20.5s1.66699 -10 5 -12c5.33301 0 10 0.333008 14 1c16.667 2.66699 28.334 4 35.001 4c8 2.66699 16.167 4.66699 24.5 6s19.166 2 32.499 2l-8 -58c-6 -4 -10.167 -11.167 -12.5 -21.5s-5.5 -15.5 -9.5 -15.5
c-8 0 -21.667 7.16699 -41 21.5s-34.333 21.5 -45 21.5c-4.66699 2 -9.66699 -1.83301 -15 -11.5s-10 -18.5 -14 -26.5c0 -8.66699 4.66699 -19.667 14 -33l39 -56c1.33301 0 8.66602 -4.66699 21.999 -14c6.66699 -4.66699 13.667 -7.33398 21 -8.00098z" />
    <glyph glyph-name="currency" unicode="&#xa4;" 
 />
    <glyph glyph-name="yen" unicode="&#xa5;" horiz-adv-x="385" 
d="M124 -12c1.33301 -5.33301 4.50098 -9.16602 9.50098 -11.499s14.833 -3.5 29.5 -3.5c18.667 8.66699 28.334 13 29.001 13c10.667 6 16 12.667 16 20c0 4.66699 -2.66699 9.66699 -8 15c0 10.667 2.66699 25 8 43s9.66602 28.667 12.999 32
c6 3.33301 24 6.16602 54 8.49902s48 5.16602 54 8.49902c14 10.667 23 18 27 22c10.667 10.667 14 19 10 25c-2.66699 0.666992 -10.5 0.166992 -23.5 -1.5s-24.167 -2.5 -33.5 -2.5c-12.667 -4.66699 -25 -8 -37 -10s-24.333 -3 -37 -3c5.33301 26 13 46.667 23 62
c8 2.66699 26.667 5.66699 56 9s51.666 12.666 66.999 27.999c6 6 9 12 9 18c0 4 -3 6.66699 -9 8c-4.66699 -2 -13.834 -3.66699 -27.501 -5s-21.167 -2.33301 -22.5 -3c-8 -4 -15.5 -6.83301 -22.5 -8.5s-13.833 -2.5 -20.5 -2.5c-5.33301 0 -8.66602 0.333008 -9.99902 1
l52 69c34.667 48 55.667 91.333 63 130c4.66699 8 7 18.667 7 32c-0.666992 12 -1 22.333 -1 31l-8.5 11c-3 4 -6.16699 6 -9.5 6c-12 -12 -25.333 -33.333 -40 -64c-18.667 -39.333 -31.334 -64 -38.001 -74c-3.33301 -8 -13.666 -27 -30.999 -57
c-9.33301 -16 -16.333 -29.667 -21 -41c-7.33301 -0.666992 -14.666 -7.66699 -21.999 -21c-10 -17.333 -17 -27.333 -21 -30c-13.333 0 -23 12.333 -29 37l-10 53c-4.66699 15.333 -7.66699 28.166 -9 38.499s-2 21.166 -2 32.499c0 14 0.333008 27.333 1 40l2 37
c0 2.66699 -3 7.33398 -9 14.001s-12.333 11.334 -19 14.001c-3.33301 0 -10.333 -2.66699 -21 -8c-0.666992 -0.666992 -4.33398 -1 -11.001 -1c-5.33301 0 -10.333 -1.83301 -15 -5.5s-8.33398 -11.167 -11.001 -22.5c0 -15.333 0.5 -27.166 1.5 -35.499
s3.16699 -16.166 6.5 -23.499c0 -16 2.66699 -32.833 8 -50.5s11 -35.167 17 -52.5c4 -6 12 -19.333 24 -40s19 -33.667 21 -39c-4 -1.33301 -9.66699 -2 -17 -2c-6 0 -13.667 0.5 -23 1.5s-14.333 1.5 -15 1.5c-3.33301 0 -9 -0.666992 -17 -2c-18 -14 -27 -28 -27 -42
c0 -8 5 -11 15 -9c6 0 20.333 2 43 6s39.334 6 50.001 6c6 0 10 -0.333008 12 -1c2 0 3 -3.33301 3 -10s-0.5 -13 -1.5 -19s-2.83301 -14.333 -5.5 -25c-10.667 -4 -21 -6.66699 -31 -8s-18.333 -2 -25 -2c-12 0.666992 -20.667 1 -26 1c-7.33301 0 -13 -0.333008 -17 -1
c-8 0 -16.833 -5.83301 -26.5 -17.5s-14.5 -21.5 -14.5 -29.5c0 -5.33301 2.66699 -8 8 -8c8.66699 0 24 2 46 6c40 7.33301 63 10 69 8c-7.33301 -12.667 -14 -28.167 -20 -46.5s-9 -34.833 -9 -49.5z" />
    <glyph glyph-name="brokenbar" unicode="&#xa6;" 
 />
    <glyph glyph-name="section" unicode="&#xa7;" 
 />
    <glyph glyph-name="dieresis" unicode="&#xa8;" horiz-adv-x="332" 
d="M208 -6c11.333 0.666992 28.498 8.00195 51.498 22.002s37.833 24.5 44.5 31.5s10 15.833 10 26.5c0 8.66699 -3.33301 13 -10 13c-2.66699 0 -6 -1 -10 -3c-31.333 -16.667 -63.833 -28 -97.5 -34s-72.167 -9 -115.5 -9c-0.666992 2.66699 -1 7.33398 -1 14.001
c0 13.333 1.66699 29 5 47c8.66699 47.333 13 73.333 13 78c4 19.333 27.333 32.666 70 39.999c16 2 32.333 4.33301 49 7c4.66699 0 9.83398 0.333008 15.501 1s10.167 1 13.5 1h22c12.667 -2 23 -3.33301 31 -4c4 0.666992 7.5 4.66699 10.5 12s4.5 15.666 4.5 24.999
c0 22 -6.33301 33 -19 33c-23.333 0 -45.333 -1 -66 -3s-39.667 -6.33301 -57 -13c-5.33301 -1.33301 -17 -8.33301 -35 -21c-8 -5.33301 -14.333 -8 -19 -8c5.33301 28.667 11.666 58 18.999 88s13.333 52 18 66c3.33301 22.667 17 38.334 41 47.001
c15.333 5.33301 39 8 71 8h28c4 -8.66699 14 -13 30 -13c14 0 21 6.33301 21 19c0 1.33301 -0.666992 4.66602 -2 9.99902c4.66699 6.66699 7 14.667 7 24c0 12.667 -3.66699 20.667 -11 24c-6 4 -12.333 6.83301 -19 8.5s-14.667 2.5 -24 2.5
c-8.66699 0 -17 -0.333008 -25 -1l-23 -2c-16 0 -31.667 -2.5 -47 -7.5s-26 -11.5 -32 -19.5c-5.33301 -4.66699 -15.5 -12.834 -30.5 -24.501s-24.167 -18.5 -27.5 -20.5c-8 -10.667 -15.167 -20.667 -21.5 -30s-9.5 -19 -9.5 -29c-3.33301 0 -10.166 -25.5 -20.499 -76.5
s-15.5 -80.833 -15.5 -89.5l-13 -125l-5 -40c-1.33301 -10.667 -2 -21 -2 -31c0 -14 1.5 -24.5 4.5 -31.5s9.5 -10.5 19.5 -10.5c-1.33301 -7.33301 -1.33301 -13 0 -17c4.66699 -4.66699 11 -7 19 -7c9.33301 0.666992 17.333 1 24 1c20.667 0 40.834 1.5 60.501 4.5
s38.167 8.5 55.5 16.5zM275.998 568.002c4.66699 1.33301 9.99902 2 15.999 2c4.66699 0 8.33398 -0.666992 11.001 -2c3.33301 5.33301 7.83301 9.33301 13.5 12s9.5 5.66699 11.5 9s3 9.33301 3 18c0 6.66699 -1 12.167 -3 16.5s-5 5.5 -9 3.5
c-7.33301 5.33301 -15 8 -23 8c-11.333 0 -21.5 -4.83301 -30.5 -14.5s-13.5 -19.5 -13.5 -29.5c0 -13.333 8 -21 24 -23zM162.997 568.002c9.33301 1.33301 14.999 2.00098 16.999 2.00098c2.66699 0 6.66699 -0.666992 12 -2c1.33301 4 5.83301 8.5 13.5 13.5
s11.834 9.33301 12.501 13s1 9.16699 1 16.5c0 5.33301 -0.666992 9.83301 -2 13.5s-4.33301 5.16699 -9 4.5c-5.33301 3.33301 -12 5 -20 5c-11.333 0 -21.5 -3.83301 -30.5 -11.5s-13.5 -16.834 -13.5 -27.501c0 -11.333 6.33301 -20.333 19 -27z" />
    <glyph glyph-name="copyright" unicode="&#xa9;" horiz-adv-x="541" 
d="M289 -16c64 0 121.333 25 172 75c53.333 52.667 80 115.667 80 189c0 72 -25 135 -75 189s-109.667 81 -179 81c-78 0 -144 -24.667 -198 -74s-81 -110.666 -81 -183.999c0 -80.667 27 -146.834 81 -198.501s120.667 -77.5 200 -77.5zM367 305l46.999 0.000976562
c-6 24.667 -13 43 -21 55c-24.667 37.333 -62 56 -112 56c-41.333 0 -76.333 -13.667 -105 -41c-34 -32 -51 -76.333 -51 -133c0 -48.667 16 -87 48 -115c28.667 -25.333 63.667 -38 105 -38c34 0 64 9.66699 90 29s41.333 47 46 83h-47
c-3.33301 -22.667 -13.333 -40 -30 -52c-14 -10 -31 -15 -51 -15c-5.33301 0 -11.333 0.666992 -18 2s-12.667 3 -18 5c-22 8.66699 -38.833 23.667 -50.5 45s-17.5 44.666 -17.5 69.999c0 28 7.33301 52.833 22 74.5s36 34.5 64 38.5c2.66699 0.666992 5.33398 1 8.00098 1
h6c20.667 0 39 -6.5 55 -19.5s26 -28.167 30 -45.5zM272.999 35.001c-59.333 0 -108.833 21.5 -148.5 64.5s-59.5 96.5 -59.5 160.5c0 54 19.333 101.667 58 143c41.333 44 91.333 66 150 66c60.667 0 111 -22.167 151 -66.5s60 -96.5 60 -156.5
c0 -56.667 -21.667 -106 -65 -148s-92 -63 -146 -63z" />
    <glyph glyph-name="ordfeminine" unicode="&#xaa;" horiz-adv-x="219" 
d="M20 367c6.66699 -6.66699 14.0029 -9.99512 22.0029 -9.99512c13.333 0 31 9.33301 53 28l26 23l11 10.5c4 3.66699 6.66699 5.5 8 5.5c2 0 3.66699 -2.66699 5 -8c0 -12.667 3 -22 9 -28s14 -9 24 -9c6 0 12 1 18 3s12.333 5 19 9c4 4 6.66699 8.5 8 13.5
s3.33301 8.83301 6 11.5c0 6.66699 -0.666992 10.667 -2 12c0 1.33301 -0.666992 2 -2 2c-2.66699 -2.66699 -6.5 -5.83398 -11.5 -9.50098s-9.16699 -5.5 -12.5 -5.5c-4.66699 0 -8.33398 2.33301 -11.001 7c-4.66699 4 -7 9.33301 -7 16c0 4.66699 1 9 3 13
c-2 4.66699 -3.33301 10.167 -4 16.5s-1.33398 9.5 -2.00098 9.5h-19c-4.66699 -2.66699 -10.334 -6.83398 -17.001 -12.501s-11 -10.167 -13 -13.5c-12 -4.66699 -21 -11.667 -27 -21c-1.33301 -0.666992 -5.16602 -3.33398 -11.499 -8.00098
s-12.833 -7.33398 -19.5 -8.00098c2.66699 5.33301 4.66699 10 6 14c4 4.66699 8.66699 9.5 14 14.5l15 14.5c4 0.666992 7.66699 2.83398 11 6.50098s6 7.5 8 11.5c9.33301 2 19.666 9.33301 30.999 22c6.66699 8.66699 11.334 14.334 14.001 17.001
c7.33301 4 11.666 6.33301 12.999 7c4.66699 4 7 8.66699 7 14c-6.66699 6.66699 -14.334 10 -23.001 10c-9.33301 0 -20.166 -4.33301 -32.499 -13l-33 -23c-9.66699 -6.66699 -17.5 -12.334 -23.5 -17.001s-9 -8 -9 -10c-12 -7.33301 -24.167 -21.333 -36.5 -42
s-18.5 -39.334 -18.5 -56.001c0 -6.66699 1.33301 -12.334 4 -17.001z" />
    <glyph glyph-name="guillemotleft" unicode="&#xab;" horiz-adv-x="307" 
d="M143 268c-10.667 -10.667 -19.6709 -19.334 -27.0039 -26.001c-17.333 -16 -31 -27 -41 -33c-2 -4.66699 -12.333 -15.667 -31 -33c-10 -9.33301 -16 -17.333 -18 -24c-4.66699 -7.33301 -7 -16 -7 -26s3 -22.333 9 -37l13 -32c6 -6 11.833 -13.667 17.5 -23
s9.83398 -15.5 12.501 -18.5s7.33398 -4.5 14.001 -4.5c10 0 20.333 2.5 31 7.5s14.334 9.83301 11.001 14.5c-2 6 -7.66699 16 -17 30c-6 8.66699 -10.667 16.334 -14 23.001c-8.66699 12.667 -13 24.667 -13 36c0 12.667 5.83301 26.5 17.5 41.5l34.5 43.5
c4.66699 2.66699 10.667 7.16699 18 13.5l23 19.5c14 7.33301 21 15 21 23c0 2.66699 -1 5 -3 7c-6 5.33301 -12.667 8 -20 8c-4.66699 0 -9.66699 -1.16699 -15 -3.5s-10.666 -4.5 -15.999 -6.5zM265.996 266l-27.999 -26.9971c-18 -16.667 -32 -28 -42 -34
c-2.66699 -6 -10.834 -14.833 -24.501 -26.5s-21.834 -21.834 -24.501 -30.501c-4 -6.66699 -6 -15.667 -6 -27c0 -18 5.5 -37.5 16.5 -58.5s23.167 -37.167 36.5 -48.5c2 -4.66699 7.33301 -7 16 -7c13.333 0 24.666 3.33301 33.999 10
c5.33301 4 6.66602 7.33301 3.99902 10c-2 6 -10.333 21 -25 45c-12 19.333 -18 35.666 -18 48.999c0 9.33301 2.66699 17.666 8 24.999c2 6.66699 8.33301 15.834 19 27.501s18 21.5 22 29.5c7.33301 3.33301 14.5 7.83301 21.5 13.5s14.167 12.167 21.5 19.5
c20 11.333 26.667 21.333 20 30c-3.33301 3.33301 -6.66602 5.66602 -9.99902 6.99902s-6.66602 2 -9.99902 2c-5.33301 0 -10.666 -1 -15.999 -3s-10.333 -4 -15 -6z" />
    <glyph glyph-name="logicalnot" unicode="&#xac;" 
 />
    <glyph glyph-name="minus" unicode="&#xad;" horiz-adv-x="227" 
d="M151 141c7.33301 -2.66699 14.334 -4.00293 21.001 -4.00293c10.667 0 18.5 3.33301 23.5 10s7.5 15 7.5 25c0 6.66699 -1.33301 12.334 -4 17.001s-6.33398 6.66699 -11.001 6c-18.667 0 -37.167 -0.166992 -55.5 -0.5s-36.5 -0.5 -54.5 -0.5
c-12.667 0 -21 0.333008 -25 1c-2.66699 0 -7.33398 -4.83301 -14.001 -14.5s-11 -14.5 -13 -14.5c-5.33301 -5.33301 -8 -11.666 -8 -18.999c0 -6.66699 4.66699 -10 14 -10c6.66699 0 17.167 -0.333008 31.5 -1s25.166 -1 32.499 -1c10.667 0 20.334 0.333008 29.001 1
s17.334 2.33398 26.001 5.00098z" />
    <glyph glyph-name="registered" unicode="&#xae;" horiz-adv-x="541" 
d="M170 404v-306h51v132h45l86 -134h50l-88 134c26.667 8 45.667 17 57 27c16 13.333 24 32.333 24 57c0 28 -9 50.667 -27 68c-15.333 14.667 -32 22 -50 22h-148zM221 361l76 0.000976562c13.333 0 23.833 -4.5 31.5 -13.5s11.5 -19.5 11.5 -31.5
c0 -12.667 -3.66699 -23.334 -11 -32.001s-18 -13 -32 -13h-76v90zM273 -17.999c72.667 0 135.167 27.833 187.5 83.5s78.5 117.167 78.5 184.5c0 72 -26 134.333 -78 187s-111.333 79 -178 79c-81.333 0 -147.833 -26.5 -199.5 -79.5s-77.5 -117.167 -77.5 -192.5
c0 -68 24 -127.667 72 -179c52 -55.333 117 -83 195 -83zM285 33.001c-68 0 -123.667 22.333 -167 67c-39.333 40.667 -59 88.667 -59 144c0 56 19.333 106 58 150c42 47.333 93.333 71 154 71c58 0 108 -21.667 150 -65s63 -94 63 -152c0 -56.667 -18.333 -106 -55 -148
c-38.667 -44.667 -86.667 -67 -144 -67z" />
    <glyph glyph-name="macron" unicode="&#xaf;" horiz-adv-x="139" 
d="M26 2c2 -16.667 9.00195 -25.0029 21.002 -25.0029c4 0 8.66699 1 14 3c4 6.66699 9 11.834 15 15.501s9.33301 8.5 10 14.5c-4.66699 24 -7 50.333 -7 79c0 38.667 5 87 15 145c8 38.667 13.333 67.334 16 86.001c-2.66699 4.66699 -1.33398 17.667 3.99902 39l17 69
c0 2 2.5 13 7.5 33s7.5 34.667 7.5 44c0 15.333 -5 23 -15 23c-8 0 -17.667 -4 -29 -12c-27.333 0 -47.666 -25 -60.999 -75c-7.33301 -31.333 -12.333 -52 -15 -62c1.33301 -2 2.16602 -4 2.49902 -6s0.833008 -3.33301 1.5 -4
c-0.666992 -1.33301 -1.83398 -5.33301 -3.50098 -12s-2.5 -14 -2.5 -22c0 -6 0.666992 -11 2 -15c2.66699 1.33301 5.16699 -1 7.5 -7s3.5 -13.333 3.5 -22c0 -10 -1.66699 -18.333 -5 -25c0 -24 -1 -48.333 -3 -73c-6 -73.333 -9 -113.666 -9 -120.999
c0 -22.667 2 -46 6 -70zM155.002 566.997c4.66699 1.33301 9.99902 2 15.999 2c4.66699 0 8.33398 -0.666992 11.001 -2c3.33301 5.33301 7.83301 9.33301 13.5 12s9.5 5.66699 11.5 9s3 9.33301 3 18c0 6.66699 -1 12.167 -3 16.5s-5 5.5 -9 3.5
c-7.33301 5.33301 -15 8 -23 8c-11.333 0 -21.5 -4.83301 -30.5 -14.5s-13.5 -19.5 -13.5 -29.5c0 -13.333 8 -21 24 -23zM42.001 566.997c9.33301 1.33301 14.999 2.00098 16.999 2.00098c2.66699 0 6.66699 -0.666992 12 -2c1.33301 4 5.83301 8.5 13.5 13.5
s11.834 9.33301 12.501 13s1 9.16699 1 16.5c0 5.33301 -0.666992 9.83301 -2 13.5s-4.33301 5.16699 -9 4.5c-5.33301 3.33301 -12 5 -20 5c-11.333 0 -21.5 -3.83301 -30.5 -11.5s-13.5 -16.834 -13.5 -27.501c0 -11.333 6.33301 -20.333 19 -27z" />
    <glyph glyph-name="degree" unicode="&#xb0;" horiz-adv-x="146" 
d="M35 391c0 -1.33301 -0.667969 -3.16797 -2.00098 -5.50098s-2.33301 -3.83301 -3 -4.5c-4 -8 -6 -14.333 -6 -19c0 -3.33301 1.5 -7.16602 4.5 -11.499s6.5 -8.5 10.5 -12.5c9.33301 -8.66699 19 -13 29 -13c4.66699 0 13.334 1.83301 26.001 5.5s21.667 5.5 27 5.5
c7.33301 6 12.5 12.833 15.5 20.5l8.5 22.5c4 2 6 7.33301 6 16l-4 11l-2 8c-3.33301 2.66699 -9 6 -17 10c-12 6.66699 -22.667 10 -32 10c-2.66699 0 -6.66699 -0.833008 -12 -2.5s-9.33301 -3.16699 -12 -4.5c-8.66699 -4.66699 -15.667 -9.66699 -21 -15
c-2 -4 -4.66699 -8 -8 -12s-6 -7 -8 -9zM56.999 362.998c0 9.33301 3.66504 18.333 10.998 27s16 13 26 13c4 0 8 -1 12 -3c7.33301 0 11 -5.33301 11 -16c0 -14 -4.33301 -21.667 -13 -23c-9.33301 -4.66699 -19.666 -7 -30.999 -7c-9.33301 0 -14.666 3 -15.999 9z" />
    <glyph glyph-name="plusminus" unicode="&#xb1;" 
 />
    <glyph glyph-name="twosuperior" unicode="&#xb2;" horiz-adv-x="139" 
d="M26 2c2 -16.667 9.00195 -25.0029 21.002 -25.0029c4 0 8.66699 1 14 3c4 6.66699 9 11.834 15 15.501s9.33301 8.5 10 14.5c-4.66699 24 -7 50.333 -7 79c0 38.667 5 87 15 145c8 38.667 13.333 67.334 16 86.001c-2.66699 4.66699 -1.33398 17.667 3.99902 39l17 69
c0 2 2.5 13 7.5 33s7.5 34.667 7.5 44c0 15.333 -5 23 -15 23c-8 0 -17.667 -4 -29 -12c-27.333 0 -47.666 -25 -60.999 -75c-7.33301 -31.333 -12.333 -52 -15 -62c1.33301 -2 2.16602 -4 2.49902 -6s0.833008 -3.33301 1.5 -4
c-0.666992 -1.33301 -1.83398 -5.33301 -3.50098 -12s-2.5 -14 -2.5 -22c0 -6 0.666992 -11 2 -15c2.66699 1.33301 5.16699 -1 7.5 -7s3.5 -13.333 3.5 -22c0 -10 -1.66699 -18.333 -5 -25c0 -24 -1 -48.333 -3 -73c-6 -73.333 -9 -113.666 -9 -120.999
c0 -22.667 2 -46 6 -70z" />
    <glyph glyph-name="threesuperior" unicode="&#xb3;" horiz-adv-x="234" 
d="M98 330c-0.666992 -4.66699 2.16797 -7.50098 8.50098 -8.50098s14.5 -1.5 24.5 -1.5c11.333 5.33301 21.166 11.833 29.499 19.5s13.5 17.5 15.5 29.5c2.66699 4 5.33398 10.833 8.00098 20.5s4 16.834 4 21.501c0 11.333 -4 17 -12 17c-6.66699 2 -15.834 0 -27.501 -6
s-17.5 -12 -17.5 -18c-10 -2.66699 -19.167 -9.5 -27.5 -20.5s-12.5 -21.833 -12.5 -32.5c0 -8.66699 2.33301 -15.667 7 -21zM4.00195 65.999c2 0 4.99902 2.33496 8.99902 7.00195s8 7.66699 12 9c7.33301 10 15 18.333 23 25c10.667 8.66699 18 11.334 22 8.00098
c4.66699 -4 8 -9.83301 10 -17.5s5.33301 -13.5 10 -17.5c0 -7.33301 3.66699 -15.833 11 -25.5s18.666 -18.834 33.999 -27.501c6.66699 -1.33301 11.667 -2 15 -2c14 0 29.333 5.66699 46 17c12.667 8.66699 24.334 19.334 35.001 32.001l2 49
c-4 -1.33301 -9 -4.5 -15 -9.5s-10.333 -10.167 -13 -15.5c-0.666992 0 -4.66699 -1.66699 -12 -5s-13 -5 -17 -5c-6 0 -11.167 2.5 -15.5 7.5s-8.16602 14.167 -11.499 27.5c-2.66699 16.667 -4.5 30 -5.5 40s-2.5 18.667 -4.5 26c-6 8 -12.167 13.833 -18.5 17.5
s-15.166 5.16699 -26.499 4.5c-3.33301 -2.66699 -6 -5 -8 -7s-4.66699 -5.66699 -8 -11c-6 -2.66699 -13.333 -9.33398 -22 -20.001s-13.667 -18.334 -15 -23.001c-5.33301 -2 -11.333 -6.66699 -18 -14c-10.667 -12 -16.334 -18.333 -17.001 -19l-4 -40v-6
c1.33301 -2.66699 2 -4.33398 2 -5.00098z" />
    <glyph glyph-name="acute" unicode="&#xb4;" horiz-adv-x="184" 
d="M80 383c-9.33301 -8 -23.499 -15.499 -42.499 -22.499s-30.167 -12.5 -33.5 -16.5c0.666992 -3.33301 3.66699 -7 9 -11c1.33301 -1.33301 4 -3 8 -5c19.333 5.33301 35 10.166 47 14.499s23.333 10.5 34 18.5c4.66699 0 14.334 4.33301 29.001 13
c20.667 12 31.667 18.333 33 19l14 21c1.33301 0.666992 1.66602 3.5 0.999023 8.5s-1.66699 8.83301 -3 11.5c-12.667 11.333 -24.334 15 -35.001 11c-10 -18 -20.333 -31.667 -31 -41c-2 -2 -12 -9 -30 -21z" />
    <glyph glyph-name="mu" unicode="&#xb5;" 
 />
    <glyph glyph-name="paragraph" unicode="&#xb6;" horiz-adv-x="394" 
d="M173 -17l-0.000976562 357c-44 0 -80.833 13.833 -110.5 41.5s-44.5 60.5 -44.5 98.5c0 49.333 16.333 85.833 49 109.5s77.334 35.5 134.001 35.5h161v-642h-51v592h-87v-592h-51z" />
    <glyph glyph-name="periodcentered" unicode="&#xb7;" horiz-adv-x="94" 
d="M106 152c13.333 0 23.833 4.16699 31.5 12.5s11.5 18.5 11.5 30.5c0 11.333 -3.66699 21.333 -11 30s-18 13 -32 13c-13.333 0 -23.833 -4.16699 -31.5 -12.5s-11.5 -18.5 -11.5 -30.5s3.83301 -22.167 11.5 -30.5s18.167 -12.5 31.5 -12.5z" />
    <glyph glyph-name="periodcentered" unicode="&#x2219;" horiz-adv-x="94" 
d="M106 152c13.333 0 23.833 4.16699 31.5 12.5s11.5 18.5 11.5 30.5c0 11.333 -3.66699 21.333 -11 30s-18 13 -32 13c-13.333 0 -23.833 -4.16699 -31.5 -12.5s-11.5 -18.5 -11.5 -30.5s3.83301 -22.167 11.5 -30.5s18.167 -12.5 31.5 -12.5z" />
    <glyph glyph-name="cedilla" unicode="&#xb8;" horiz-adv-x="262" 
d="M29 29c10.667 -8.66699 20.501 -14.667 29.501 -18s18.833 -5 29.5 -5c19.333 0 43 8 71 24c40 22.667 63.333 35.334 70 38.001c3.33301 5.33301 5 17.666 5 36.999c1.33301 2.66699 2 5.66699 2 9c-5.33301 -1.33301 -10.333 -2.33301 -15 -3
c-12.667 -8.66699 -19.334 -13 -20.001 -13c-8.66699 -5.33301 -15.667 -10 -21 -14c-17.333 -10.667 -39.333 -16 -66 -16c-12.667 0 -22.667 2.16699 -30 6.5s-11 11.833 -11 22.5c0 4.66699 1 10 3 16c6 4 10.333 7 13 9c5.33301 4 9.66602 8.33301 12.999 13
c16.667 8 33.834 22.5 51.501 43.5s25.834 34.5 24.501 40.5c6.66699 2.66699 10 11 10 25c0 16 -3.33301 25.667 -10 29c-4.66699 6 -9.83398 10 -15.501 12s-12.167 3 -19.5 3c-6.66699 0 -13.334 -1.33301 -20.001 -4s-10.667 -5.66699 -12 -9
c-7.33301 -4 -15.666 -10 -24.999 -18s-17 -15.667 -23 -23c-4.66699 -2 -10 -7.83301 -16 -17.5s-11.667 -19.5 -17 -29.5s-11 -22.5 -17 -37.5s-9 -25.167 -9 -30.5c0 -30 4 -52.333 12 -67c4 -8 8.33301 -15.667 13 -23zM121.001 217
c6 -3.33301 5.33105 -10.168 -2.00195 -20.501s-13 -16.5 -17 -18.5c-3.33301 -9.33301 -10.666 -14 -21.999 -14c-4 -0.666992 -5.83301 0.333008 -5.5 3s2.83301 8.33398 7.5 17.001c6 8 12.833 15.5 20.5 22.5s13.834 10.5 18.501 10.5zM206.999 339.998
c9.33301 1.33301 14.333 2 15 2c5.33301 0 9.33301 -1.33301 12 -4c2.66699 6 6 9.83301 10 11.5s8 3.5 12 5.5c3.33301 5.33301 5 13 5 23c0 6.66699 -1 12.167 -3 16.5s-5.33301 5.5 -10 3.5c-6 5.33301 -13.333 8 -22 8c-10.667 0 -20.5 -4.83301 -29.5 -14.5
s-13.5 -19.5 -13.5 -29.5c0 -12.667 8 -20 24 -22zM93.999 337.998l20.001 4c2 0 5 -0.666992 9 -2l25 21c1.33301 6.66699 2 13.667 2 21c0 12 -3.66699 17.333 -11 16c-6.66699 4.66699 -14.334 7 -23.001 7c-11.333 0 -21 -3.66699 -29 -11s-12 -16.333 -12 -27
c0 -11.333 6.33301 -21 19 -29z" />
    <glyph glyph-name="onesuperior" unicode="&#xb9;" horiz-adv-x="657" 
d="M18 -16c-2 -7.33301 -3.00293 -13.666 -3.00293 -18.999c0 -8 3 -13.333 9 -16c2 4 6 6 12 6s10 3.5 12 10.5l28 93.5c13.333 43.333 22 77 26 101l22 76c8 26.667 13.667 41 17 43c4 -4.66699 10.5 -17.334 19.5 -38.001l21.5 -50l54 -126
c26.667 -57.333 46.334 -85 59.001 -83c7.33301 0.666992 15.333 3.33398 24 8.00098c14 7.33301 22.333 11.333 25 12c4.66699 6.66699 9.16699 14.5 13.5 23.5s6.5 17.5 6.5 25.5c15.333 60.667 27 137.334 35 230.001c11.333 136.667 18.333 214.334 21 233.001
c0 18.667 -2.33301 28 -7 28c-2.66699 0 -7.33398 -3 -14.001 -9l-14 -12c-21.333 -40 -33.166 -93.833 -35.499 -161.5s-4.16602 -108.834 -5.49902 -123.501c-10 -64.667 -15.667 -101 -17 -109c-6 -34 -10.667 -53.667 -14 -59c-10 4 -24.333 31 -43 81
c-12 32 -23 59 -33 81c-4 16 -15.667 50 -35 102c-11.333 30 -18.666 52 -21.999 66c0 12 1.33301 23 4 33c0.666992 3.33301 7.66699 22.333 21 57c0 11.333 -3 17 -9 17c-5.33301 0 -14.5 -5.66699 -27.5 -17s-20.167 -16.333 -21.5 -15c-1.33301 6 -9 9 -23 9
c-6 0 -12.667 -1 -20 -3c-5.33301 1.33301 -10.166 -4.33398 -14.499 -17.001s-6.5 -26.334 -6.5 -41.001c0 -5.33301 0.333008 -9 1 -11c-3.33301 -6.66699 -9.33301 -50.667 -18 -132c-4 -38 -9.66699 -76 -17 -114c-2 -4 -7.66699 -35.333 -17 -94
c-2.66699 -19.333 -7.33398 -48 -14.001 -86zM576.997 213c-24.667 -26 -43.333 -36 -56 -30c-4.66699 2.66699 -7 7.66699 -7 15c0 6.66699 1.5 13 4.5 19s6.83301 11 11.5 15c8 0 13.333 4 16 12c7.33301 8.66699 16.333 13 27 13c11.333 0 16 -7.66699 14 -23z
M484.998 154c4 -2.66699 8 -4.66895 12 -6.00195l26 -4l32 10c14 6 23.333 13.333 28 22c7.33301 3.33301 12.666 8.33301 15.999 15c9.33301 5.33301 17.333 15.333 24 30s10 29.334 10 44.001c0 8 -1.66699 15.333 -5 22c-9.33301 10 -21 15 -35 15
c-10 0 -21.667 -2.33301 -35 -7c0 4 2 8 6 12c0 6 -7.33301 9 -22 9l-23 -22.5c-7.33301 -7 -12.666 -11.167 -15.999 -12.5c-8.66699 -8.66699 -17.167 -21.667 -25.5 -39s-12.5 -33.666 -12.5 -48.999c0 -18.667 6.66699 -31.667 20 -39zM551.998 81.998
c7.33301 -2 13.666 -3.00098 18.999 -3.00098c19.333 0 29 8 29 24c0 12 -4.33301 17.333 -13 16c-17.333 0 -34.666 -0.166992 -51.999 -0.5s-34.666 -0.5 -51.999 -0.5c-12 0 -19.667 0.333008 -23 1c-2.66699 0 -7.33398 -3.33301 -14.001 -10s-10.667 -10 -12 -10
c-5.33301 -3.33301 -8 -7.66602 -8 -12.999c0 -4.66699 4.33301 -7 13 -7c10 0 20.167 -0.166992 30.5 -0.5s20.833 -0.5 31.5 -0.5h31c9.33301 2 16 3.33301 20 4z" />
    <glyph glyph-name="ordmasculine" unicode="&#xba;" horiz-adv-x="174" 
d="M155 426c-24.667 -26 -43.333 -36 -56 -30c-4.66699 2.66699 -7 7.66699 -7 15c0 6.66699 1.5 13 4.5 19s6.83301 11 11.5 15c8 0 13.333 4 16 12c7.33301 8.66699 16.333 13 27 13c11.333 0 16 -7.66699 14 -23zM63.001 367c4 -2.66699 8 -4.66895 12 -6.00195l26 -4
l32 10c14 6 23.333 13.333 28 22c7.33301 3.33301 12.666 8.33301 15.999 15c9.33301 5.33301 17.333 15.333 24 30s10 29.334 10 44.001c0 8 -1.66699 15.333 -5 22c-9.33301 10 -21 15 -35 15c-10 0 -21.667 -2.33301 -35 -7c0 4 2 8 6 12c0 6 -7.33301 9 -22 9l-23 -22.5
c-7.33301 -7 -12.666 -11.167 -15.999 -12.5c-8.66699 -8.66699 -17.167 -21.667 -25.5 -39s-12.5 -33.666 -12.5 -48.999c0 -18.667 6.66699 -31.667 20 -39z" />
    <glyph glyph-name="guillemotright" unicode="&#xbb;" horiz-adv-x="307" 
d="M143 268c-10.667 -10.667 -19.6709 -19.334 -27.0039 -26.001c-17.333 -16 -31 -27 -41 -33c-2 -4.66699 -12.333 -15.667 -31 -33c-10 -9.33301 -16 -17.333 -18 -24c-4.66699 -7.33301 -7 -16 -7 -26s3 -22.333 9 -37l13 -32c6 -6 11.833 -13.667 17.5 -23
s9.83398 -15.5 12.501 -18.5s7.33398 -4.5 14.001 -4.5c10 0 20.333 2.5 31 7.5s14.334 9.83301 11.001 14.5c-2 6 -7.66699 16 -17 30c-6 8.66699 -10.667 16.334 -14 23.001c-8.66699 12.667 -13 24.667 -13 36c0 12.667 5.83301 26.5 17.5 41.5l34.5 43.5
c4.66699 2.66699 10.667 7.16699 18 13.5l23 19.5c14 7.33301 21 15 21 23c0 2.66699 -1 5 -3 7c-6 5.33301 -12.667 8 -20 8c-4.66699 0 -9.66699 -1.16699 -15 -3.5s-10.666 -4.5 -15.999 -6.5zM265.996 266l-27.999 -26.9971c-18 -16.667 -32 -28 -42 -34
c-2.66699 -6 -10.834 -14.833 -24.501 -26.5s-21.834 -21.834 -24.501 -30.501c-4 -6.66699 -6 -15.667 -6 -27c0 -18 5.5 -37.5 16.5 -58.5s23.167 -37.167 36.5 -48.5c2 -4.66699 7.33301 -7 16 -7c13.333 0 24.666 3.33301 33.999 10
c5.33301 4 6.66602 7.33301 3.99902 10c-2 6 -10.333 21 -25 45c-12 19.333 -18 35.666 -18 48.999c0 9.33301 2.66699 17.666 8 24.999c2 6.66699 8.33301 15.834 19 27.501s18 21.5 22 29.5c7.33301 3.33301 14.5 7.83301 21.5 13.5s14.167 12.167 21.5 19.5
c20 11.333 26.667 21.333 20 30c-3.33301 3.33301 -6.66602 5.66602 -9.99902 6.99902s-6.66602 2 -9.99902 2c-5.33301 0 -10.666 -1 -15.999 -3s-10.333 -4 -15 -6z" />
    <glyph glyph-name="onequarter" unicode="&#xbc;" 
 />
    <glyph glyph-name="onehalf" unicode="&#xbd;" 
 />
    <glyph glyph-name="threequarters" unicode="&#xbe;" 
 />
    <glyph glyph-name="questiondown" unicode="&#xbf;" horiz-adv-x="234" 
d="M180 341c9.33301 1.33301 14.333 2 15 2c5.33301 0 9.33301 -1.33301 12 -4c2.66699 6 6 9.83301 10 11.5s8 3.5 12 5.5c3.33301 5.33301 5 13 5 23c0 6.66699 -1 12.167 -3 16.5s-5.33301 5.5 -10 3.5c-6 5.33301 -13.333 8 -22 8c-10.667 0 -20.5 -4.83301 -29.5 -14.5
s-13.5 -19.5 -13.5 -29.5c0 -12.667 8 -20 24 -22zM67 339l20.001 4c2 0 5 -0.666992 9 -2l25 21c1.33301 6.66699 2 13.667 2 21c0 12 -3.66699 17.333 -11 16c-6.66699 4.66699 -14.334 7 -23.001 7c-11.333 0 -21 -3.66699 -29 -11s-12 -16.333 -12 -27
c0 -11.333 6.33301 -21 19 -29zM4.00098 66c2 0 4.99902 2.33496 8.99902 7.00195s8 7.66699 12 9c7.33301 10 15 18.333 23 25c10.667 8.66699 18 11.334 22 8.00098c4.66699 -4 8 -9.83301 10 -17.5s5.33301 -13.5 10 -17.5c0 -7.33301 3.66699 -15.833 11 -25.5
s18.666 -18.834 33.999 -27.501c6.66699 -1.33301 11.667 -2 15 -2c14 0 29.333 5.66699 46 17c12.667 8.66699 24.334 19.334 35.001 32.001l2 49c-4 -1.33301 -9 -4.5 -15 -9.5s-10.333 -10.167 -13 -15.5c-0.666992 0 -4.66699 -1.66699 -12 -5s-13 -5 -17 -5
c-6 0 -11.167 2.5 -15.5 7.5s-8.16602 14.167 -11.499 27.5c-2.66699 16.667 -4.5 30 -5.5 40s-2.5 18.667 -4.5 26c-6 8 -12.167 13.833 -18.5 17.5s-15.166 5.16699 -26.499 4.5c-3.33301 -2.66699 -6 -5 -8 -7s-4.66699 -5.66699 -8 -11
c-6 -2.66699 -13.333 -9.33398 -22 -20.001s-13.667 -18.334 -15 -23.001c-5.33301 -2 -11.333 -6.66699 -18 -14c-10.667 -12 -16.334 -18.333 -17.001 -19l-4 -40v-6c1.33301 -2.66699 2 -4.33398 2 -5.00098z" />
    <glyph glyph-name="Agrave" unicode="&#xc0;" horiz-adv-x="367" 
d="M41 -43l12.0078 23.001c5.33301 12.667 8 26.334 8 41.001c2.66699 1.33301 5.66699 8.16602 9 20.499l10 38.5c8.66699 12 15 24.5 19 37.5s6.66699 22.167 8 27.5c16 -1.33301 35.333 3.33398 58 14.001c32 15.333 50.667 23.666 56 24.999
c9.33301 -0.666992 19.166 0.166016 29.499 2.49902s19.166 4.5 26.499 6.5c0.666992 -6 1.16699 -16.667 1.5 -32s0.5 -30 0.5 -44c2 -5.33301 3 -11.666 3 -18.999c0 -8 -1 -16 -3 -24c0.666992 -6 1 -14.333 1 -25c0 -11.333 -0.333008 -22 -1 -32l-2 -29
c0 -6.66699 2.66699 -10 8 -10c6.66699 0 13.667 3.83301 21 11.5s10.666 15.167 9.99902 22.5c2.66699 6.66699 5.33398 19.5 8.00098 38.5s4 33.5 4 43.5c1.33301 1.33301 3.66602 19 6.99902 53s5 54.667 5 62c11.333 6 17 13.333 17 22
c0 7.33301 -4.33301 13.666 -13 18.999c0 5.33301 0.333008 14.833 1 28.5s1 23.834 1 30.501c0 22.667 -2.66699 36.334 -8 41.001c1.33301 5.33301 2 11.333 2 18v15c0 25.333 -2.66699 46 -8 62c-2 13.333 -11 23.333 -27 30s-26.667 14.334 -32 23.001
c0 4 1.33301 9.33301 4 16c8 19.333 12 31 12 35c0 6 -2.33301 9.83301 -7 11.5s-8.33398 2.5 -11.001 2.5c-6 0 -13.667 -3 -23 -9c-21.333 -14 -32.333 -21 -33 -21c-0.666992 -5.33301 -2 -9.66602 -4 -12.999c-5.33301 -9.33301 -11.333 -14 -18 -14
c-1.33301 -0.666992 -5.5 -1.83398 -12.5 -3.50098s-12.5 -6.5 -16.5 -14.5c-0.666992 -2 -1.16699 -4 -1.5 -6s-0.5 -3.33301 -0.5 -4c0 -3.33301 1.66699 -6.66602 5 -9.99902s3.66602 -7 0.999023 -11c-9.33301 -7.33301 -22.333 -35 -39 -83
c-12.667 -36 -23.667 -70.667 -33 -104c-4.66699 -7.33301 -8.83398 -15.833 -12.501 -25.5l-11.5 -31.5c-14.667 -2 -25.334 -6.83301 -32.001 -14.5s-12.334 -19.834 -17.001 -36.501c1.33301 -2.66699 2 -7 2 -13v-12c0 -10.667 6.66699 -15.334 20 -14.001
c0 -4.66699 -3 -15.334 -9 -32.001s-9 -30 -9 -40c-1.33301 -1.33301 -3.16602 -5.83301 -5.49902 -13.5s-3.5 -14.167 -3.5 -19.5c-2.66699 -6 -5.33398 -13.833 -8.00098 -23.5s-4 -17.834 -4 -24.501c0 -14 4.66699 -21 14 -21c4.66699 0 11.667 2.66699 21 8z
M277.008 234.001c-12.667 0 -21.334 -0.333984 -26.001 -1.00098s-9.66699 -2.66699 -15 -6c-9.33301 0.666992 -25.666 -0.166016 -48.999 -2.49902s-36.333 -3.5 -39 -3.5c-6.66699 0 -10.334 0.666992 -11.001 2c0 11.333 5.66699 27.833 17 49.5s18 37.5 20 47.5l20 36
c6.66699 12 10.334 22.333 11.001 31c6.66699 9.33301 10.667 14.666 12 15.999c4 4.66699 8 7 12 7c9.33301 0 18.333 -5 27 -15l23 -34c-2 -7.33301 -3 -15.666 -3 -24.999c0 -6.66699 0.5 -13.667 1.5 -21s2.83301 -11.333 5.5 -12c-3.33301 -1.33301 -5 -7 -5 -17
c0 -7.33301 1 -14 3 -20v-13c0 -6 -0.166992 -11 -0.5 -15s-1.5 -5.33301 -3.5 -4z" />
    <glyph glyph-name="Agrave" unicode="&#x410;" horiz-adv-x="367" 
d="M41 -43l12.0078 23.001c5.33301 12.667 8 26.334 8 41.001c2.66699 1.33301 5.66699 8.16602 9 20.499l10 38.5c8.66699 12 15 24.5 19 37.5s6.66699 22.167 8 27.5c16 -1.33301 35.333 3.33398 58 14.001c32 15.333 50.667 23.666 56 24.999
c9.33301 -0.666992 19.166 0.166016 29.499 2.49902s19.166 4.5 26.499 6.5c0.666992 -6 1.16699 -16.667 1.5 -32s0.5 -30 0.5 -44c2 -5.33301 3 -11.666 3 -18.999c0 -8 -1 -16 -3 -24c0.666992 -6 1 -14.333 1 -25c0 -11.333 -0.333008 -22 -1 -32l-2 -29
c0 -6.66699 2.66699 -10 8 -10c6.66699 0 13.667 3.83301 21 11.5s10.666 15.167 9.99902 22.5c2.66699 6.66699 5.33398 19.5 8.00098 38.5s4 33.5 4 43.5c1.33301 1.33301 3.66602 19 6.99902 53s5 54.667 5 62c11.333 6 17 13.333 17 22
c0 7.33301 -4.33301 13.666 -13 18.999c0 5.33301 0.333008 14.833 1 28.5s1 23.834 1 30.501c0 22.667 -2.66699 36.334 -8 41.001c1.33301 5.33301 2 11.333 2 18v15c0 25.333 -2.66699 46 -8 62c-2 13.333 -11 23.333 -27 30s-26.667 14.334 -32 23.001
c0 4 1.33301 9.33301 4 16c8 19.333 12 31 12 35c0 6 -2.33301 9.83301 -7 11.5s-8.33398 2.5 -11.001 2.5c-6 0 -13.667 -3 -23 -9c-21.333 -14 -32.333 -21 -33 -21c-0.666992 -5.33301 -2 -9.66602 -4 -12.999c-5.33301 -9.33301 -11.333 -14 -18 -14
c-1.33301 -0.666992 -5.5 -1.83398 -12.5 -3.50098s-12.5 -6.5 -16.5 -14.5c-0.666992 -2 -1.16699 -4 -1.5 -6s-0.5 -3.33301 -0.5 -4c0 -3.33301 1.66699 -6.66602 5 -9.99902s3.66602 -7 0.999023 -11c-9.33301 -7.33301 -22.333 -35 -39 -83
c-12.667 -36 -23.667 -70.667 -33 -104c-4.66699 -7.33301 -8.83398 -15.833 -12.501 -25.5l-11.5 -31.5c-14.667 -2 -25.334 -6.83301 -32.001 -14.5s-12.334 -19.834 -17.001 -36.501c1.33301 -2.66699 2 -7 2 -13v-12c0 -10.667 6.66699 -15.334 20 -14.001
c0 -4.66699 -3 -15.334 -9 -32.001s-9 -30 -9 -40c-1.33301 -1.33301 -3.16602 -5.83301 -5.49902 -13.5s-3.5 -14.167 -3.5 -19.5c-2.66699 -6 -5.33398 -13.833 -8.00098 -23.5s-4 -17.834 -4 -24.501c0 -14 4.66699 -21 14 -21c4.66699 0 11.667 2.66699 21 8z
M277.008 234.001c-12.667 0 -21.334 -0.333984 -26.001 -1.00098s-9.66699 -2.66699 -15 -6c-9.33301 0.666992 -25.666 -0.166016 -48.999 -2.49902s-36.333 -3.5 -39 -3.5c-6.66699 0 -10.334 0.666992 -11.001 2c0 11.333 5.66699 27.833 17 49.5s18 37.5 20 47.5l20 36
c6.66699 12 10.334 22.333 11.001 31c6.66699 9.33301 10.667 14.666 12 15.999c4 4.66699 8 7 12 7c9.33301 0 18.333 -5 27 -15l23 -34c-2 -7.33301 -3 -15.666 -3 -24.999c0 -6.66699 0.5 -13.667 1.5 -21s2.83301 -11.333 5.5 -12c-3.33301 -1.33301 -5 -7 -5 -17
c0 -7.33301 1 -14 3 -20v-13c0 -6 -0.166992 -11 -0.5 -15s-1.5 -5.33301 -3.5 -4z" />
    <glyph glyph-name="Aacute" unicode="&#xc1;" horiz-adv-x="334" 
d="M43 529c17.333 7.33301 48.999 14.665 94.999 21.998s87.333 11 124 11c36 0 62 -3.33301 78 -10c0 -6.66699 0.333008 -13.667 1 -21l2 -22c0 -16.667 -5.33301 -25.334 -16 -26.001c-22 7.33301 -49.667 11 -83 11c-20 0 -38.167 -0.833008 -54.5 -2.5
s-30.166 -3.16699 -41.499 -4.5c-7.33301 -14 -13 -31.167 -17 -51.5l-9.5 -48.5l-6.5 -33c-2 -10 -4 -18.667 -6 -26c24 -8.66699 44.833 -17.167 62.5 -25.5s37.5 -20.166 59.5 -35.499c19.333 -13.333 35.333 -28 48 -44c20 -25.333 30 -51.666 30 -78.999
c0 -16.667 -5.66699 -34.334 -17 -53.001c-7.33301 -12 -16.833 -23.833 -28.5 -35.5s-26.5 -22.167 -44.5 -31.5s-34.333 -15.666 -49 -18.999c-31.333 -8 -55.333 -12 -72 -12c-8 0 -17.667 1 -29 3c-19.333 2 -32.666 8 -39.999 18s-11 27.333 -11 52
c0 14 2.16699 42.333 6.5 85s10.5 89.834 18.5 141.501s16 98.167 24 139.5c0 4.66699 6 15 18 31c6 8 9.33301 14.333 10 19c-8.66699 -1.33301 -17.334 -2.33301 -26.001 -3c-16.667 -7.33301 -25.667 -10 -27 -8c-2 4 -4 9.33301 -6 16s-3 13 -3 19
c0 11.333 3.33301 19 10 23zM90.999 203.999c-6 -34 -8.99805 -66.001 -8.99805 -96.001c0 -31.333 2.16699 -50.5 6.5 -57.5s13.166 -10.5 26.499 -10.5c11.333 0 23.166 1.66699 35.499 5s23.833 8.33301 34.5 15c32 18.667 53.333 42.334 64 71.001
c0 22 -13.667 45.667 -41 71c-24 22 -47.667 37 -71 45c-9.33301 5.33301 -14.833 9.83301 -16.5 13.5s-4.16699 7.66699 -7.5 12s-7.33301 7.5 -12 9.5z" />
    <glyph glyph-name="Aacute" unicode="&#x411;" horiz-adv-x="334" 
d="M43 529c17.333 7.33301 48.999 14.665 94.999 21.998s87.333 11 124 11c36 0 62 -3.33301 78 -10c0 -6.66699 0.333008 -13.667 1 -21l2 -22c0 -16.667 -5.33301 -25.334 -16 -26.001c-22 7.33301 -49.667 11 -83 11c-20 0 -38.167 -0.833008 -54.5 -2.5
s-30.166 -3.16699 -41.499 -4.5c-7.33301 -14 -13 -31.167 -17 -51.5l-9.5 -48.5l-6.5 -33c-2 -10 -4 -18.667 -6 -26c24 -8.66699 44.833 -17.167 62.5 -25.5s37.5 -20.166 59.5 -35.499c19.333 -13.333 35.333 -28 48 -44c20 -25.333 30 -51.666 30 -78.999
c0 -16.667 -5.66699 -34.334 -17 -53.001c-7.33301 -12 -16.833 -23.833 -28.5 -35.5s-26.5 -22.167 -44.5 -31.5s-34.333 -15.666 -49 -18.999c-31.333 -8 -55.333 -12 -72 -12c-8 0 -17.667 1 -29 3c-19.333 2 -32.666 8 -39.999 18s-11 27.333 -11 52
c0 14 2.16699 42.333 6.5 85s10.5 89.834 18.5 141.501s16 98.167 24 139.5c0 4.66699 6 15 18 31c6 8 9.33301 14.333 10 19c-8.66699 -1.33301 -17.334 -2.33301 -26.001 -3c-16.667 -7.33301 -25.667 -10 -27 -8c-2 4 -4 9.33301 -6 16s-3 13 -3 19
c0 11.333 3.33301 19 10 23zM90.999 203.999c-6 -34 -8.99805 -66.001 -8.99805 -96.001c0 -31.333 2.16699 -50.5 6.5 -57.5s13.166 -10.5 26.499 -10.5c11.333 0 23.166 1.66699 35.499 5s23.833 8.33301 34.5 15c32 18.667 53.333 42.334 64 71.001
c0 22 -13.667 45.667 -41 71c-24 22 -47.667 37 -71 45c-9.33301 5.33301 -14.833 9.83301 -16.5 13.5s-4.16699 7.66699 -7.5 12s-7.33301 7.5 -12 9.5z" />
    <glyph glyph-name="Acircumflex" unicode="&#xc2;" horiz-adv-x="385" 
d="M61 -45c1.33301 -2.66699 2.83203 -5.33301 4.49902 -8s4.16699 -4 7.5 -4c2.66699 2.66699 7.33398 4 14.001 4c7.33301 0 12.333 -1.33301 15 -4c0 4 1.33301 10 4 18s4 14 4 18c14.667 -3.33301 42 0.166992 82 10.5s66.667 20.5 80 30.5
c27.333 10.667 44.666 18 51.999 22c24.667 14 37 30.667 37 50c0 8.66699 -2.33301 17.667 -7 27s-13.334 20.333 -26.001 33c-12 10 -48.667 26.333 -110 49c-47.333 17.333 -67.666 33 -60.999 47c10.667 8.66699 41.667 26.334 93 53.001
c41.333 21.333 68.666 42.666 81.999 63.999c19.333 12.667 33.333 28.834 42 48.501s13 41.834 13 66.501c-4 6 -9.33301 12.667 -16 20c-9.33301 9.33301 -16.333 14 -21 14c-7.33301 4.66699 -16.833 8.66699 -28.5 12s-23.834 5 -36.501 5
c-5.33301 2 -10.666 3.33301 -15.999 4s-11.666 1 -18.999 1c-10 0 -17.667 -0.333008 -23 -1l-118 -14c-56.667 -11.333 -85 -30 -85 -56c0 -6 0.666992 -10.667 2 -14l70 8c0.666992 0 5.66699 0.5 15 1.5s14 0.5 14 -1.5c1.33301 -2 -1.33398 -6.66699 -8.00098 -14
s-10.334 -12.333 -11.001 -15c-13.333 -4.66699 -22.166 -30.334 -26.499 -77.001s-7.83301 -76.334 -10.5 -89.001l-41 -24c-2 -12 -0.666992 -21.667 4 -29c16 -5.33301 25.833 -10.833 29.5 -16.5s4.83398 -14.5 3.50098 -26.5c0 -10.667 -0.166992 -22.334 -0.5 -35.001
s-0.5 -26.667 -0.5 -42v-37c0 -12 1 -23 3 -33c-6 -0.666992 -12 -1.66699 -18 -3s-17.667 -12.666 -35 -33.999c6.66699 -19.333 22.334 -29 47.001 -29zM193.999 154.001c21.333 -5.33301 41.166 -13 59.499 -23s27.166 -18 26.499 -24
c-1.33301 -6.66699 -5.16602 -12.334 -11.499 -17.001s-18.833 -10 -37.5 -16c-6 -2.66699 -12.333 -5.66699 -19 -9c-16 -8 -27.5 -13.167 -34.5 -15.5s-18.667 -5.16602 -35 -8.49902s-26.5 -6 -30.5 -8c0 14 2.33301 39.167 7 75.5s9.33398 59.5 14.001 69.5
c2 1.33301 8 -1.16699 18 -7.5s24.333 -11.833 43 -16.5zM273.999 373.001c-15.333 -12 -37.5 -26.668 -66.5 -44.001s-47.167 -26 -54.5 -26c-2 7.33301 -3 14.333 -3 21c0 10.667 2 21.834 6 33.501s8 19.5 12 23.5c-4.66699 7.33301 -7 16.333 -7 27c0 10 2 20.5 6 31.5
s9 19.5 15 25.5c46 0 78 -3.66699 96 -11s27 -17.333 27 -30c0 -8.66699 -4.33301 -18.667 -13 -30z" />
    <glyph glyph-name="Acircumflex" unicode="&#x412;" horiz-adv-x="385" 
d="M61 -45c1.33301 -2.66699 2.83203 -5.33301 4.49902 -8s4.16699 -4 7.5 -4c2.66699 2.66699 7.33398 4 14.001 4c7.33301 0 12.333 -1.33301 15 -4c0 4 1.33301 10 4 18s4 14 4 18c14.667 -3.33301 42 0.166992 82 10.5s66.667 20.5 80 30.5
c27.333 10.667 44.666 18 51.999 22c24.667 14 37 30.667 37 50c0 8.66699 -2.33301 17.667 -7 27s-13.334 20.333 -26.001 33c-12 10 -48.667 26.333 -110 49c-47.333 17.333 -67.666 33 -60.999 47c10.667 8.66699 41.667 26.334 93 53.001
c41.333 21.333 68.666 42.666 81.999 63.999c19.333 12.667 33.333 28.834 42 48.501s13 41.834 13 66.501c-4 6 -9.33301 12.667 -16 20c-9.33301 9.33301 -16.333 14 -21 14c-7.33301 4.66699 -16.833 8.66699 -28.5 12s-23.834 5 -36.501 5
c-5.33301 2 -10.666 3.33301 -15.999 4s-11.666 1 -18.999 1c-10 0 -17.667 -0.333008 -23 -1l-118 -14c-56.667 -11.333 -85 -30 -85 -56c0 -6 0.666992 -10.667 2 -14l70 8c0.666992 0 5.66699 0.5 15 1.5s14 0.5 14 -1.5c1.33301 -2 -1.33398 -6.66699 -8.00098 -14
s-10.334 -12.333 -11.001 -15c-13.333 -4.66699 -22.166 -30.334 -26.499 -77.001s-7.83301 -76.334 -10.5 -89.001l-41 -24c-2 -12 -0.666992 -21.667 4 -29c16 -5.33301 25.833 -10.833 29.5 -16.5s4.83398 -14.5 3.50098 -26.5c0 -10.667 -0.166992 -22.334 -0.5 -35.001
s-0.5 -26.667 -0.5 -42v-37c0 -12 1 -23 3 -33c-6 -0.666992 -12 -1.66699 -18 -3s-17.667 -12.666 -35 -33.999c6.66699 -19.333 22.334 -29 47.001 -29zM193.999 154.001c21.333 -5.33301 41.166 -13 59.499 -23s27.166 -18 26.499 -24
c-1.33301 -6.66699 -5.16602 -12.334 -11.499 -17.001s-18.833 -10 -37.5 -16c-6 -2.66699 -12.333 -5.66699 -19 -9c-16 -8 -27.5 -13.167 -34.5 -15.5s-18.667 -5.16602 -35 -8.49902s-26.5 -6 -30.5 -8c0 14 2.33301 39.167 7 75.5s9.33398 59.5 14.001 69.5
c2 1.33301 8 -1.16699 18 -7.5s24.333 -11.833 43 -16.5zM273.999 373.001c-15.333 -12 -37.5 -26.668 -66.5 -44.001s-47.167 -26 -54.5 -26c-2 7.33301 -3 14.333 -3 21c0 10.667 2 21.834 6 33.501s8 19.5 12 23.5c-4.66699 7.33301 -7 16.333 -7 27c0 10 2 20.5 6 31.5
s9 19.5 15 25.5c46 0 78 -3.66699 96 -11s27 -17.333 27 -30c0 -8.66699 -4.33301 -18.667 -13 -30z" />
    <glyph glyph-name="Atilde" unicode="&#xc3;" horiz-adv-x="339" 
d="M99 525c-16 -4.66699 -24.0029 -18.6621 -24.0029 -41.9951c0.666992 -4.66699 1 -8.33398 1 -11.001v-16c0.666992 -4 1 -7.33301 1 -10c0 -17.333 -2.16699 -40 -6.5 -68l-12.5 -79c0 -22 0.333008 -40.333 1 -55s1.33398 -28.334 2.00098 -41.001
c0 -16 -0.666992 -30.833 -2 -44.5s-4 -26.167 -8 -37.5c0 -12.667 -3.83301 -27.5 -11.5 -44.5s-13.5 -24.833 -17.5 -23.5c-4.66699 -8.66699 -8.5 -18.334 -11.5 -29.001s-6.16699 -19.334 -9.5 -26.001l15 -15c2 -1.33301 6.33301 -1.66602 13 -0.999023
c4 2.66699 9.16699 5 15.5 7s12.5 3.66699 18.5 5c7.33301 6 15 22.667 23 50l25 85c4 30 7.33301 54 10 72s6.33398 32.667 11.001 44c0 21.333 3.66699 50.666 11 87.999s11 67 11 89c0.666992 2.66699 -4 9.5 -14 20.5s-15.333 17.833 -16 20.5
c4 2.66699 10.667 4.5 20 5.5s24 1.5 44 1.5c19.333 0 47 -1 83 -3s57.333 -3 64 -3h10l2 2c0 1.33301 0.666992 7.66602 2 18.999s2 20.333 2 27c0 12.667 -2.66699 20.334 -8 23.001c-12 5.33301 -21.667 8.66602 -29 9.99902s-13.666 1.33301 -18.999 0l-133.5 -6.5
c-35.667 -1.66699 -56.5 -6.16699 -62.5 -13.5z" />
    <glyph glyph-name="Atilde" unicode="&#x413;" horiz-adv-x="339" 
d="M99 525c-16 -4.66699 -24.0029 -18.6621 -24.0029 -41.9951c0.666992 -4.66699 1 -8.33398 1 -11.001v-16c0.666992 -4 1 -7.33301 1 -10c0 -17.333 -2.16699 -40 -6.5 -68l-12.5 -79c0 -22 0.333008 -40.333 1 -55s1.33398 -28.334 2.00098 -41.001
c0 -16 -0.666992 -30.833 -2 -44.5s-4 -26.167 -8 -37.5c0 -12.667 -3.83301 -27.5 -11.5 -44.5s-13.5 -24.833 -17.5 -23.5c-4.66699 -8.66699 -8.5 -18.334 -11.5 -29.001s-6.16699 -19.334 -9.5 -26.001l15 -15c2 -1.33301 6.33301 -1.66602 13 -0.999023
c4 2.66699 9.16699 5 15.5 7s12.5 3.66699 18.5 5c7.33301 6 15 22.667 23 50l25 85c4 30 7.33301 54 10 72s6.33398 32.667 11.001 44c0 21.333 3.66699 50.666 11 87.999s11 67 11 89c0.666992 2.66699 -4 9.5 -14 20.5s-15.333 17.833 -16 20.5
c4 2.66699 10.667 4.5 20 5.5s24 1.5 44 1.5c19.333 0 47 -1 83 -3s57.333 -3 64 -3h10l2 2c0 1.33301 0.666992 7.66602 2 18.999s2 20.333 2 27c0 12.667 -2.66699 20.334 -8 23.001c-12 5.33301 -21.667 8.66602 -29 9.99902s-13.666 1.33301 -18.999 0l-133.5 -6.5
c-35.667 -1.66699 -56.5 -6.16699 -62.5 -13.5z" />
    <glyph glyph-name="Adieresis" unicode="&#xc4;" horiz-adv-x="366" 
d="M108 438l1.99805 -5.99707c-7.33301 -0.666992 -14.166 -4.83398 -20.499 -12.501l-18.5 -21.5c-6.66699 -3.33301 -11.834 -17.5 -15.501 -42.5s-7.16699 -51.833 -10.5 -80.5c1.33301 -10 1.33301 -17 0 -21c-4.66699 -22 -8.5 -52.167 -11.5 -90.5l-9.5 -124.5l-2 -31
c2 -5.33301 5 -8 9 -8c6.66699 0 14.667 8 24 24s14.666 29.333 15.999 40l60 291l8.5 40.5c3 13.667 6.83301 21.834 11.5 24.501c0.666992 0.666992 5.66699 -2 15 -8c26 -15.333 43.667 -25 53 -29l6 -6c20.667 -20.667 36 -37.667 46 -51
c14.667 -19.333 25.334 -39.333 32.001 -60c0 -15.333 -1.83301 -29.5 -5.5 -42.5s-6.83398 -24.833 -9.50098 -35.5l-14 -16c-15.333 -30.667 -34.333 -57.667 -57 -81c-16.667 -16.667 -42 -38 -76 -64l-57 -23c-28.667 -12 -41.667 -26.333 -39 -43
c2 -13.333 12 -20 30 -20c8.66699 0 19.667 2 33 6c15.333 3.33301 31.333 10 48 20c19.333 13.333 34 23 44 29l49 32c17.333 12.667 25 23.667 23 33c-0.666992 4 -4 5 -10 3s-10.667 -3.66699 -14 -5c2.66699 8.66699 8.66699 17.667 18 27
c14.667 14 22.334 21.667 23.001 23c22 27.333 39.667 56.833 53 88.5s20 62.834 20 93.501c0 27.333 -5 51.666 -15 72.999s-26.667 41.333 -50 60l-49 33c-12 9.33301 -21.5 16.166 -28.5 20.499s-22.833 12.5 -47.5 24.5c-19.333 5.33301 -34.333 8.83301 -45 10.5
s-17.667 2.16699 -21 1.5c-6 3.33301 -13.833 6.66602 -23.5 9.99902s-18.167 5 -25.5 5c-9.33301 -1.33301 -18.166 -2.5 -26.499 -3.5s-12.5 -3.5 -12.5 -7.5c-1.33301 -4.66699 -0.666016 -11.334 2.00098 -20.001c0 -14 0.833008 -21.833 2.5 -23.5
s15.167 -9.5 40.5 -23.5z" />
    <glyph glyph-name="Adieresis" unicode="&#x414;" horiz-adv-x="366" 
d="M108 438l1.99805 -5.99707c-7.33301 -0.666992 -14.166 -4.83398 -20.499 -12.501l-18.5 -21.5c-6.66699 -3.33301 -11.834 -17.5 -15.501 -42.5s-7.16699 -51.833 -10.5 -80.5c1.33301 -10 1.33301 -17 0 -21c-4.66699 -22 -8.5 -52.167 -11.5 -90.5l-9.5 -124.5l-2 -31
c2 -5.33301 5 -8 9 -8c6.66699 0 14.667 8 24 24s14.666 29.333 15.999 40l60 291l8.5 40.5c3 13.667 6.83301 21.834 11.5 24.501c0.666992 0.666992 5.66699 -2 15 -8c26 -15.333 43.667 -25 53 -29l6 -6c20.667 -20.667 36 -37.667 46 -51
c14.667 -19.333 25.334 -39.333 32.001 -60c0 -15.333 -1.83301 -29.5 -5.5 -42.5s-6.83398 -24.833 -9.50098 -35.5l-14 -16c-15.333 -30.667 -34.333 -57.667 -57 -81c-16.667 -16.667 -42 -38 -76 -64l-57 -23c-28.667 -12 -41.667 -26.333 -39 -43
c2 -13.333 12 -20 30 -20c8.66699 0 19.667 2 33 6c15.333 3.33301 31.333 10 48 20c19.333 13.333 34 23 44 29l49 32c17.333 12.667 25 23.667 23 33c-0.666992 4 -4 5 -10 3s-10.667 -3.66699 -14 -5c2.66699 8.66699 8.66699 17.667 18 27
c14.667 14 22.334 21.667 23.001 23c22 27.333 39.667 56.833 53 88.5s20 62.834 20 93.501c0 27.333 -5 51.666 -15 72.999s-26.667 41.333 -50 60l-49 33c-12 9.33301 -21.5 16.166 -28.5 20.499s-22.833 12.5 -47.5 24.5c-19.333 5.33301 -34.333 8.83301 -45 10.5
s-17.667 2.16699 -21 1.5c-6 3.33301 -13.833 6.66602 -23.5 9.99902s-18.167 5 -25.5 5c-9.33301 -1.33301 -18.166 -2.5 -26.499 -3.5s-12.5 -3.5 -12.5 -7.5c-1.33301 -4.66699 -0.666016 -11.334 2.00098 -20.001c0 -14 0.833008 -21.833 2.5 -23.5
s15.167 -9.5 40.5 -23.5z" />
    <glyph glyph-name="Aring" unicode="&#xc5;" horiz-adv-x="327" 
d="M195 0c10 0 25.499 6.49609 46.499 19.4961s35.667 23.833 44 32.5s12.5 19 12.5 31c0 5.33301 -2.33301 8 -7 8c-3.33301 0 -7.66602 -1.66699 -12.999 -5c-26 -15.333 -57.5 -26 -94.5 -32s-74.833 -9 -113.5 -9c-0.666992 3.33301 -1 9 -1 17
c0 12.667 2.33301 33 7 61s7 47 7 57c2.66699 14 8.16699 23.667 16.5 29s16.5 8 24.5 8c15.333 0 37.333 2.33301 66 7s50.334 7 65.001 7c12.667 0 22.334 -0.666992 29.001 -2c9.33301 2 14 13.667 14 35c0 10 -1.5 18 -4.5 24s-8.16699 9 -15.5 9
c-6.66699 0 -17.334 0.5 -32.001 1.5s-23 1.5 -25 1.5c-17.333 0 -30 -1.16699 -38 -3.5s-16 -6.16602 -24 -11.499c-6.66699 -2 -18.334 -9.33301 -35.001 -22c-8 -6 -14.333 -9 -19 -9c0 20 4.33301 46.667 13 80c3.33301 13.333 10.666 37.333 21.999 72
c4.66699 26.667 15.334 42.834 32.001 48.501s52 8.5 106 8.5c6 -9.33301 17 -14 33 -14c12 0 18 5.66699 18 17c0 2 -0.666992 5.66699 -2 11c4.66699 7.33301 7 15.333 7 24c0 10.667 -3 18.667 -9 24c-4 4.66699 -10.5 8 -19.5 10s-18.167 3 -27.5 3
c-10 0 -19.333 -0.333008 -28 -1s-16.667 -1.33398 -24 -2.00098c-18 -3.33301 -33.333 -7.16602 -46 -11.499s-21.667 -10.166 -27 -17.499l-54 -45c-21.333 -21.333 -33 -41.666 -35 -60.999c-2 0 -6 -16.333 -12 -49c-12 -66 -18 -105 -18 -117
c0 -1.33301 -2.33301 -16.833 -7 -46.5s-8 -55.167 -10 -76.5c0 -6 -1.5 -18 -4.5 -36s-4.5 -30.333 -4.5 -37c0 -10.667 1.83301 -19 5.5 -25s10.5 -9 20.5 -9c2 0 2.5 -2.66699 1.5 -8s-1.5 -9.33301 -1.5 -12c12 -3.33301 25.667 -5 41 -5c40 0 80 7 120 21z" />
    <glyph glyph-name="Aring" unicode="&#x415;" horiz-adv-x="327" 
d="M195 0c10 0 25.499 6.49609 46.499 19.4961s35.667 23.833 44 32.5s12.5 19 12.5 31c0 5.33301 -2.33301 8 -7 8c-3.33301 0 -7.66602 -1.66699 -12.999 -5c-26 -15.333 -57.5 -26 -94.5 -32s-74.833 -9 -113.5 -9c-0.666992 3.33301 -1 9 -1 17
c0 12.667 2.33301 33 7 61s7 47 7 57c2.66699 14 8.16699 23.667 16.5 29s16.5 8 24.5 8c15.333 0 37.333 2.33301 66 7s50.334 7 65.001 7c12.667 0 22.334 -0.666992 29.001 -2c9.33301 2 14 13.667 14 35c0 10 -1.5 18 -4.5 24s-8.16699 9 -15.5 9
c-6.66699 0 -17.334 0.5 -32.001 1.5s-23 1.5 -25 1.5c-17.333 0 -30 -1.16699 -38 -3.5s-16 -6.16602 -24 -11.499c-6.66699 -2 -18.334 -9.33301 -35.001 -22c-8 -6 -14.333 -9 -19 -9c0 20 4.33301 46.667 13 80c3.33301 13.333 10.666 37.333 21.999 72
c4.66699 26.667 15.334 42.834 32.001 48.501s52 8.5 106 8.5c6 -9.33301 17 -14 33 -14c12 0 18 5.66699 18 17c0 2 -0.666992 5.66699 -2 11c4.66699 7.33301 7 15.333 7 24c0 10.667 -3 18.667 -9 24c-4 4.66699 -10.5 8 -19.5 10s-18.167 3 -27.5 3
c-10 0 -19.333 -0.333008 -28 -1s-16.667 -1.33398 -24 -2.00098c-18 -3.33301 -33.333 -7.16602 -46 -11.499s-21.667 -10.166 -27 -17.499l-54 -45c-21.333 -21.333 -33 -41.666 -35 -60.999c-2 0 -6 -16.333 -12 -49c-12 -66 -18 -105 -18 -117
c0 -1.33301 -2.33301 -16.833 -7 -46.5s-8 -55.167 -10 -76.5c0 -6 -1.5 -18 -4.5 -36s-4.5 -30.333 -4.5 -37c0 -10.667 1.83301 -19 5.5 -25s10.5 -9 20.5 -9c2 0 2.5 -2.66699 1.5 -8s-1.5 -9.33301 -1.5 -12c12 -3.33301 25.667 -5 41 -5c40 0 80 7 120 21z" />
    <glyph glyph-name="AE" unicode="&#xc6;" horiz-adv-x="918" 
d="M430 2c-4.66699 25.333 -6.99219 50.0107 -6.99219 74.0107c0 22 1.66699 48 5 78c-20.667 0 -41.334 1.5 -62.001 4.5s-33.334 5.5 -38.001 7.5l-39 -77.5c-10.667 -21 -17.667 -33.5 -21 -37.5c-18 -26.667 -36 -45.334 -54 -56.001s-41 -19.334 -69 -26.001
c-10 -2.66699 -21 -4 -33 -4c-29.333 0 -53 10.167 -71 30.5s-27 50.166 -27 89.499c0 7.33301 -0.166992 13.666 -0.5 18.999s-0.5 10 -0.5 14c0 7.33301 0.666992 14.166 2 20.499s4.66602 15.5 9.99902 27.5c2.66699 6.66699 6.33398 10 11.001 10c4 0 7.33301 -3 10 -9
s3.33398 -11.667 2.00098 -17c0 -48.667 3.66699 -80.334 11 -95.001c5.33301 -10 17 -16.667 35 -20c10.667 -1.33301 18.667 -2 24 -2c31.333 0 58.666 11 81.999 33c10 11.333 22.167 28.5 36.5 51.5s25.166 43.5 32.499 61.5c-8 0 -18.667 2.33301 -32 7l-39 14l7 23
c7.33301 22.667 15.666 32.667 24.999 30c6.66699 0 20 -4.33301 40 -13c9.33301 -4 16.666 -6 21.999 -6c6.66699 24.667 11.667 48.334 15 71.001s4.33301 39 3 49c-4.66699 30 -16 52.667 -34 68s-39 23 -63 23c-18.667 0 -35.834 -4 -51.501 -12
s-29.5 -20.667 -41.5 -38l-4 64c20 19.333 41.667 34.333 65 45s45.666 16 66.999 16c47.333 0 83 -21.333 107 -64c8 -14 14.167 -29 18.5 -45s6.5 -30.667 6.5 -44c0 -22.667 -3.83301 -46.167 -11.5 -70.5l-20.5 -66.5c2 -1.33301 6.16699 -2.5 12.5 -3.5
s11.5 -2.5 15.5 -4.5c6 0 13.333 -1 22 -3s19 -3 31 -3l4 23.5c2 11.667 3 20.5 3 26.5c3.33301 6.66699 5 15.334 5 26.001c0 9.33301 -1.16699 16.666 -3.5 21.999s-4.83301 7.33301 -7.5 6c-1.33301 5.33301 -2 11.333 -2 18c0 15.333 2 25.666 6 30.999
c-1.33301 4 -2.66602 7.33301 -3.99902 10l21 84c12.667 35.333 31 53 55 53c13.333 8.66699 23.333 13 30 13c9.33301 0 14 -7.66699 14 -23c0 -10.667 -1.66699 -22.667 -5 -36l-10 -42c0 -2 -5.33301 -26 -16 -72c-4.66699 -20.667 -6.33398 -32.667 -5.00098 -36
l-18 -115l64 -3c2.66699 22.667 8.16699 47 16.5 73s20.833 54 37.5 84c6 11.333 13.333 23.333 22 36c12 16.667 23.333 27.667 34 33c4.66699 14 23.667 31.667 57 53c36.667 23.333 68.334 35 95.001 35c3.33301 0.666992 8.66602 1 15.999 1c46.667 0 70 -17.333 70 -52
c6.66699 -18 10 -39 10 -63c0 -10 -0.666992 -17 -2 -21c0 -8 -3.66699 -23.5 -11 -46.5l-14 -43.5c0 -24 -7 -36 -21 -36c-6 0 -11.667 0.666992 -17 2c-10.667 3.33301 -19 5.66602 -25 6.99902c0 38.667 0.833008 63.667 2.5 75s6.83398 22.666 15.501 33.999
c5.33301 7.33301 9.33301 15 12 23s4 14.667 4 20c0 12 -5.83301 21.167 -17.5 27.5s-25.5 9.5 -41.5 9.5c-24.667 0 -43.667 -5 -57 -15c-19.333 -13.333 -37 -31.333 -53 -54c-20 -28 -38 -63.667 -54 -107c0 -12.667 -1.33301 -25.5 -4 -38.5
s-5.33398 -25.167 -8.00098 -36.5l52 -2c4.66699 0 7 -2.33301 7 -7c0 -4 -0.833008 -8 -2.5 -12s-3.83398 -7.66699 -6.50098 -11c-3.33301 -10 -9 -15 -17 -15l-32 2c2.66699 -14 7.33398 -29.667 14.001 -47c10 -25.333 16 -41.666 18 -48.999
c0.666992 0 9.83398 -7.5 27.501 -22.5s31.5 -22.5 41.5 -22.5c8 -2.66699 16.667 -4 26 -4c15.333 0 29.666 2.33301 42.999 7c6.66699 2 29 12.667 67 32c0 6.66699 1.33301 10 4 10c5.33301 0 8 -4.66699 8 -14c0 -5.33301 -1.83301 -10.333 -5.5 -15
s-10.334 -11.167 -20.001 -19.5s-14.834 -13.166 -15.501 -14.499c-5.33301 -1.33301 -12.666 -4.33301 -21.999 -9c-27.333 -13.333 -44 -20.833 -50 -22.5s-12.167 -2.83398 -18.5 -3.50098s-13.166 -1 -20.499 -1c-14 0 -28.167 2.16699 -42.5 6.5l-43.5 13.5
c-24 9.33301 -44 31.666 -60 66.999s-24 69.666 -24 102.999c-6.66699 0 -13.5 -0.166992 -20.5 -0.5s-14.167 -0.5 -21.5 -0.5h-12c-6.66699 1.33301 -11.334 2 -14.001 2c-1.33301 -8.66699 -2.33301 -19.334 -3 -32.001s-1 -24 -1 -34c0 -16 0.333008 -28.333 1 -37
s2.66699 -22 6 -40c-0.666992 -6.66699 -4.16699 -11.834 -10.5 -15.501s-11.166 -8.5 -14.499 -14.5c-6 -2 -11 -3 -15 -3c-12.667 0 -19.334 8.33301 -20.001 25z" />
    <glyph glyph-name="AE" unicode="&#x416;" horiz-adv-x="918" 
d="M430 2c-4.66699 25.333 -6.99219 50.0107 -6.99219 74.0107c0 22 1.66699 48 5 78c-20.667 0 -41.334 1.5 -62.001 4.5s-33.334 5.5 -38.001 7.5l-39 -77.5c-10.667 -21 -17.667 -33.5 -21 -37.5c-18 -26.667 -36 -45.334 -54 -56.001s-41 -19.334 -69 -26.001
c-10 -2.66699 -21 -4 -33 -4c-29.333 0 -53 10.167 -71 30.5s-27 50.166 -27 89.499c0 7.33301 -0.166992 13.666 -0.5 18.999s-0.5 10 -0.5 14c0 7.33301 0.666992 14.166 2 20.499s4.66602 15.5 9.99902 27.5c2.66699 6.66699 6.33398 10 11.001 10c4 0 7.33301 -3 10 -9
s3.33398 -11.667 2.00098 -17c0 -48.667 3.66699 -80.334 11 -95.001c5.33301 -10 17 -16.667 35 -20c10.667 -1.33301 18.667 -2 24 -2c31.333 0 58.666 11 81.999 33c10 11.333 22.167 28.5 36.5 51.5s25.166 43.5 32.499 61.5c-8 0 -18.667 2.33301 -32 7l-39 14l7 23
c7.33301 22.667 15.666 32.667 24.999 30c6.66699 0 20 -4.33301 40 -13c9.33301 -4 16.666 -6 21.999 -6c6.66699 24.667 11.667 48.334 15 71.001s4.33301 39 3 49c-4.66699 30 -16 52.667 -34 68s-39 23 -63 23c-18.667 0 -35.834 -4 -51.501 -12
s-29.5 -20.667 -41.5 -38l-4 64c20 19.333 41.667 34.333 65 45s45.666 16 66.999 16c47.333 0 83 -21.333 107 -64c8 -14 14.167 -29 18.5 -45s6.5 -30.667 6.5 -44c0 -22.667 -3.83301 -46.167 -11.5 -70.5l-20.5 -66.5c2 -1.33301 6.16699 -2.5 12.5 -3.5
s11.5 -2.5 15.5 -4.5c6 0 13.333 -1 22 -3s19 -3 31 -3l4 23.5c2 11.667 3 20.5 3 26.5c3.33301 6.66699 5 15.334 5 26.001c0 9.33301 -1.16699 16.666 -3.5 21.999s-4.83301 7.33301 -7.5 6c-1.33301 5.33301 -2 11.333 -2 18c0 15.333 2 25.666 6 30.999
c-1.33301 4 -2.66602 7.33301 -3.99902 10l21 84c12.667 35.333 31 53 55 53c13.333 8.66699 23.333 13 30 13c9.33301 0 14 -7.66699 14 -23c0 -10.667 -1.66699 -22.667 -5 -36l-10 -42c0 -2 -5.33301 -26 -16 -72c-4.66699 -20.667 -6.33398 -32.667 -5.00098 -36
l-18 -115l64 -3c2.66699 22.667 8.16699 47 16.5 73s20.833 54 37.5 84c6 11.333 13.333 23.333 22 36c12 16.667 23.333 27.667 34 33c4.66699 14 23.667 31.667 57 53c36.667 23.333 68.334 35 95.001 35c3.33301 0.666992 8.66602 1 15.999 1c46.667 0 70 -17.333 70 -52
c6.66699 -18 10 -39 10 -63c0 -10 -0.666992 -17 -2 -21c0 -8 -3.66699 -23.5 -11 -46.5l-14 -43.5c0 -24 -7 -36 -21 -36c-6 0 -11.667 0.666992 -17 2c-10.667 3.33301 -19 5.66602 -25 6.99902c0 38.667 0.833008 63.667 2.5 75s6.83398 22.666 15.501 33.999
c5.33301 7.33301 9.33301 15 12 23s4 14.667 4 20c0 12 -5.83301 21.167 -17.5 27.5s-25.5 9.5 -41.5 9.5c-24.667 0 -43.667 -5 -57 -15c-19.333 -13.333 -37 -31.333 -53 -54c-20 -28 -38 -63.667 -54 -107c0 -12.667 -1.33301 -25.5 -4 -38.5
s-5.33398 -25.167 -8.00098 -36.5l52 -2c4.66699 0 7 -2.33301 7 -7c0 -4 -0.833008 -8 -2.5 -12s-3.83398 -7.66699 -6.50098 -11c-3.33301 -10 -9 -15 -17 -15l-32 2c2.66699 -14 7.33398 -29.667 14.001 -47c10 -25.333 16 -41.666 18 -48.999
c0.666992 0 9.83398 -7.5 27.501 -22.5s31.5 -22.5 41.5 -22.5c8 -2.66699 16.667 -4 26 -4c15.333 0 29.666 2.33301 42.999 7c6.66699 2 29 12.667 67 32c0 6.66699 1.33301 10 4 10c5.33301 0 8 -4.66699 8 -14c0 -5.33301 -1.83301 -10.333 -5.5 -15
s-10.334 -11.167 -20.001 -19.5s-14.834 -13.166 -15.501 -14.499c-5.33301 -1.33301 -12.666 -4.33301 -21.999 -9c-27.333 -13.333 -44 -20.833 -50 -22.5s-12.167 -2.83398 -18.5 -3.50098s-13.166 -1 -20.499 -1c-14 0 -28.167 2.16699 -42.5 6.5l-43.5 13.5
c-24 9.33301 -44 31.666 -60 66.999s-24 69.666 -24 102.999c-6.66699 0 -13.5 -0.166992 -20.5 -0.5s-14.167 -0.5 -21.5 -0.5h-12c-6.66699 1.33301 -11.334 2 -14.001 2c-1.33301 -8.66699 -2.33301 -19.334 -3 -32.001s-1 -24 -1 -34c0 -16 0.333008 -28.333 1 -37
s2.66699 -22 6 -40c-0.666992 -6.66699 -4.16699 -11.834 -10.5 -15.501s-11.166 -8.5 -14.499 -14.5c-6 -2 -11 -3 -15 -3c-12.667 0 -19.334 8.33301 -20.001 25z" />
    <glyph glyph-name="Ccedilla" unicode="&#xc7;" horiz-adv-x="319" 
d="M39 -39c28 0 56.001 5.99902 84.001 17.999c2.66699 1.33301 43.667 25.333 123 72c41.333 22 62 51.667 62 89c0 5.33301 -0.333008 9.33301 -1 12c-6.66699 27.333 -27.667 49 -63 65c-42.667 20 -66.667 33 -72 39l28 45c14 22 23.667 34.333 29 37
c2 6.66699 17.667 31.667 47 75c16 24 27 41.333 33 52c2.66699 20 -3.66602 35.667 -18.999 47s-37 17 -65 17c-33.333 0 -64.833 -2 -94.5 -6s-48.334 -9.83301 -56.001 -17.5s-15.5 -19.5 -23.5 -35.5s-12 -29.333 -12 -40c0 -13.333 5.33301 -20 16 -20l42 14.5
c14.667 5 28.667 8.66699 42 11s27 3.5 41 3.5c18 0 30 -1.16699 36 -3.5s8.33301 -4.83301 7 -7.5c-5.33301 -14 -20.5 -39 -45.5 -75s-46.833 -65 -65.5 -87c-11.333 -13.333 -17 -25.666 -17 -36.999c0 -16.667 16.333 -31.667 49 -45l85 -32c4.66699 -2 7 -4.66699 7 -8
c0 -14.667 -37 -43 -111 -85c-34.667 -20 -61.334 -34.333 -80.001 -43c-8 -6 -15 -11.667 -21 -17c-12.667 -10.667 -19 -19 -19 -25c0 -8.66699 11.333 -13 34 -13z" />
    <glyph glyph-name="Ccedilla" unicode="&#x417;" horiz-adv-x="319" 
d="M39 -39c28 0 56.001 5.99902 84.001 17.999c2.66699 1.33301 43.667 25.333 123 72c41.333 22 62 51.667 62 89c0 5.33301 -0.333008 9.33301 -1 12c-6.66699 27.333 -27.667 49 -63 65c-42.667 20 -66.667 33 -72 39l28 45c14 22 23.667 34.333 29 37
c2 6.66699 17.667 31.667 47 75c16 24 27 41.333 33 52c2.66699 20 -3.66602 35.667 -18.999 47s-37 17 -65 17c-33.333 0 -64.833 -2 -94.5 -6s-48.334 -9.83301 -56.001 -17.5s-15.5 -19.5 -23.5 -35.5s-12 -29.333 -12 -40c0 -13.333 5.33301 -20 16 -20l42 14.5
c14.667 5 28.667 8.66699 42 11s27 3.5 41 3.5c18 0 30 -1.16699 36 -3.5s8.33301 -4.83301 7 -7.5c-5.33301 -14 -20.5 -39 -45.5 -75s-46.833 -65 -65.5 -87c-11.333 -13.333 -17 -25.666 -17 -36.999c0 -16.667 16.333 -31.667 49 -45l85 -32c4.66699 -2 7 -4.66699 7 -8
c0 -14.667 -37 -43 -111 -85c-34.667 -20 -61.334 -34.333 -80.001 -43c-8 -6 -15 -11.667 -21 -17c-12.667 -10.667 -19 -19 -19 -25c0 -8.66699 11.333 -13 34 -13z" />
    <glyph glyph-name="Egrave" unicode="&#xc8;" horiz-adv-x="414" 
d="M219 200c0 9.33301 9.33301 29.8369 28 61.5039s31 49.167 37 52.5c4 0 9.16699 9.66699 15.5 29s12.5 30.333 18.5 33c3.33301 -5.33301 5 -13 5 -23c0 -16.667 -4 -37 -12 -61c-4.66699 -14 -12.334 -33.333 -23.001 -58c0 -12.667 -3.16699 -37.167 -9.5 -73.5
s-12.166 -60.166 -17.499 -71.499c0 -18.667 -2.66699 -45 -8 -79s-8 -59.667 -8 -77c5.33301 -2 10.333 -3 15 -3c4 0 9 1 15 3c4.66699 11.333 8.66699 18.166 12 20.499s11.666 31.166 24.999 86.499c2 5.33301 9.66699 45.666 23 120.999c4.66699 28 12.667 51 24 69
c0.666992 9.33301 1.66699 18.333 3 27s2 14.667 2 18c9.33301 24.667 16 48.667 20 72s6 46 6 68c8 41.333 12 71.333 12 90c0 20.667 -4.66699 31 -14 31c-8.66699 0 -22.334 -10.333 -41.001 -31c-3.33301 -6.66699 -8 -13.5 -14 -20.5s-11 -13.833 -15 -20.5
c-9.33301 -10.667 -23.833 -31 -43.5 -61s-30.5 -47 -32.5 -51c-7.33301 -3.33301 -32.166 -47.666 -74.499 -132.999s-65.833 -129.333 -70.5 -132c-1.33301 5.33301 -2 12.666 -2 21.999c0 2 1.33301 15 4 39s4 43 4 57c-1.33301 8.66699 -0.333008 25.334 3 50.001
c9.33301 67.333 14 103.666 14 108.999c0 0.666992 3.33301 17.667 10 51c2.66699 14 6 33.667 10 59c4 10 6 18.333 6 25c0 16 -8.66699 24 -26 24c-20 0 -36.667 -7.33301 -50 -22c-0.666992 -2.66699 -1.83398 -10.834 -3.50098 -24.501s-3.16699 -28.834 -4.5 -45.501
l-20 -168c-4 -20.667 -7.66699 -41 -11 -61c0.666992 -2.66699 1 -7 1 -13c-0.666992 -10 -1 -17.667 -1 -23c0 -6.66699 1.66699 -14 5 -22c-2 -6 -3.33301 -12.833 -4 -20.5s-1 -17.5 -1 -29.5c0 -16 0.333008 -30.667 1 -44s1.33398 -26 2.00098 -38
c-0.666992 -8 2.5 -15.333 9.5 -22s15.5 -10 25.5 -10c8 0 15.5 2 22.5 6s13.167 10.333 18.5 19l32 56c0 6.66699 7.33301 18.667 22 36c6.66699 8 11.334 13 14.001 15c-4.66699 3.33301 -2.66699 12 6 26c23.333 38 35 58.667 35 62z" />
    <glyph glyph-name="Egrave" unicode="&#x418;" horiz-adv-x="414" 
d="M219 200c0 9.33301 9.33301 29.8369 28 61.5039s31 49.167 37 52.5c4 0 9.16699 9.66699 15.5 29s12.5 30.333 18.5 33c3.33301 -5.33301 5 -13 5 -23c0 -16.667 -4 -37 -12 -61c-4.66699 -14 -12.334 -33.333 -23.001 -58c0 -12.667 -3.16699 -37.167 -9.5 -73.5
s-12.166 -60.166 -17.499 -71.499c0 -18.667 -2.66699 -45 -8 -79s-8 -59.667 -8 -77c5.33301 -2 10.333 -3 15 -3c4 0 9 1 15 3c4.66699 11.333 8.66699 18.166 12 20.499s11.666 31.166 24.999 86.499c2 5.33301 9.66699 45.666 23 120.999c4.66699 28 12.667 51 24 69
c0.666992 9.33301 1.66699 18.333 3 27s2 14.667 2 18c9.33301 24.667 16 48.667 20 72s6 46 6 68c8 41.333 12 71.333 12 90c0 20.667 -4.66699 31 -14 31c-8.66699 0 -22.334 -10.333 -41.001 -31c-3.33301 -6.66699 -8 -13.5 -14 -20.5s-11 -13.833 -15 -20.5
c-9.33301 -10.667 -23.833 -31 -43.5 -61s-30.5 -47 -32.5 -51c-7.33301 -3.33301 -32.166 -47.666 -74.499 -132.999s-65.833 -129.333 -70.5 -132c-1.33301 5.33301 -2 12.666 -2 21.999c0 2 1.33301 15 4 39s4 43 4 57c-1.33301 8.66699 -0.333008 25.334 3 50.001
c9.33301 67.333 14 103.666 14 108.999c0 0.666992 3.33301 17.667 10 51c2.66699 14 6 33.667 10 59c4 10 6 18.333 6 25c0 16 -8.66699 24 -26 24c-20 0 -36.667 -7.33301 -50 -22c-0.666992 -2.66699 -1.83398 -10.834 -3.50098 -24.501s-3.16699 -28.834 -4.5 -45.501
l-20 -168c-4 -20.667 -7.66699 -41 -11 -61c0.666992 -2.66699 1 -7 1 -13c-0.666992 -10 -1 -17.667 -1 -23c0 -6.66699 1.66699 -14 5 -22c-2 -6 -3.33301 -12.833 -4 -20.5s-1 -17.5 -1 -29.5c0 -16 0.333008 -30.667 1 -44s1.33398 -26 2.00098 -38
c-0.666992 -8 2.5 -15.333 9.5 -22s15.5 -10 25.5 -10c8 0 15.5 2 22.5 6s13.167 10.333 18.5 19l32 56c0 6.66699 7.33301 18.667 22 36c6.66699 8 11.334 13 14.001 15c-4.66699 3.33301 -2.66699 12 6 26c23.333 38 35 58.667 35 62z" />
    <glyph glyph-name="Eacute" unicode="&#xc9;" horiz-adv-x="418" 
d="M234 200c0 9.33301 9.33301 29.8369 28 61.5039s31 49.167 37 52.5c4 0 9.16699 9.66699 15.5 29s12.5 30.333 18.5 33c3.33301 -5.33301 5 -13 5 -23c0 -16.667 -4 -37 -12 -61c-4.66699 -14 -12.334 -33.333 -23.001 -58c0 -12.667 -3.16699 -37.167 -9.5 -73.5
s-12.166 -60.166 -17.499 -71.499c0 -18.667 -2.66699 -45 -8 -79s-8 -59.667 -8 -77c5.33301 -2 10.333 -3 15 -3c4 0 9 1 15 3c4.66699 11.333 8.66699 18.166 12 20.499s11.666 31.166 24.999 86.499c2 5.33301 9.66699 45.666 23 120.999c4.66699 28 12.667 51 24 69
c0.666992 9.33301 1.66699 18.333 3 27s2 14.667 2 18c9.33301 24.667 16 48.667 20 72s6 46 6 68c8 41.333 12 71.333 12 90c0 20.667 -4.66699 31 -14 31c-8.66699 0 -22.334 -10.333 -41.001 -31c-3.33301 -6.66699 -8 -13.5 -14 -20.5s-11 -13.833 -15 -20.5
c-9.33301 -10.667 -23.833 -31 -43.5 -61s-30.5 -47 -32.5 -51c-7.33301 -3.33301 -32.166 -47.666 -74.499 -132.999s-65.833 -129.333 -70.5 -132c-1.33301 5.33301 -2 12.666 -2 21.999c0 2 1.33301 15 4 39s4 43 4 57c-1.33301 8.66699 -0.333008 25.334 3 50.001
c9.33301 67.333 14 103.666 14 108.999c0 0.666992 3.33301 17.667 10 51c2.66699 14 6 33.667 10 59c4 10 6 18.333 6 25c0 16 -8.66699 24 -26 24c-20 0 -36.667 -7.33301 -50 -22c-0.666992 -2.66699 -1.83398 -10.834 -3.50098 -24.501s-3.16699 -28.834 -4.5 -45.501
l-20 -168c-4 -20.667 -7.66699 -41 -11 -61c0.666992 -2.66699 1 -7 1 -13c-0.666992 -10 -1 -17.667 -1 -23c0 -6.66699 1.66699 -14 5 -22c-2 -6 -3.33301 -12.833 -4 -20.5s-1 -17.5 -1 -29.5c0 -16 0.333008 -30.667 1 -44s1.33398 -26 2.00098 -38
c-0.666992 -8 2.5 -15.333 9.5 -22s15.5 -10 25.5 -10c8 0 15.5 2 22.5 6s13.167 10.333 18.5 19l32 56c0 6.66699 7.33301 18.667 22 36c6.66699 8 11.334 13 14.001 15c-4.66699 3.33301 -2.66699 12 6 26c23.333 38 35 58.667 35 62zM240 604.004
c-10 -7.33301 -24.333 -14.501 -43 -21.501s-30 -12.833 -34 -17.5c0 -3.33301 2.33301 -6.66602 7 -9.99902s8.33398 -5 11.001 -5l47.5 15.5c13 4.33301 23.167 9.5 30.5 15.5c5.33301 0.666992 16.166 5.66699 32.499 15s26.833 14.666 31.5 15.999
c4.66699 8 8.16699 14.333 10.5 19s3.5 9.33398 3.5 14.001c0 4 -0.666992 7.33301 -2 10c-12.667 12.667 -24.334 16.667 -35.001 12c-8 -14 -16.667 -25.667 -26 -35c-5.33301 -6 -16.666 -15.333 -33.999 -28z" />
    <glyph glyph-name="Eacute" unicode="&#x419;" horiz-adv-x="418" 
d="M234 200c0 9.33301 9.33301 29.8369 28 61.5039s31 49.167 37 52.5c4 0 9.16699 9.66699 15.5 29s12.5 30.333 18.5 33c3.33301 -5.33301 5 -13 5 -23c0 -16.667 -4 -37 -12 -61c-4.66699 -14 -12.334 -33.333 -23.001 -58c0 -12.667 -3.16699 -37.167 -9.5 -73.5
s-12.166 -60.166 -17.499 -71.499c0 -18.667 -2.66699 -45 -8 -79s-8 -59.667 -8 -77c5.33301 -2 10.333 -3 15 -3c4 0 9 1 15 3c4.66699 11.333 8.66699 18.166 12 20.499s11.666 31.166 24.999 86.499c2 5.33301 9.66699 45.666 23 120.999c4.66699 28 12.667 51 24 69
c0.666992 9.33301 1.66699 18.333 3 27s2 14.667 2 18c9.33301 24.667 16 48.667 20 72s6 46 6 68c8 41.333 12 71.333 12 90c0 20.667 -4.66699 31 -14 31c-8.66699 0 -22.334 -10.333 -41.001 -31c-3.33301 -6.66699 -8 -13.5 -14 -20.5s-11 -13.833 -15 -20.5
c-9.33301 -10.667 -23.833 -31 -43.5 -61s-30.5 -47 -32.5 -51c-7.33301 -3.33301 -32.166 -47.666 -74.499 -132.999s-65.833 -129.333 -70.5 -132c-1.33301 5.33301 -2 12.666 -2 21.999c0 2 1.33301 15 4 39s4 43 4 57c-1.33301 8.66699 -0.333008 25.334 3 50.001
c9.33301 67.333 14 103.666 14 108.999c0 0.666992 3.33301 17.667 10 51c2.66699 14 6 33.667 10 59c4 10 6 18.333 6 25c0 16 -8.66699 24 -26 24c-20 0 -36.667 -7.33301 -50 -22c-0.666992 -2.66699 -1.83398 -10.834 -3.50098 -24.501s-3.16699 -28.834 -4.5 -45.501
l-20 -168c-4 -20.667 -7.66699 -41 -11 -61c0.666992 -2.66699 1 -7 1 -13c-0.666992 -10 -1 -17.667 -1 -23c0 -6.66699 1.66699 -14 5 -22c-2 -6 -3.33301 -12.833 -4 -20.5s-1 -17.5 -1 -29.5c0 -16 0.333008 -30.667 1 -44s1.33398 -26 2.00098 -38
c-0.666992 -8 2.5 -15.333 9.5 -22s15.5 -10 25.5 -10c8 0 15.5 2 22.5 6s13.167 10.333 18.5 19l32 56c0 6.66699 7.33301 18.667 22 36c6.66699 8 11.334 13 14.001 15c-4.66699 3.33301 -2.66699 12 6 26c23.333 38 35 58.667 35 62zM240 604.004
c-10 -7.33301 -24.333 -14.501 -43 -21.501s-30 -12.833 -34 -17.5c0 -3.33301 2.33301 -6.66602 7 -9.99902s8.33398 -5 11.001 -5l47.5 15.5c13 4.33301 23.167 9.5 30.5 15.5c5.33301 0.666992 16.166 5.66699 32.499 15s26.833 14.666 31.5 15.999
c4.66699 8 8.16699 14.333 10.5 19s3.5 9.33398 3.5 14.001c0 4 -0.666992 7.33301 -2 10c-12.667 12.667 -24.334 16.667 -35.001 12c-8 -14 -16.667 -25.667 -26 -35c-5.33301 -6 -16.666 -15.333 -33.999 -28z" />
    <glyph glyph-name="Ecircumflex" unicode="&#xca;" horiz-adv-x="367" 
d="M186 41c18 -30.667 38.3379 -46.0029 61.0049 -46.0029c15.333 0 32.666 7 51.999 21l31 39c9.33301 2 16.666 6.66699 21.999 14s8 14.333 8 21c0 8 -3.33301 12 -10 12c-4.66699 0 -11.334 -3.66699 -20.001 -11s-16.334 -13.333 -23.001 -18
c-13.333 -9.33301 -24.666 -14 -33.999 -14c-13.333 0 -24.333 8.33301 -33 25c-11.333 14.667 -22 33 -32 55c-27.333 58 -42.666 89.667 -45.999 95c0 8 3.66699 15.333 11 22c1.33301 1.33301 8.33301 7 21 17c2 4.66699 15.167 19.834 39.5 45.501
s37.166 39.834 38.499 42.501c8 11.333 18.333 24.666 31 39.999c16 20 29 39.333 39 58c6 3.33301 11.667 12.666 17 27.999s8 32.666 8 51.999c-2.66699 6.66699 -6 10 -10 10c-0.666992 0 -5 -1.33301 -13 -4c-14.667 0 -31 -6 -49 -18
c-9.33301 -4.66699 -16.166 -9.16699 -20.499 -13.5s-6.5 -8.16602 -6.5 -11.499s2.66699 -7.66602 8 -12.999c3.33301 -3.33301 5 -5.66602 5 -6.99902c-2.66699 -11.333 -13 -31.5 -31 -60.5s-34.333 -51.5 -49 -67.5l-47 -57c-21.333 -25.333 -41.333 -44.333 -60 -57
c0 23.333 5.16699 54.833 15.5 94.5s16.166 66.834 17.499 81.501c2.66699 8 5.5 17.167 8.5 27.5s4.5 19.5 4.5 27.5c0 8.66699 -1.5 15.834 -4.5 21.501s-8.5 10.167 -16.5 13.5c-19.333 -4.66699 -34.5 -14.834 -45.5 -30.501s-16.5 -33.5 -16.5 -53.5
c0 -2.66699 -5.66699 -48.667 -17 -138c-4.66699 -38 -6.33398 -57.667 -5.00098 -59c1.33301 -4 0.833008 -8.83301 -1.5 -14.5s-3.5 -12.834 -3.5 -21.501c-4.66699 -33.333 -8 -59.333 -10 -78c-4.66699 -36.667 -7 -63.667 -7 -81c0 -11.333 1 -20.666 3 -27.999
c2.66699 -0.666992 6.66699 -1.33398 12 -2.00098s9.66602 -1 12.999 -1c10.667 0 18 3.66699 22 11c-2 11.333 -3 23 -3 35c0 22.667 2.66699 47.334 8 74.001c3.33301 18 9.33301 41.333 18 70c4 -3.33301 15 -21 33 -53c8 -14.667 14 -23 18 -25
c2.66699 -4.66699 9.66699 -15 21 -31z" />
    <glyph glyph-name="Ecircumflex" unicode="&#x41a;" horiz-adv-x="367" 
d="M186 41c18 -30.667 38.3379 -46.0029 61.0049 -46.0029c15.333 0 32.666 7 51.999 21l31 39c9.33301 2 16.666 6.66699 21.999 14s8 14.333 8 21c0 8 -3.33301 12 -10 12c-4.66699 0 -11.334 -3.66699 -20.001 -11s-16.334 -13.333 -23.001 -18
c-13.333 -9.33301 -24.666 -14 -33.999 -14c-13.333 0 -24.333 8.33301 -33 25c-11.333 14.667 -22 33 -32 55c-27.333 58 -42.666 89.667 -45.999 95c0 8 3.66699 15.333 11 22c1.33301 1.33301 8.33301 7 21 17c2 4.66699 15.167 19.834 39.5 45.501
s37.166 39.834 38.499 42.501c8 11.333 18.333 24.666 31 39.999c16 20 29 39.333 39 58c6 3.33301 11.667 12.666 17 27.999s8 32.666 8 51.999c-2.66699 6.66699 -6 10 -10 10c-0.666992 0 -5 -1.33301 -13 -4c-14.667 0 -31 -6 -49 -18
c-9.33301 -4.66699 -16.166 -9.16699 -20.499 -13.5s-6.5 -8.16602 -6.5 -11.499s2.66699 -7.66602 8 -12.999c3.33301 -3.33301 5 -5.66602 5 -6.99902c-2.66699 -11.333 -13 -31.5 -31 -60.5s-34.333 -51.5 -49 -67.5l-47 -57c-21.333 -25.333 -41.333 -44.333 -60 -57
c0 23.333 5.16699 54.833 15.5 94.5s16.166 66.834 17.499 81.501c2.66699 8 5.5 17.167 8.5 27.5s4.5 19.5 4.5 27.5c0 8.66699 -1.5 15.834 -4.5 21.501s-8.5 10.167 -16.5 13.5c-19.333 -4.66699 -34.5 -14.834 -45.5 -30.501s-16.5 -33.5 -16.5 -53.5
c0 -2.66699 -5.66699 -48.667 -17 -138c-4.66699 -38 -6.33398 -57.667 -5.00098 -59c1.33301 -4 0.833008 -8.83301 -1.5 -14.5s-3.5 -12.834 -3.5 -21.501c-4.66699 -33.333 -8 -59.333 -10 -78c-4.66699 -36.667 -7 -63.667 -7 -81c0 -11.333 1 -20.666 3 -27.999
c2.66699 -0.666992 6.66699 -1.33398 12 -2.00098s9.66602 -1 12.999 -1c10.667 0 18 3.66699 22 11c-2 11.333 -3 23 -3 35c0 22.667 2.66699 47.334 8 74.001c3.33301 18 9.33301 41.333 18 70c4 -3.33301 15 -21 33 -53c8 -14.667 14 -23 18 -25
c2.66699 -4.66699 9.66699 -15 21 -31z" />
    <glyph glyph-name="Edieresis" unicode="&#xcb;" horiz-adv-x="344" 
d="M187 516c-0.666992 -3.33301 -6.33398 -9.50586 -17.001 -18.5059s-16 -17.5 -16 -25.5c0 -4.66699 1.33301 -9.66699 4 -15c-18.667 -28 -40.667 -77.667 -66 -149c-34.667 -98 -53 -149.333 -55 -154c-13.333 -30 -20 -51.333 -20 -64c-4 -2.66699 -8.5 -15 -13.5 -37
s-7.5 -36.667 -7.5 -44c0 -16.667 4.33301 -25 13 -25c3.33301 0 8.66602 2 15.999 6c20.667 6 34.334 20 41.001 42c4 13.333 6 34.666 6 63.999c8.66699 32 25.334 78.667 50.001 140l56 139c11.333 28.667 20.666 43 27.999 43c4 0 8.16699 -9.66699 12.5 -29
s8.83301 -31.666 13.5 -36.999c-0.666992 -9.33301 -1 -16 -1 -20c0 -9.33301 2.33301 -15.666 7 -18.999c0 -8 0.666992 -18.333 2 -31s2 -22 2 -28c2.66699 -10.667 4.33398 -21.667 5.00098 -33s1 -24.666 1 -39.999s0.166992 -31 0.5 -47s1.5 -30.667 3.5 -44
c-2 -8.66699 -4.33301 -22 -7 -40s-4 -32.667 -4 -44c0 -18 2.33301 -29.667 7 -35c2 -6 6.33301 -9 13 -9c5.33301 0 12.333 2 21 6l28 13c5.33301 7.33301 10.666 18.833 15.999 34.5s8 31.834 8 48.501c0 12.667 -2 26 -6 40v17c0 6 0.333008 12.333 1 19
c0 14 -0.5 24 -1.5 30s-3.5 9.33301 -7.5 10c0 27.333 -1 49.333 -3 66s-5 27.334 -9 32.001c0 12.667 -1.33301 27.5 -4 44.5s-5.66699 27.5 -9 31.5c0 10.667 -1.83301 22.834 -5.5 36.501s-7.83398 21.834 -12.501 24.501c-3.33301 18.667 -5.5 30.5 -6.5 35.5
s-6.5 19.167 -16.5 42.5c10 10 15 20 15 30c0 8 -2.66699 14 -8 18s-12.666 6 -21.999 6c-7.33301 0 -13.666 -1 -18.999 -3c-12.667 -4.66699 -23.667 -14 -33 -28z" />
    <glyph glyph-name="Edieresis" unicode="&#x41b;" horiz-adv-x="344" 
d="M187 516c-0.666992 -3.33301 -6.33398 -9.50586 -17.001 -18.5059s-16 -17.5 -16 -25.5c0 -4.66699 1.33301 -9.66699 4 -15c-18.667 -28 -40.667 -77.667 -66 -149c-34.667 -98 -53 -149.333 -55 -154c-13.333 -30 -20 -51.333 -20 -64c-4 -2.66699 -8.5 -15 -13.5 -37
s-7.5 -36.667 -7.5 -44c0 -16.667 4.33301 -25 13 -25c3.33301 0 8.66602 2 15.999 6c20.667 6 34.334 20 41.001 42c4 13.333 6 34.666 6 63.999c8.66699 32 25.334 78.667 50.001 140l56 139c11.333 28.667 20.666 43 27.999 43c4 0 8.16699 -9.66699 12.5 -29
s8.83301 -31.666 13.5 -36.999c-0.666992 -9.33301 -1 -16 -1 -20c0 -9.33301 2.33301 -15.666 7 -18.999c0 -8 0.666992 -18.333 2 -31s2 -22 2 -28c2.66699 -10.667 4.33398 -21.667 5.00098 -33s1 -24.666 1 -39.999s0.166992 -31 0.5 -47s1.5 -30.667 3.5 -44
c-2 -8.66699 -4.33301 -22 -7 -40s-4 -32.667 -4 -44c0 -18 2.33301 -29.667 7 -35c2 -6 6.33301 -9 13 -9c5.33301 0 12.333 2 21 6l28 13c5.33301 7.33301 10.666 18.833 15.999 34.5s8 31.834 8 48.501c0 12.667 -2 26 -6 40v17c0 6 0.333008 12.333 1 19
c0 14 -0.5 24 -1.5 30s-3.5 9.33301 -7.5 10c0 27.333 -1 49.333 -3 66s-5 27.334 -9 32.001c0 12.667 -1.33301 27.5 -4 44.5s-5.66699 27.5 -9 31.5c0 10.667 -1.83301 22.834 -5.5 36.501s-7.83398 21.834 -12.501 24.501c-3.33301 18.667 -5.5 30.5 -6.5 35.5
s-6.5 19.167 -16.5 42.5c10 10 15 20 15 30c0 8 -2.66699 14 -8 18s-12.666 6 -21.999 6c-7.33301 0 -13.666 -1 -18.999 -3c-12.667 -4.66699 -23.667 -14 -33 -28z" />
    <glyph glyph-name="Igrave" unicode="&#xcc;" horiz-adv-x="464" 
d="M53 2c4.66699 7.33301 7.50391 15.1719 8.50391 23.5049s1.5 18.833 1.5 31.5c1.33301 3.33301 3 15 5 35s3.66699 32 5 36s7 40 17 108c4.66699 29.333 9.33398 43.666 14.001 42.999c4 -2 7 -5 9 -9l16 -36c8.66699 -11.333 17.667 -20.333 27 -27
s19.666 -10 30.999 -10c9.33301 0 18 2.16699 26 6.5s17 12.166 27 23.499c22 5.33301 47.667 26.666 77 63.999l35 47c3.33301 3.33301 5.83301 4.33301 7.5 3s2.5 -4 2.5 -8s-0.833008 -10.667 -2.5 -20s-3.5 -20.333 -5.5 -33s-4 -27.834 -6 -45.501s-4 -27.5 -6 -29.5
c-2.66699 -12.667 -6.33398 -36.334 -11.001 -71.001c-9.33301 -67.333 -16 -112.666 -20 -135.999c8 -2 16 2.83301 24 14.5s16.667 18.5 26 20.5l24 112c7.33301 33.333 15.333 65.5 24 96.5l26.5 93.5c9 31.333 13.5 52.333 13.5 63
c0.666992 4.66699 1.66699 12.167 3 22.5s2 19.166 2 26.499c0 14.667 -1.16699 26 -3.5 34s-6.83301 12 -13.5 12c-5.33301 0 -12.333 -4.66699 -21 -14c-8 -1.33301 -16.333 -6.83301 -25 -16.5s-14.667 -20.5 -18 -32.5l-58 -80c-7.33301 -5.33301 -19 -17 -35 -35
c-26.667 -30 -48.334 -45 -65.001 -45c-12 0 -23.667 5.66699 -35 17c-17.333 20 -28.5 46.833 -33.5 80.5s-7.5 72.5 -7.5 116.5v26c0 24.667 -3 37 -9 37c-1.33301 0 -5.66602 -2 -12.999 -6s-14.333 -6 -21 -6c-3.33301 -4.66699 -8.5 -9 -15.5 -13l-21.5 -12
c-4.66699 -4.66699 -8.5 -25 -11.5 -61s-4.5 -62.667 -4.5 -80c-2 -8.66699 -4.5 -27 -7.5 -55s-4.5 -47.333 -4.5 -58s-1.33301 -25 -4 -43c-6.66699 -45.333 -10 -70.333 -10 -75c0 -8 1 -13 3 -15c-4.66699 -9.33301 -7.83398 -25.333 -9.50098 -48
s-2.5 -49.667 -2.5 -81c0.666992 -2.66699 3 -4 7 -4c3.33301 0 9.66602 2 18.999 6s15.666 6 18.999 6z" />
    <glyph glyph-name="Igrave" unicode="&#x41c;" horiz-adv-x="464" 
d="M53 2c4.66699 7.33301 7.50391 15.1719 8.50391 23.5049s1.5 18.833 1.5 31.5c1.33301 3.33301 3 15 5 35s3.66699 32 5 36s7 40 17 108c4.66699 29.333 9.33398 43.666 14.001 42.999c4 -2 7 -5 9 -9l16 -36c8.66699 -11.333 17.667 -20.333 27 -27
s19.666 -10 30.999 -10c9.33301 0 18 2.16699 26 6.5s17 12.166 27 23.499c22 5.33301 47.667 26.666 77 63.999l35 47c3.33301 3.33301 5.83301 4.33301 7.5 3s2.5 -4 2.5 -8s-0.833008 -10.667 -2.5 -20s-3.5 -20.333 -5.5 -33s-4 -27.834 -6 -45.501s-4 -27.5 -6 -29.5
c-2.66699 -12.667 -6.33398 -36.334 -11.001 -71.001c-9.33301 -67.333 -16 -112.666 -20 -135.999c8 -2 16 2.83301 24 14.5s16.667 18.5 26 20.5l24 112c7.33301 33.333 15.333 65.5 24 96.5l26.5 93.5c9 31.333 13.5 52.333 13.5 63
c0.666992 4.66699 1.66699 12.167 3 22.5s2 19.166 2 26.499c0 14.667 -1.16699 26 -3.5 34s-6.83301 12 -13.5 12c-5.33301 0 -12.333 -4.66699 -21 -14c-8 -1.33301 -16.333 -6.83301 -25 -16.5s-14.667 -20.5 -18 -32.5l-58 -80c-7.33301 -5.33301 -19 -17 -35 -35
c-26.667 -30 -48.334 -45 -65.001 -45c-12 0 -23.667 5.66699 -35 17c-17.333 20 -28.5 46.833 -33.5 80.5s-7.5 72.5 -7.5 116.5v26c0 24.667 -3 37 -9 37c-1.33301 0 -5.66602 -2 -12.999 -6s-14.333 -6 -21 -6c-3.33301 -4.66699 -8.5 -9 -15.5 -13l-21.5 -12
c-4.66699 -4.66699 -8.5 -25 -11.5 -61s-4.5 -62.667 -4.5 -80c-2 -8.66699 -4.5 -27 -7.5 -55s-4.5 -47.333 -4.5 -58s-1.33301 -25 -4 -43c-6.66699 -45.333 -10 -70.333 -10 -75c0 -8 1 -13 3 -15c-4.66699 -9.33301 -7.83398 -25.333 -9.50098 -48
s-2.5 -49.667 -2.5 -81c0.666992 -2.66699 3 -4 7 -4c3.33301 0 9.66602 2 18.999 6s15.666 6 18.999 6z" />
    <glyph glyph-name="Iacute" unicode="&#xcd;" horiz-adv-x="409" 
d="M86 150c0 8 3.50098 16.3359 10.501 25.0029s13.833 14.667 20.5 18c6 0 12.5 0.833008 19.5 2.5s14.167 4.16699 21.5 7.5c14.667 8.66699 34.667 14.167 60 16.5l61 5.5c0 -12.667 -3.16699 -37.167 -9.5 -73.5s-12.166 -60.166 -17.499 -71.499
c0 -18.667 -2.66699 -45 -8 -79s-8 -59.667 -8 -77c5.33301 -2 10.333 -3 15 -3c4 0 9 1 15 3c4.66699 11.333 8.66699 18.166 12 20.499s11.666 31.166 24.999 86.499c2 5.33301 9.66699 45.666 23 120.999c4.66699 28 12.667 51 24 69
c0.666992 9.33301 1.66699 18.333 3 27s2 14.667 2 18c9.33301 24.667 16 48.667 20 72s6 46 6 68c8 41.333 12 71.333 12 90c0 20.667 -4.66699 31 -14 31c-8.66699 0 -22.334 -10.333 -41.001 -31c-3.33301 -6.66699 -8 -13.5 -14 -20.5s-11 -13.833 -15 -20.5
c1.33301 -4.66699 2 -10 2 -16v-18c0 -26 -2.5 -54.833 -7.5 -86.5s-9.16699 -50.834 -12.5 -57.501c-6 -2.66699 -14.167 -4.66699 -24.5 -6s-20.833 -2 -31.5 -2h-15c-6 1.33301 -10.333 2 -13 2c-10 -3.33301 -25.5 -5.33301 -46.5 -6s-36.167 -2.33398 -45.5 -5.00098
c-11.333 -3.33301 -17 1.33398 -17 14.001c0 6 1.33301 15.333 4 28c6 28.667 9 46.334 9 53.001c0 0.666992 3.33301 17.667 10 51c2.66699 14 6 33.667 10 59c4 10 6 18.333 6 25c0 16 -8.66699 24 -26 24c-20 0 -36.667 -7.33301 -50 -22
c-0.666992 -2.66699 -1.83398 -10.834 -3.50098 -24.501s-3.16699 -28.834 -4.5 -45.501l-20 -168c-2 -9.33301 -7 -21.166 -15 -35.499s-12.667 -23.5 -14 -27.5c2.66699 -10.667 6.66699 -21.5 12 -32.5s9 -18.833 11 -23.5c-2.66699 -8 -4 -18.333 -4 -31
c0 -10.667 1 -23.667 3 -39c4.66699 -36 7 -55 7 -57c-0.666992 -8 1 -14.667 5 -20s9.66699 -8 17 -8c14 0 27 9.33301 39 28c1.33301 4 7.33301 14.667 18 32c6 9.33301 9.66699 16.333 11 21c0 4.66699 -1.33301 7 -4 7c-3.33301 0 -7.83301 -2.66699 -13.5 -8l-11.5 -11
c-3.33301 2 -5.66602 8 -6.99902 18s-2 21.333 -2 34v26c0 8 0.333008 15.667 1 23z" />
    <glyph glyph-name="Iacute" unicode="&#x41d;" horiz-adv-x="409" 
d="M86 150c0 8 3.50098 16.3359 10.501 25.0029s13.833 14.667 20.5 18c6 0 12.5 0.833008 19.5 2.5s14.167 4.16699 21.5 7.5c14.667 8.66699 34.667 14.167 60 16.5l61 5.5c0 -12.667 -3.16699 -37.167 -9.5 -73.5s-12.166 -60.166 -17.499 -71.499
c0 -18.667 -2.66699 -45 -8 -79s-8 -59.667 -8 -77c5.33301 -2 10.333 -3 15 -3c4 0 9 1 15 3c4.66699 11.333 8.66699 18.166 12 20.499s11.666 31.166 24.999 86.499c2 5.33301 9.66699 45.666 23 120.999c4.66699 28 12.667 51 24 69
c0.666992 9.33301 1.66699 18.333 3 27s2 14.667 2 18c9.33301 24.667 16 48.667 20 72s6 46 6 68c8 41.333 12 71.333 12 90c0 20.667 -4.66699 31 -14 31c-8.66699 0 -22.334 -10.333 -41.001 -31c-3.33301 -6.66699 -8 -13.5 -14 -20.5s-11 -13.833 -15 -20.5
c1.33301 -4.66699 2 -10 2 -16v-18c0 -26 -2.5 -54.833 -7.5 -86.5s-9.16699 -50.834 -12.5 -57.501c-6 -2.66699 -14.167 -4.66699 -24.5 -6s-20.833 -2 -31.5 -2h-15c-6 1.33301 -10.333 2 -13 2c-10 -3.33301 -25.5 -5.33301 -46.5 -6s-36.167 -2.33398 -45.5 -5.00098
c-11.333 -3.33301 -17 1.33398 -17 14.001c0 6 1.33301 15.333 4 28c6 28.667 9 46.334 9 53.001c0 0.666992 3.33301 17.667 10 51c2.66699 14 6 33.667 10 59c4 10 6 18.333 6 25c0 16 -8.66699 24 -26 24c-20 0 -36.667 -7.33301 -50 -22
c-0.666992 -2.66699 -1.83398 -10.834 -3.50098 -24.501s-3.16699 -28.834 -4.5 -45.501l-20 -168c-2 -9.33301 -7 -21.166 -15 -35.499s-12.667 -23.5 -14 -27.5c2.66699 -10.667 6.66699 -21.5 12 -32.5s9 -18.833 11 -23.5c-2.66699 -8 -4 -18.333 -4 -31
c0 -10.667 1 -23.667 3 -39c4.66699 -36 7 -55 7 -57c-0.666992 -8 1 -14.667 5 -20s9.66699 -8 17 -8c14 0 27 9.33301 39 28c1.33301 4 7.33301 14.667 18 32c6 9.33301 9.66699 16.333 11 21c0 4.66699 -1.33301 7 -4 7c-3.33301 0 -7.83301 -2.66699 -13.5 -8l-11.5 -11
c-3.33301 2 -5.66602 8 -6.99902 18s-2 21.333 -2 34v26c0 8 0.333008 15.667 1 23z" />
    <glyph glyph-name="Icircumflex" unicode="&#xce;" horiz-adv-x="404" 
d="M238 33c40.667 37.333 73.665 75.333 98.998 114c42 64 63 129 63 195c-4.66699 39.333 -19 75.666 -43 108.999c-27.333 37.333 -59.666 59 -96.999 65c-19.333 -5.33301 -34.166 -11.166 -44.499 -17.499s-17.833 -12.833 -22.5 -19.5l-21 -12
c-8.66699 -5.33301 -14.667 -10.666 -18 -15.999c-2 -6 -5.33301 -9 -10 -9c-1.33301 0 -2.33301 1.66699 -3 5c0.666992 5.33301 1 9.33301 1 12c9.33301 14.667 14 26.667 14 36c0 8.66699 -4.66699 13.667 -14 15l-21 -16
c-17.333 -28.667 -35.666 -66.334 -54.999 -113.001l-49 -117c-6.66699 -6.66699 -10.667 -15.5 -12 -26.5s-2.33301 -21.167 -3 -30.5c0 -6 1.66699 -9 5 -9s8.33301 3.33301 15 10c2 2 5 5.66699 9 11c1.33301 -5.33301 2 -9.33301 2 -12c0 -3.33301 -1 -8.33301 -3 -15
s-3 -12 -3 -16c-2.66699 -20 -4.33398 -32 -5.00098 -36v-22c0 -40 7.33301 -72.667 22 -98s37.667 -38 69 -38c13.333 0 28.333 3 45 9l49 17c4 4 8.83301 8.5 14.5 13.5s11.167 8.83301 16.5 11.5zM241.998 94c-16 -14.667 -31.3311 -26.168 -45.998 -34.501
s-28.334 -12.5 -41.001 -12.5c-14 0 -25.833 5.16699 -35.5 15.5s-17.167 26 -22.5 47s-8 41.833 -8 62.5c0 24.667 3.33301 53.334 10 86.001l20 94c17.333 24 29.666 39 36.999 45c14.667 12.667 38 23 70 31c34 0 61 -15.333 81 -46c18 -27.333 27 -61.333 27 -102
c0 -24 -3.16699 -45.167 -9.5 -63.5s-14.833 -36.833 -25.5 -55.5c-13.333 -22.667 -32.333 -45 -57 -67z" />
    <glyph glyph-name="Icircumflex" unicode="&#x41e;" horiz-adv-x="404" 
d="M238 33c40.667 37.333 73.665 75.333 98.998 114c42 64 63 129 63 195c-4.66699 39.333 -19 75.666 -43 108.999c-27.333 37.333 -59.666 59 -96.999 65c-19.333 -5.33301 -34.166 -11.166 -44.499 -17.499s-17.833 -12.833 -22.5 -19.5l-21 -12
c-8.66699 -5.33301 -14.667 -10.666 -18 -15.999c-2 -6 -5.33301 -9 -10 -9c-1.33301 0 -2.33301 1.66699 -3 5c0.666992 5.33301 1 9.33301 1 12c9.33301 14.667 14 26.667 14 36c0 8.66699 -4.66699 13.667 -14 15l-21 -16
c-17.333 -28.667 -35.666 -66.334 -54.999 -113.001l-49 -117c-6.66699 -6.66699 -10.667 -15.5 -12 -26.5s-2.33301 -21.167 -3 -30.5c0 -6 1.66699 -9 5 -9s8.33301 3.33301 15 10c2 2 5 5.66699 9 11c1.33301 -5.33301 2 -9.33301 2 -12c0 -3.33301 -1 -8.33301 -3 -15
s-3 -12 -3 -16c-2.66699 -20 -4.33398 -32 -5.00098 -36v-22c0 -40 7.33301 -72.667 22 -98s37.667 -38 69 -38c13.333 0 28.333 3 45 9l49 17c4 4 8.83301 8.5 14.5 13.5s11.167 8.83301 16.5 11.5zM241.998 94c-16 -14.667 -31.3311 -26.168 -45.998 -34.501
s-28.334 -12.5 -41.001 -12.5c-14 0 -25.833 5.16699 -35.5 15.5s-17.167 26 -22.5 47s-8 41.833 -8 62.5c0 24.667 3.33301 53.334 10 86.001l20 94c17.333 24 29.666 39 36.999 45c14.667 12.667 38 23 70 31c34 0 61 -15.333 81 -46c18 -27.333 27 -61.333 27 -102
c0 -24 -3.16699 -45.167 -9.5 -63.5s-14.833 -36.833 -25.5 -55.5c-13.333 -22.667 -32.333 -45 -57 -67z" />
    </font>
</defs>
</svg>
